Subcategories

Colin Hay Band - Wayfaring Sons (1990) Original U.S. Pressing

Posted By: flac jacket
Colin Hay Band - Wayfaring Sons (1990) Original U.S. Pressing

Colin Hay Band - Wayfaring Sons (1990) Original U.S. Pressing
EAC Secure Rip | FLAC (Image + Cue + Log) - 297 MB | Complete Scans (Jpeg 600 dpi) - 112 MB | MP3 (CBR320 Kbps) - 96.6 MB
Rock, Pop | MCA Records | MCAD-6346 | 38:43 minutes | 5% WinRar Recovery | Hosted on: Uploaded & FilePost

Wayfaring Sons is the second solo album by Scottish-Australian singer and former Men at Work lead singer Colin Hay.

After Men at Work broke up in the mid-'80s, vocalist/rhythm guitarist Colin Hay continued as a solo artist. Looking for Jack – credited to Colin James Hay – was issued in 1987, but then he formed the Colin Hay Band and eventually released Wayfaring Sons in 1990. His new band included violinist/mandolinist Gerry Hale, bass guitarist Paul Gadsby, and drummer Robert Dillon. Wayfaring Sons is an intriguing album. It's rooted more in Celtic and folk music than the new wave and pub rock flavors of Men at Work, and this new direction is evident with the violin and jangly acoustic guitar on the title track. Hay's music still sounds bright; he's just using different tools to achieve it. The most Men at Work-like song here is "Into My Life." "Dream On (In the Night)" rests on Hay's warm, throaty singing burr and jittery percussion, bass guitar, and violin lines. The most notable part of "Not So Lonely" is the Gaelic background vocals. "Don't Drink the Water" is the album's highlight; it's a very Police-like ska/reggae song with cheeky, ecology-based lyrics. Hay actually permits himself to take an electric guitar solo on "Help Me," a mid-tempo pop song with more environment-themed lyrics, told from Earth's point of view. "Back in My Loving Arms" is a soothing, pleasant tune. Unfortunately, Wayfaring Sons was not a commercial success. Even Men at Work would have had problems in 1990, being sandwiched between the tail end of hair metal's heyday and the looming grunge scene. Fans of Hay's distinctive singing will enjoy Wayfaring Sons, and Men at Work followers should give it a listen. Reviewed by Bret Adams allmusic.com

Exact Audio Copy V1.0 beta 2 from 29. April 2011

EAC extraction logfile from 19. December 2012, 15:49

Colin Hay / Wayfaring Sons

Used drive : HL-DT-STDVDRAM GH60N Adapter: 0 ID: 1

Read mode : Secure
Utilize accurate stream : Yes
Defeat audio cache : Yes
Make use of C2 pointers : No

Read offset correction : 667
Overread into Lead-In and Lead-Out : No
Fill up missing offset samples with silence : Yes
Delete leading and trailing silent blocks : No
Null samples used in CRC calculations : Yes
Used interface : Native Win32 interface for Win NT & 2000

Used output format : User Defined Encoder
Selected bitrate : 1024 kBit/s
Quality : High
Add ID3 tag : No
Command line compressor : C:\Program Files (x86)\Exact Audio Copy\Flac\flac.exe
Additional command line options : -V -5 -T "artist=%albumartist%" -T "title=%title%" -T "album=%albumtitle%" -T "date=%year%" -T "genre=%genre%" -T "tracknumber=%tracknr%" %source%


TOC of the extracted CD

Track | Start | Length | Start sector | End sector
––––––––––––––––––––––––––––-
1 | 0:00.37 | 3:32.08 | 37 | 15944
2 | 3:32.45 | 4:21.22 | 15945 | 35541
3 | 7:53.67 | 3:32.73 | 35542 | 51514
4 | 11:26.65 | 4:56.17 | 51515 | 73731
5 | 16:23.07 | 4:16.63 | 73732 | 92994
6 | 20:39.70 | 3:42.65 | 92995 | 109709
7 | 24:22.60 | 3:04.25 | 109710 | 123534
8 | 27:27.10 | 3:51.07 | 123535 | 140866
9 | 31:18.17 | 3:30.55 | 140867 | 156671
10 | 34:48.72 | 3:54.05 | 156672 | 174226


Range status and errors

Selected range

Filename C:\EAC\Colin Hay - (1990) Wayfaring Sons\Colin Hay - Wayfaring Sons.wav

Peak level 100.0 %
Extraction speed 1.9 X
Range quality 99.9 %
Test CRC 2C69AD35
Copy CRC 2C69AD35
Copy OK

No errors occurred


AccurateRip summary

Track 1 accurately ripped (confidence 13) [01185AB3] (AR v1)
Track 2 accurately ripped (confidence 13) [199651AD] (AR v1)
Track 3 accurately ripped (confidence 13) [593F8C2D] (AR v1)
Track 4 accurately ripped (confidence 12) [3C8A5F4F] (AR v1)
Track 5 accurately ripped (confidence 13) [03FF6A5A] (AR v1)
Track 6 accurately ripped (confidence 12) [51CC949A] (AR v1)
Track 7 accurately ripped (confidence 13) [94F37AA9] (AR v1)
Track 8 accurately ripped (confidence 13) [C789CBF8] (AR v1)
Track 9 accurately ripped (confidence 13) [FB16BCF2] (AR v1)
Track 10 accurately ripped (confidence 13) [598E0042] (AR v1)

All tracks accurately ripped

End of status report

==== Log checksum E8FD0427C6C638EE84E535B82A042CBEC3F876C2D66B41D94A43697724F7785A ====


Track Listing:

01. Wayfaring Sons
02. Into My Life
03. Storm In My Heart
04. Dream On (In The Night)
05. Not So Lonely
06. Don't Drink The Water
07. Help Me
08. Dreamtime In Glasgow
09. Back In My Loving Arms
10. Ya (Rest In Peace)


CD Released: February 2, 1990


Musicians

Colin Hay - vocals, acoustic 12-string guitar, acoustic 6-string guitar, electric guitar, E-Bow
Gerry Hale - violin, mandolin, background vocals
Paul Gadsby - bass guitar, background vocals
Robert Dillon - drums, percussion
Robby Kilgore - keyboards
Jann Karam - background vocals ("Not So Lonely")


foobar2000 1.1.7 / Dynamic Range Meter 1.1.0
log date: 2013-01-22 23:49:57

––––––––––––––––––––––––––––––––––––––––
Analyzed: Colin Hay / Wayfaring Sons
––––––––––––––––––––––––––––––––––––––––

DR Peak RMS Duration Track
––––––––––––––––––––––––––––––––––––––––
DR10 -0.18 dB -12.13 dB 3:32 01-Wayfaring Sons
DR10 -0.23 dB -12.56 dB 4:21 02-Into My Life
DR10 -0.40 dB -12.44 dB 3:33 03-Storm In My Heart
DR11 -0.22 dB -13.97 dB 4:56 04-Dream On (In The Night)
DR9 0.00 dB -12.70 dB 4:17 05-Not So Lonely
DR9 -0.33 dB -11.53 dB 3:43 06-Don't Drink The Water
DR9 -0.05 dB -11.24 dB 3:04 07-Help Me
DR9 -0.19 dB -10.57 dB 3:51 08-Dreamtime In Glasgow
DR10 -0.01 dB -11.92 dB 3:31 09-Back In My Loving Arms
DR9 -0.33 dB -12.84 dB 3:54 10-Ya (Rest In Peace)
––––––––––––––––––––––––––––––––––––––––

Number of tracks: 10
Official DR value: DR10

Samplerate: 44100 Hz
Channels: 2
Bits per sample: 16
Bitrate: 1023 kbps
Codec: FLAC
================================================================================

Colin Hay Band - Wayfaring Sons (1990) Original U.S. Pressing

Ripped and Scanned from the Stadium Studios Library December 2012
5% WinRar Recovery