Subcategories

Colin Hay - Company Of Strangers (Brown Bag Edition) (2002) U.S Original Pressing

Posted By: flac jacket
Colin Hay - Company Of Strangers (Brown Bag Edition) (2002) U.S Original Pressing

Colin Hay - Company Of Strangers (Brown Bag Edition) (2002) U.S Original Pressing
EAC Secure Rip | FLAC (Image + Cue + Log) - 319 MB | Complete Scans (Jpeg 600 dpi) - 263 MB | MP3 (CBR320 Kbps) - 118 MB
Rock, Pop | Lazy Eye Records | LE0006 | 47:45 minutes | 5% WinRar Recovery | Hosted on: Uploaded & FilePost

Company Of Strangers is the seventh solo album by former Men at Work lead singer Colin Hay. It was released in 2002 on Hay's independent record label, Lazy Eye.

Arriving largely unnoticed in 2002, Company of Strangers turns out to be a bit of a pivotal moment for Colin Hay, albeit something of a minor one. At this time, he had yet to become a regular on L.A.’s Largo-based singer/songwriter scene and was still struggling to shake off the stigma of being a new wave relic. While he was struggling to hit upon the right image, he had found the right sound, creating nicely crafted mature music that swayed between sunbleached strummed acoustics and clever little pop numbers. While some of the production here is a little bigger than the songs call for – most notable on the gilded surface of the opener “I Got Woken Up” and the lite loops underpinning “Beautiful World” – the overall vibe is relaxed and friendly, in debt to Hay’s charm but not relying on it, because the songs are sturdy enough to stand on their own. Reviewed by Stephen Thomas Erlewine allmusic.com

Exact Audio Copy V1.0 beta 2 from 29. April 2011

EAC extraction logfile from 22. December 2012, 23:06

Colin Hay / Company Of Strangers (Brown Bag Edition)

Used drive : HL-DT-STDVDRAM GH60N Adapter: 0 ID: 1

Read mode : Secure
Utilize accurate stream : Yes
Defeat audio cache : Yes
Make use of C2 pointers : No

Read offset correction : 667
Overread into Lead-In and Lead-Out : No
Fill up missing offset samples with silence : Yes
Delete leading and trailing silent blocks : No
Null samples used in CRC calculations : Yes
Used interface : Native Win32 interface for Win NT & 2000

Used output format : User Defined Encoder
Selected bitrate : 1024 kBit/s
Quality : High
Add ID3 tag : No
Command line compressor : C:\Program Files (x86)\Exact Audio Copy\Flac\flac.exe
Additional command line options : -V -5 -T "artist=%albumartist%" -T "title=%title%" -T "album=%albumtitle%" -T "date=%year%" -T "genre=%genre%" -T "tracknumber=%tracknr%" %source%


TOC of the extracted CD

Track | Start | Length | Start sector | End sector
––––––––––––––––––––––––––––-
1 | 0:00.00 | 3:40.00 | 0 | 16499
2 | 3:40.00 | 4:24.07 | 16500 | 36306
3 | 8:04.07 | 4:02.22 | 36307 | 54478
4 | 12:06.29 | 4:47.08 | 54479 | 76011
5 | 16:53.37 | 2:59.49 | 76012 | 89485
6 | 19:53.11 | 3:17.11 | 89486 | 104271
7 | 23:10.22 | 4:55.03 | 104272 | 126399
8 | 28:05.25 | 3:37.71 | 126400 | 142745
9 | 31:43.21 | 3:50.46 | 142746 | 160041
10 | 35:33.67 | 5:26.04 | 160042 | 184495
11 | 40:59.71 | 3:39.41 | 184496 | 200961
12 | 44:39.37 | 3:04.68 | 200962 | 214829


Range status and errors

Selected range

Filename C:\EAC\Colin Hay - (2002) Company Of Strangers (Brown Bag Edition)\Colin Hay - Company Of Strangers (Brown Bag Edition).wav

Peak level 97.7 %
Extraction speed 2.0 X
Range quality 100.0 %
Test CRC C956586E
Copy CRC C956586E
Copy OK

No errors occurred


AccurateRip summary

Track 1 accurately ripped (confidence 3) [E80BD260] (AR v1)
Track 2 accurately ripped (confidence 3) [E7638A1A] (AR v1)
Track 3 accurately ripped (confidence 3) [D010632E] (AR v1)
Track 4 accurately ripped (confidence 3) [6E2C8C1B] (AR v1)
Track 5 accurately ripped (confidence 3) [3F178A54] (AR v1)
Track 6 accurately ripped (confidence 3) [CE420F9B] (AR v1)
Track 7 accurately ripped (confidence 3) [F39EDDB0] (AR v1)
Track 8 accurately ripped (confidence 3) [2BC049B3] (AR v1)
Track 9 accurately ripped (confidence 2) [886DD4F2] (AR v1)
Track 10 accurately ripped (confidence 2) [B75EF095] (AR v1)
Track 11 accurately ripped (confidence 2) [A5DB1064] (AR v1)
Track 12 accurately ripped (confidence 3) [97772377] (AR v1)

All tracks accurately ripped

End of status report

==== Log checksum 7F6DDAF5B10ACA8C60B6372F0AA4E8FCAE5980A84180946E9D496AD359CE9AC0 ====


Track Listing:

01. I Got Woken Up
02. Small Town Big Hell
03. Lucky Bastard
04. Company Of Strangers
05. No Win Situation
06. Dear J
07. Small Price To Be Free
08. How Long Will It Last
09. Lifeline
10. Don´t Wait Up
11. Beautiful World
12. And If You Only Knew


Album Released: September 9, 2002


foobar2000 1.1.7 / Dynamic Range Meter 1.1.0
log date: 2013-01-27 20:06:52

––––––––––––––––––––––––––––––––––––––––
Analyzed: Colin Hay / Company Of Strangers (Brown Bag Edition)
––––––––––––––––––––––––––––––––––––––––

DR Peak RMS Duration Track
––––––––––––––––––––––––––––––––––––––––
DR6 -0.20 dB -7.93 dB 3:40 01-I Got Woken Up
DR7 -0.20 dB -8.94 dB 4:24 02-Small Town Big Hell
DR7 -0.20 dB -9.20 dB 4:02 03-Lucky Bastard
DR7 -0.20 dB -8.74 dB 4:47 04-Company Of Strangers
DR7 -0.20 dB -8.51 dB 3:00 05-No Win Situation
DR6 -0.20 dB -8.81 dB 3:17 06-Dear J
DR8 -1.85 dB -11.60 dB 4:55 07-Small Price To Be Free
DR6 -0.20 dB -8.94 dB 3:38 08-How Long Will It Last
DR6 -0.20 dB -8.14 dB 3:51 09-Lifeline
DR8 -1.21 dB -11.39 dB 5:26 10-Don´t Wait Up
DR7 -0.71 dB -9.89 dB 3:40 11-Beautiful World
DR7 -0.20 dB -10.58 dB 3:05 12-And If You Only Knew
––––––––––––––––––––––––––––––––––––––––

Number of tracks: 12
Official DR value: DR7

Samplerate: 44100 Hz
Channels: 2
Bits per sample: 16
Bitrate: 891 kbps
Codec: FLAC
================================================================================

Colin Hay - Company Of Strangers (Brown Bag Edition) (2002) U.S Original Pressing

Ripped and Scanned from the Stadium Studios Library December 2012
5% WinRar Recovery