Subcategories

Colin Hay - Peaks & Valleys (1992) [2005 Lazy Eye Reissue]

Posted By: flac jacket
Colin Hay - Peaks & Valleys (1992) [2005 Lazy Eye Reissue]

Colin Hay - Peaks & Valleys (1992) [2005 Lazy Eye Reissue]
EAC Secure Rip | FLAC (Image + Cue + Log) - 328 MB | Complete Scans (Jpeg 600 dpi) - 78.4 MB | MP3 (CBR320 Kbps) - 119 MB
Rock, Pop | Lazy Eye Records| LE0001 | 48:50 minutes | 5% WinRar Recovery | Hosted on: Uploaded & FilePost

Peaks & Valleys is the third solo album by former Men at Work lead singer Colin Hay, released in 1992. Hay recorded each song in one take.

Even though it doesn't contain any truly outstanding songs, Peaks & Valleys is a pleasant and engaging collection of jangly, vaguely reggae-ish pop from Colin Hay, demonstrating that his melodic skills have not left him. Reviewed by Stephen Thomas Erlewine allmusic.com

Exact Audio Copy V1.0 beta 2 from 29. April 2011

EAC extraction logfile from 19. December 2012, 16:58

Colin Hay / Peaks & Valleys

Used drive : HL-DT-STDVDRAM GH60N Adapter: 0 ID: 1

Read mode : Secure
Utilize accurate stream : Yes
Defeat audio cache : Yes
Make use of C2 pointers : No

Read offset correction : 667
Overread into Lead-In and Lead-Out : No
Fill up missing offset samples with silence : Yes
Delete leading and trailing silent blocks : No
Null samples used in CRC calculations : Yes
Used interface : Native Win32 interface for Win NT & 2000

Used output format : User Defined Encoder
Selected bitrate : 1024 kBit/s
Quality : High
Add ID3 tag : No
Command line compressor : C:\Program Files (x86)\Exact Audio Copy\Flac\flac.exe
Additional command line options : -V -5 -T "artist=%albumartist%" -T "title=%title%" -T "album=%albumtitle%" -T "date=%year%" -T "genre=%genre%" -T "tracknumber=%tracknr%" %source%


TOC of the extracted CD

Track | Start | Length | Start sector | End sector
––––––––––––––––––––––––––––-
1 | 0:00.00 | 3:58.70 | 0 | 17919
2 | 3:58.70 | 3:50.18 | 17920 | 35187
3 | 7:49.13 | 3:28.01 | 35188 | 50788
4 | 11:17.14 | 3:31.39 | 50789 | 66652
5 | 14:48.53 | 4:57.53 | 66653 | 88980
6 | 19:46.31 | 2:31.43 | 88981 | 100348
7 | 22:17.74 | 5:18.71 | 100349 | 124269
8 | 27:36.70 | 2:18.53 | 124270 | 134672
9 | 29:55.48 | 3:15.34 | 134673 | 149331
10 | 33:11.07 | 2:44.12 | 149332 | 161643
11 | 35:55.19 | 6:28.74 | 161644 | 190817
12 | 42:24.18 | 2:59.16 | 190818 | 204258
13 | 45:23.34 | 3:26.33 | 204259 | 219741


Range status and errors

Selected range

Filename C:\EAC\Colin Hay - (1992) Peaks & Valleys\Colin Hay - Peaks & Valleys.wav

Peak level 100.0 %
Extraction speed 1.7 X
Range quality 99.9 %
Test CRC 21933175
Copy CRC 21933175
Copy OK

No errors occurred


AccurateRip summary

Track 1 cannot be verified as accurate (confidence 2) [BCEDFD3B], AccurateRip returned [131BE403] (AR v2)
Track 2 cannot be verified as accurate (confidence 2) [45690345], AccurateRip returned [EA1BCF77] (AR v2)
Track 3 cannot be verified as accurate (confidence 2) [EE618374], AccurateRip returned [A4FB2D8B] (AR v2)
Track 4 cannot be verified as accurate (confidence 2) [E710B912], AccurateRip returned [CA98B653] (AR v2)
Track 5 cannot be verified as accurate (confidence 2) [C2518B8E], AccurateRip returned [64C3BA9A] (AR v2)
Track 6 cannot be verified as accurate (confidence 2) [8C8B2976], AccurateRip returned [CB1EE6BE] (AR v2)
Track 7 cannot be verified as accurate (confidence 2) [CF8854AD], AccurateRip returned [E791708F] (AR v2)
Track 8 cannot be verified as accurate (confidence 2) [78737453], AccurateRip returned [9B050FA9] (AR v2)
Track 9 cannot be verified as accurate (confidence 2) [85C01B8F], AccurateRip returned [945B0149] (AR v2)
Track 10 cannot be verified as accurate (confidence 2) [B487748C], AccurateRip returned [26AED6D9] (AR v2)
Track 11 cannot be verified as accurate (confidence 2) [C61B403D], AccurateRip returned [8747D308] (AR v2)
Track 12 cannot be verified as accurate (confidence 2) [D7968818], AccurateRip returned [5DCEA254] (AR v2)
Track 13 cannot be verified as accurate (confidence 2) [0CBA95A0], AccurateRip returned [DC4E3588] (AR v2)

No tracks could be verified as accurate
You may have a different pressing from the one(s) in the database

End of status report

==== Log checksum 1952263F0FAD4B3FABCB32F9570D29CCFBE02FC362F63F114E77EB5FA47AEB79 ====


Track Listing:

01. Into The Cornfields
02. She Keeps Me Dreaming
03. Can't Take This Town
04. Walk Amongst His Ruins
05. Hold Onto My Hand
06. Keep On Walking
07. Dream On
08. Boy Boy
09. Conversation
10. Melbourne Song
11. Sometimes I Wish
12. Go Ask An Old Man
13. Sea Dogs


Album originally released by Trafalgar Records in 1992.
Reissue Released: 2005


foobar2000 1.1.7 / Dynamic Range Meter 1.1.0
log date: 2013-01-24 21:30:20

––––––––––––––––––––––––––––––––––––––––
Analyzed: Colin Hay / Peaks & Valleys
––––––––––––––––––––––––––––––––––––––––

DR Peak RMS Duration Track
––––––––––––––––––––––––––––––––––––––––
DR8 -0.01 dB -10.02 dB 3:59 01-Into The Cornfields
DR9 -0.01 dB -11.45 dB 3:50 02-She Keeps Me Dreaming
DR8 -0.01 dB -9.74 dB 3:28 03-Can't Take This Town
DR8 -0.01 dB -10.29 dB 3:32 04-Walk Amongst His Ruins
DR7 -0.01 dB -9.15 dB 4:58 05-Hold Onto My Hand
DR7 -0.01 dB -9.65 dB 2:32 06-Keep On Walking
DR6 -0.01 dB -7.45 dB 5:19 07-Dream On
DR10 -0.01 dB -12.82 dB 2:19 08-Boy Boy
DR8 -0.01 dB -10.08 dB 3:15 09-Conversation
DR7 -0.01 dB -9.56 dB 2:44 10-Melbourne Song
DR8 -0.01 dB -11.62 dB 6:29 11-Sometimes I Wish
DR11 0.00 dB -13.58 dB 2:59 12-Go Ask An Old Man
DR7 -0.01 dB -9.21 dB 3:26 13-Sea Dogs
––––––––––––––––––––––––––––––––––––––––

Number of tracks: 13
Official DR value: DR8

Samplerate: 44100 Hz
Channels: 2
Bits per sample: 16
Bitrate: 896 kbps
Codec: FLAC
================================================================================

Colin Hay - Peaks & Valleys (1992) [2005 Lazy Eye Reissue]

Ripped and Scanned from the Stadium Studios Library December 2012
5% WinRar Recovery