Subcategories

Colin Hay - Topanga (1994) [2009 Compass Remaster]

Posted By: flac jacket
Colin Hay - Topanga (1994) [2009 Compass Remaster]

Colin Hay - Topanga (1994) [2009 Compass Remaster]
EAC Secure Rip | FLAC (Image + Cue + Log) Complete Scans (Jpeg 600 dpi) - 571 MB | MP3 (CBR320 Kbps) - 139 MB
Rock, Pop Rock | Compass Records | 7 4509 2 | 55:23 minutes | 5% WinRar Recovery | Hosted on: Uploaded & FilePost

Topanga is the fourth solo album by Scottish-Australian singer and former Men at Work lead singer Colin Hay, originally released in 1994. 2009 Compass Records remastered version with new artwork and bonus track.

Colin Hay's fourth solo release finds him in top form. An infectious collection of guitar-based tracks fleshed out by a full band, in a perfect world this would have been a hit album. Highlighted by the carpe diem anthem, "Waiting for My Real Life to Begin," there's not a weak song in the batch. Hay's songwriting skills, never bad to begin with, have been more finely honed on Topanga. Similar to musician Bruce Cockburn, his lyrics present a weathered view measured with compassion and insightful observations on his world – both external and internal. Topanga is a good choice for those seeking intelligent songwriting and timeless songs. Reviewed by Rob Caldwell allmusic.com

Exact Audio Copy V1.0 beta 2 from 29. April 2011

EAC extraction logfile from 24. December 2012, 16:15

Colin Hay / Topanga [2009 Compass Remaster]

Used drive : HL-DT-STDVDRAM GH60N Adapter: 0 ID: 1

Read mode : Secure
Utilize accurate stream : Yes
Defeat audio cache : Yes
Make use of C2 pointers : No

Read offset correction : 667
Overread into Lead-In and Lead-Out : No
Fill up missing offset samples with silence : Yes
Delete leading and trailing silent blocks : No
Null samples used in CRC calculations : Yes
Used interface : Native Win32 interface for Win NT & 2000

Used output format : User Defined Encoder
Selected bitrate : 1024 kBit/s
Quality : High
Add ID3 tag : No
Command line compressor : C:\Program Files (x86)\Exact Audio Copy\Flac\flac.exe
Additional command line options : -V -5 -T "artist=%albumartist%" -T "title=%title%" -T "album=%albumtitle%" -T "date=%year%" -T "genre=%genre%" -T "tracknumber=%tracknr%" %source%


TOC of the extracted CD

Track | Start | Length | Start sector | End sector
––––––––––––––––––––––––––––-
1 | 0:00.00 | 3:20.27 | 0 | 15026
2 | 3:20.27 | 4:09.34 | 15027 | 33735
3 | 7:29.61 | 4:57.00 | 33736 | 56010
4 | 12:26.61 | 4:51.43 | 56011 | 77878
5 | 17:18.29 | 3:59.51 | 77879 | 95854
6 | 21:18.05 | 4:53.61 | 95855 | 117890
7 | 26:11.66 | 2:55.10 | 117891 | 131025
8 | 29:07.01 | 3:48.33 | 131026 | 148158
9 | 32:55.34 | 5:14.31 | 148159 | 171739
10 | 38:09.65 | 3:57.58 | 171740 | 189572
11 | 42:07.48 | 3:47.42 | 189573 | 206639
12 | 45:55.15 | 4:52.68 | 206640 | 228607
13 | 50:48.08 | 4:34.33 | 228608 | 249190


Range status and errors

Selected range

Filename C:\EAC\Colin Hay - (1994) Topanga [2009 Compass Remaster]\Colin Hay - Topanga [2009 Compass Remaster].wav

Peak level 98.8 %
Extraction speed 1.8 X
Range quality 100.0 %
Test CRC 424BFA47
Copy CRC 424BFA47
Copy OK

No errors occurred


AccurateRip summary

Track 1 accurately ripped (confidence 1) [9A7D723C] (AR v1)
Track 2 accurately ripped (confidence 1) [72CBDCD7] (AR v1)
Track 3 accurately ripped (confidence 1) [AAE5250B] (AR v1)
Track 4 accurately ripped (confidence 1) [799DA776] (AR v1)
Track 5 accurately ripped (confidence 1) [69452AD2] (AR v1)
Track 6 accurately ripped (confidence 1) [A0727FBF] (AR v1)
Track 7 accurately ripped (confidence 1) [24F4FCF9] (AR v1)
Track 8 accurately ripped (confidence 1) [97B02BEB] (AR v1)
Track 9 accurately ripped (confidence 1) [5BDFD6DD] (AR v1)
Track 10 accurately ripped (confidence 1) [B43BFCF4] (AR v1)
Track 11 accurately ripped (confidence 1) [5C420266] (AR v1)
Track 12 accurately ripped (confidence 1) [937C6E4D] (AR v1)
Track 13 accurately ripped (confidence 1) [FECC9BB6] (AR v1)

All tracks accurately ripped

End of status report

==== Log checksum 223DA607D80652796ED992F47158E53647DB3C9ED6D5269FFAC023D4AD856768 ====


Track Listing:

01. I Haven't Seen You In A Long Time
02. Into The Cornfields
03. Waiting For My Real Life To Begin
04. Can't Take This Town
05. I Think I Know
06. Against The Tide
07. I Don't Miss You Now
08. She Put The Blame On You
09. Woman's Face
10. Lost Generation
11. Road To Mandalay
12. Ooh, Ooh, Ooh, Ooh, Baby
13. Spencer The Rover (Bonus Track)


Album Released: December 7, 1994
Compass Records Remastered CD Released: June 2, 2009


foobar2000 1.1.7 / Dynamic Range Meter 1.1.0
log date: 2013-02-13 00:01:51

––––––––––––––––––––––––––––––––––––––––
Analyzed: Colin Hay / Topanga [2009 Compass Remaster]
––––––––––––––––––––––––––––––––––––––––

DR Peak RMS Duration Track
––––––––––––––––––––––––––––––––––––––––
DR10 -0.56 dB -12.40 dB 3:20 01-I Haven't Seen You In A Long Time
DR9 -0.10 dB -11.38 dB 4:09 02-Into The Cornfields
DR10 -0.10 dB -11.65 dB 4:57 03-Waiting For My Real Life To Begin
DR10 -0.10 dB -12.13 dB 4:52 04-Can't Take This Town
DR10 -0.43 dB -12.70 dB 4:00 05-I Think I Know
DR10 -0.42 dB -13.06 dB 4:54 06-Against The Tide
DR9 -0.10 dB -10.58 dB 2:55 07-I Don't Miss You Now
DR10 -0.10 dB -11.35 dB 3:48 08-She Put The Blame On You
DR10 -0.51 dB -12.96 dB 5:14 09-Woman's Face
DR9 -0.43 dB -10.99 dB 3:58 10-Lost Generation
DR9 -0.42 dB -11.31 dB 3:48 11-Road To Mandalay
DR10 -0.10 dB -13.39 dB 4:53 12-Ooh, Ooh, Ooh, Ooh Baby
DR10 -0.65 dB -14.58 dB 4:34 13-Spencer The Rover (Bonus Track)
––––––––––––––––––––––––––––––––––––––––

Number of tracks: 13
Official DR value: DR10

Samplerate: 44100 Hz
Channels: 2
Bits per sample: 16
Bitrate: 926 kbps
Codec: FLAC
================================================================================

Colin Hay - Topanga (1994) [2009 Compass Remaster]

Ripped and Scanned from the Stadium Studios Library December 2012
5% WinRar Recovery