Subcategories

Colin Hay - Topanga (1994) [2003 Hypertension Reissue]

Posted By: flac jacket
Colin Hay - Topanga (1994) [2003 Hypertension Reissue]

Colin Hay - Topanga (1994) [2003 Hypertension Reissue]
EAC Secure Rip | FLAC (Image + Cue + Log) - 378 MB | Complete Scans (Jpeg 600 dpi) - 158 MB | MP3 (CBR320 Kbps) - 133 MB
Rock, Pop | Hypertension | HYP 3224 | 54:32 minutes | 5% WinRar Recovery | Hosted on: Uploaded & FilePost

Topanga is the fourth solo album by Scottish-Australian singer and former Men at Work lead singer Colin Hay, released in 1994.

Colin Hay's fourth solo release finds him in top form. An infectious collection of guitar-based tracks fleshed out by a full band, in a perfect world this would have been a hit album. Highlighted by the carpe diem anthem, "Waiting for My Real Life to Begin," there's not a weak song in the batch. Hay's songwriting skills, never bad to begin with, have been more finely honed on Topanga. Similar to musician Bruce Cockburn, his lyrics present a weathered view measured with compassion and insightful observations on his world – both external and internal. Topanga is a good choice for those seeking intelligent songwriting and timeless songs. Reviewed by Rob Caldwell allmusic.com

Exact Audio Copy V1.0 beta 2 from 29. April 2011

EAC extraction logfile from 19. December 2012, 20:30

Colin Hay / Topanga

Used drive : HL-DT-STDVDRAM GH60N Adapter: 0 ID: 1

Read mode : Secure
Utilize accurate stream : Yes
Defeat audio cache : Yes
Make use of C2 pointers : No

Read offset correction : 667
Overread into Lead-In and Lead-Out : No
Fill up missing offset samples with silence : Yes
Delete leading and trailing silent blocks : No
Null samples used in CRC calculations : Yes
Used interface : Native Win32 interface for Win NT & 2000

Used output format : User Defined Encoder
Selected bitrate : 1024 kBit/s
Quality : High
Add ID3 tag : No
Command line compressor : C:\Program Files (x86)\Exact Audio Copy\Flac\flac.exe
Additional command line options : -V -5 -T "artist=%albumartist%" -T "title=%title%" -T "album=%albumtitle%" -T "date=%year%" -T "genre=%genre%" -T "tracknumber=%tracknr%" %source%


TOC of the extracted CD

Track | Start | Length | Start sector | End sector
––––––––––––––––––––––––––––-
1 | 0:00.00 | 3:20.26 | 0 | 15025
2 | 3:20.26 | 4:09.34 | 15026 | 33734
3 | 7:29.60 | 4:57.00 | 33735 | 56009
4 | 12:26.60 | 4:51.42 | 56010 | 77876
5 | 17:18.27 | 3:59.52 | 77877 | 95853
6 | 21:18.04 | 4:53.60 | 95854 | 117888
7 | 26:11.64 | 2:55.11 | 117889 | 131024
8 | 29:07.00 | 3:48.39 | 131025 | 148163
9 | 32:55.39 | 5:14.30 | 148164 | 171743
10 | 38:09.69 | 3:57.53 | 171744 | 189571
11 | 42:07.47 | 3:47.42 | 189572 | 206638
12 | 45:55.14 | 4:47.61 | 206639 | 228224
13 | 50:43.00 | 3:48.27 | 228225 | 245351


Range status and errors

Selected range

Filename C:\EAC\Colin Hay - (1994) Topanga\Colin Hay - Topanga.wav

Peak level 98.8 %
Extraction speed 2.1 X
Range quality 100.0 %
Test CRC 917DE72F
Copy CRC 917DE72F
Copy OK

No errors occurred


AccurateRip summary

Track 1 accurately ripped (confidence 4) [D361D933] (AR v1)
Track 2 accurately ripped (confidence 4) [749030E4] (AR v1)
Track 3 accurately ripped (confidence 3) [0D52E748] (AR v1)
Track 4 accurately ripped (confidence 4) [706FE414] (AR v1)
Track 5 accurately ripped (confidence 4) [59133253] (AR v1)
Track 6 accurately ripped (confidence 3) [300B28E9] (AR v1)
Track 7 accurately ripped (confidence 3) [14FEAE7D] (AR v1)
Track 8 accurately ripped (confidence 3) [6464DAE0] (AR v1)
Track 9 accurately ripped (confidence 3) [7C6213D4] (AR v1)
Track 10 accurately ripped (confidence 3) [EA4DF899] (AR v1)
Track 11 accurately ripped (confidence 3) [A44B9DAA] (AR v1)
Track 12 accurately ripped (confidence 3) [4D0C57A4] (AR v1)
Track 13 accurately ripped (confidence 3) [6298A3F2] (AR v1)

All tracks accurately ripped

End of status report

==== Log checksum CA95D7D01265B5CC556C70FCF652318E51E507C18286653E2D725767B4387B7D ====


Track Listing:

01. I Haven't Seen You In A Long Time
02. Into The Cornfields
03. Waiting For My Real Life To Begin
04. Can't Take This Town
05. I Think I Know
06. Against The Tide
07. I Don't Miss You Now
08. She Put The Blame On You
09. Woman's Face
10. Lost Generation
11. Road To Mandalay
12. Ooh, Ooh, Ooh, Ooh, Baby
13. Overkill (Acoustic Version) (Bonus Track)


Album Released: 1994
CD Reissue Released: 2003


foobar2000 1.1.7 / Dynamic Range Meter 1.1.0
log date: 2013-01-24 21:36:13

––––––––––––––––––––––––––––––––––––––––
Analyzed: Colin Hay / Topanga
––––––––––––––––––––––––––––––––––––––––

DR Peak RMS Duration Track
––––––––––––––––––––––––––––––––––––––––
DR10 -0.56 dB -12.40 dB 3:20 01-I Haven't Seen You In A Long Time
DR9 -0.10 dB -11.37 dB 4:09 02-Into The Cornfields
DR10 -0.10 dB -11.65 dB 4:57 03-Waiting For My Real Life To Begin
DR10 -0.10 dB -12.13 dB 4:52 04-Can't Take This Town
DR10 -0.43 dB -12.69 dB 4:00 05-I Think I Know
DR10 -0.42 dB -13.06 dB 4:54 06-Against The Tide
DR9 -0.10 dB -10.58 dB 2:55 07-I Don't Miss You Now
DR10 -0.10 dB -11.35 dB 3:49 08-She Put The Blame On You
DR10 -0.51 dB -12.96 dB 5:14 09-Woman's Face
DR9 -0.43 dB -10.99 dB 3:58 10-Lost Generation
DR9 -0.42 dB -11.31 dB 3:48 11-Road To Mandalay
DR10 -0.10 dB -13.31 dB 4:48 12-Ooh, Ooh, Ooh, Ooh, Baby
DR12 -0.28 dB -15.71 dB 3:48 13-Overkill (Acoustic Version) (Bonus Track)
––––––––––––––––––––––––––––––––––––––––

Number of tracks: 13
Official DR value: DR10

Samplerate: 44100 Hz
Channels: 2
Bits per sample: 16
Bitrate: 923 kbps
Codec: FLAC
================================================================================

Colin Hay - Topanga (1994) [2003 Hypertension Reissue]

Ripped and Scanned from the Stadium Studios Library December 2012
5% WinRar Recovery