Subcategories

Collegium Musicum 90, Simon Standage - Vivaldi: String Concertos, Vol.2 (2001) (Repost)

Posted By: tirexiss
Collegium Musicum 90, Simon Standage - Vivaldi: String Concertos, Vol.2 (2001) (Repost)

Collegium Musicum 90, Simon Standage - Vivaldi: String Concertos, Vol.2 (2001)
EAC | FLAC (image+.cue, log) | Covers + Digital Booklet | 65:40 | 370 MB
Genre: Classical | Label: Chandos Records | Catalog: CHAN 0668

With this album, Simon Standage continues his survey of the 40 odd concertos for strings by Vivaldi. As with period practice, winds are added to a few of the works. The continuo consists of harpsichord and guitar, the latter a very appealing sounding period instrument. There is less unity of mood on this album than on Volume 1 of this series. Instead, one is prone to gasp at Vivaldi's prodigious invention. There is never any let up in the profusion of fresh ideas and interesting orchestration. The Collegium Musicum 90 plays with great spirit but never any coarseness. Standage's tempos never dawdle, but nothing ever seems rushed for virtosity's sake. Standage seems to have enormous respect for this music, even if it is one of the more obscure aspects of Vivaldi's genius. The sound engineering, as usual for Chandos, is excellent.

Collegium Musicum 90, Simon Standage - Vivaldi: String Concertos, Vol.2 (2001) (Repost)

Track List:

Antonio Vivaldi (1678-1741)

[1]-[3] Concerto for strings in C major, RV109
[4]-[6] Concerto for strings in G minor, RV152
[7]-[9] Concerto for strings in D minor, RV128
[10]-[12] Concerto for strings in C major, RV117
[13]-[15] Concerto for strings in B flat major 'Conca', RV163
[16]-[18] Concerto for strings in G minor, RV153
[19]-[21] Concerto for strings in B minor, RV168
[22]-[24] Concerto for strings in D major, RV124
[25]-[27] Concerto for strings in C minor, RV120
[28]-[30] Concerto for strings in C major, RV112
[31]-[33] Concerto for strings in F minor, RV143
[34]-[36] Concerto for strings in B flat major, RV162

Performers:
Collegium Musicum 90
Simon Standage

Exact Audio Copy V1.0 beta 3 from 29. August 2011

EAC extraction logfile from 5. October 2012, 20:29

Collegium Musicum 90, Simon Standage / Vivaldi - String Concertos, Vol.2

Used drive : HL-DT-STDVDRAM GSA-4083N Adapter: 1 ID: 0

Read mode : Secure
Utilize accurate stream : Yes
Defeat audio cache : Yes
Make use of C2 pointers : No

Read offset correction : 667
Overread into Lead-In and Lead-Out : No
Fill up missing offset samples with silence : Yes
Delete leading and trailing silent blocks : No
Null samples used in CRC calculations : Yes
Used interface : Native Win32 interface for Win NT & 2000

Used output format : User Defined Encoder
Selected bitrate : 896 kBit/s
Quality : High
Add ID3 tag : No
Command line compressor : C:\Program Files\Exact Audio Copy\Flac\flac.exe
Additional command line options : -V -8 %source%


TOC of the extracted CD

Track | Start | Length | Start sector | End sector
––––––––––––––––––––––––––––-
1 | 0:00.00 | 1:41.63 | 0 | 7637
2 | 1:41.63 | 1:12.34 | 7638 | 13071
3 | 2:54.22 | 1:20.41 | 13072 | 19112
4 | 4:14.63 | 2:08.00 | 19113 | 28712
5 | 6:22.63 | 1:21.16 | 28713 | 34803
6 | 7:44.04 | 1:52.22 | 34804 | 43225
7 | 9:36.26 | 2:38.00 | 43226 | 55075
8 | 12:14.26 | 0:58.37 | 55076 | 59462
9 | 13:12.63 | 1:46.17 | 59463 | 67429
10 | 14:59.05 | 2:37.58 | 67430 | 79262
11 | 17:36.63 | 1:47.26 | 79263 | 87313
12 | 19:24.14 | 2:09.12 | 87314 | 97000
13 | 21:33.26 | 1:56.18 | 97001 | 105718
14 | 23:29.44 | 0:58.37 | 105719 | 110105
15 | 24:28.06 | 1:09.74 | 110106 | 115354
16 | 25:38.05 | 2:46.21 | 115355 | 127825
17 | 28:24.26 | 2:19.37 | 127826 | 138287
18 | 30:43.63 | 1:57.17 | 138288 | 147079
19 | 32:41.05 | 2:27.18 | 147080 | 158122
20 | 35:08.23 | 2:04.16 | 158123 | 167438
21 | 37:12.39 | 1:04.51 | 167439 | 172289
22 | 38:17.15 | 2:31.24 | 172290 | 183638
23 | 40:48.39 | 1:39.49 | 183639 | 191112
24 | 42:28.13 | 2:01.67 | 191113 | 200254
25 | 44:30.05 | 1:55.17 | 200255 | 208896
26 | 46:25.22 | 1:58.17 | 208897 | 217763
27 | 48:23.39 | 2:18.41 | 217764 | 228154
28 | 50:42.05 | 2:07.17 | 228155 | 237696
29 | 52:49.22 | 1:19.58 | 237697 | 243679
30 | 54:09.05 | 0:42.58 | 243680 | 246887
31 | 54:51.63 | 2:48.00 | 246888 | 259487
32 | 57:39.63 | 0:49.00 | 259488 | 263162
33 | 58:28.63 | 2:55.17 | 263163 | 276304
34 | 61:24.05 | 1:54.58 | 276305 | 284912
35 | 63:18.63 | 1:16.26 | 284913 | 290638
36 | 64:35.14 | 1:04.24 | 290639 | 295462


Range status and errors

Selected range

Filename J:\Music\Vivaldi - String Concertos - Vol.2\Vivaldi - String Concertos, Vol.2.wav

Peak level 98.1 %
Extraction speed 4.1 X
Range quality 99.9 %
Test CRC 8DE0786A
Copy CRC 8DE0786A
Copy OK

No errors occurred

End of status report

==== Log checksum FC99C45BC6F5ED8600A2AE72B8772B252786744DB0848316A6088BB55D5336E7 ====

[CUETools log; Date: 20.08.2017 9:42:22; Version: 2.1.5]
[CTDB TOCID: BUB8OhaXNbwitmbK93Eh2YUYHQM-] found.
Track | CTDB Status
1 | (11/11) Accurately ripped
2 | (11/11) Accurately ripped
3 | (11/11) Accurately ripped
4 | ( 9/11) Differs in 2 samples @00:32:46
5 | (11/11) Accurately ripped
6 | (11/11) Accurately ripped
7 | (11/11) Accurately ripped
8 | (11/11) Accurately ripped
9 | (11/11) Accurately ripped
10 | (11/11) Accurately ripped
11 | (11/11) Accurately ripped
12 | (11/11) Accurately ripped
13 | (11/11) Accurately ripped
14 | (11/11) Accurately ripped
15 | (11/11) Accurately ripped
16 | (11/11) Accurately ripped
17 | (11/11) Accurately ripped
18 | (11/11) Accurately ripped
19 | (11/11) Accurately ripped
20 | (11/11) Accurately ripped
21 | (11/11) Accurately ripped
22 | (11/11) Accurately ripped
23 | (11/11) Accurately ripped
24 | (11/11) Accurately ripped
25 | (11/11) Accurately ripped
26 | (11/11) Accurately ripped
27 | (11/11) Accurately ripped
28 | (11/11) Accurately ripped
29 | (11/11) Accurately ripped
30 | (11/11) Accurately ripped
31 | ( 9/11) Differs in 8 samples @00:38:10,00:38:69
32 | (11/11) Accurately ripped
33 | (11/11) Accurately ripped
34 | (10/11) Accurately ripped
35 | (11/11) Accurately ripped
36 | (10/11) Accurately ripped
[AccurateRip ID: 0053597e-0852c66c-fa0f6324] found.
Track [ CRC | V2 ] Status
01 [9727ed67|0c9c04e2] (2+2/6) Accurately ripped
02 [4a0fe82c|306602f2] (2+2/6) Accurately ripped
03 [2a9ef9b5|dc197b52] (2+2/6) Accurately ripped
04 [b2078c29|7535e5ab] (0+0/6) No match
05 [4f7fde70|c4eb79c0] (2+2/6) Accurately ripped
06 [bdc5266a|80c3d4d6] (2+2/6) Accurately ripped
07 [04593473|7c783acd] (2+2/6) Accurately ripped
08 [e2b215f7|44c43a87] (2+2/6) Accurately ripped
09 [59373197|894ee37a] (2+2/6) Accurately ripped
10 [dac3d88d|95c70354] (2+2/6) Accurately ripped
11 [1d057c46|7542fc3d] (2+2/6) Accurately ripped
12 [22a62982|84bce4ee] (2+2/6) Accurately ripped
13 [f486db8b|82a2dbe1] (2+2/6) Accurately ripped
14 [2e8026ce|143351b5] (2+2/6) Accurately ripped
15 [dd05fe94|5d17d156] (2+2/6) Accurately ripped
16 [0af4305e|e2cb11d4] (2+2/6) Accurately ripped
17 [d6aff87f|11425e2a] (2+2/6) Accurately ripped
18 [0a468414|91d62dc3] (2+2/6) Accurately ripped
19 [478ea093|f3724550] (2+2/6) Accurately ripped
20 [4ed3e165|88563b53] (2+2/6) Accurately ripped
21 [349dcd56|f4f97415] (2+2/6) Accurately ripped
22 [4536cddc|5001f20a] (2+2/6) Accurately ripped
23 [0f32c651|cd15d70a] (2+2/6) Accurately ripped
24 [7789da3e|bcb08081] (2+2/6) Accurately ripped
25 [a68ad61b|63a9b246] (2+2/6) Accurately ripped
26 [4dbf02b1|417439bf] (2+2/6) Accurately ripped
27 [f7aa622e|5a682e83] (2+2/6) Accurately ripped
28 [cabe3019|80d96d48] (2+2/6) Accurately ripped
29 [a40c77f0|ceaf10d4] (2+2/6) Accurately ripped
30 [287fd540|8c4f7c8a] (2+2/6) Accurately ripped
31 [2c31b646|d38d37b5] (0+0/6) No match
32 [28a6f96d|9af7e29f] (2+2/6) Accurately ripped
33 [8c36e3e2|4a8121fb] (2+2/6) Accurately ripped
34 [e4024193|b58f45a8] (2+2/6) Accurately ripped
35 [006f7385|084eb428] (2+2/6) Accurately ripped
36 [4155cf0e|73dd9942] (2+2/6) Accurately ripped
Offsetted by -676:
01 [9bed7ca4] (2/6) Accurately ripped
02 [fca1b966] (2/6) Accurately ripped
03 [232dfe60] (2/6) Accurately ripped
04 [1e166488] (0/6) No match (V2 was not tested)
05 [b3d52a08] (2/6) Accurately ripped
06 [a3bbdc2e] (2/6) Accurately ripped
07 [69f93f39] (2/6) Accurately ripped
08 [434388f0] (2/6) Accurately ripped
09 [36011173] (2/6) Accurately ripped
10 [bc88a188] (2/6) Accurately ripped
11 [43e3b0be] (2/6) Accurately ripped
12 [6efa42bd] (2/6) Accurately ripped
13 [10462a0d] (2/6) Accurately ripped
14 [ba7049d5] (2/6) Accurately ripped
15 [a16a83cd] (2/6) Accurately ripped
16 [cc45ef9c] (2/6) Accurately ripped
17 [3bfa1b03] (2/6) Accurately ripped
18 [3a4c5071] (2/6) Accurately ripped
19 [198ccfe3] (2/6) Accurately ripped
20 [2f3e16b3] (2/6) Accurately ripped
21 [815b0b01] (2/6) Accurately ripped
22 [4a4659d0] (2/6) Accurately ripped
23 [08fffd91] (2/6) Accurately ripped
24 [417b4e0b] (2/6) Accurately ripped
25 [80e0113e] (2/6) Accurately ripped
26 [b85a7a75] (2/6) Accurately ripped
27 [67935bc0] (2/6) Accurately ripped
28 [8946df4f] (2/6) Accurately ripped
29 [babf1bfe] (2/6) Accurately ripped
30 [bef5c0ab] (2/6) Accurately ripped
31 [2d03d06c] (0/6) No match (V2 was not tested)
32 [ebcc7184] (2/6) Accurately ripped
33 [1fa616ca] (2/6) Accurately ripped
34 [8cb486aa] (2/6) Accurately ripped
35 [2d39f466] (2/6) Accurately ripped
36 [23d0ec4e] (2/6) Accurately ripped

Track Peak [ CRC32 ] [W/O NULL] [ LOG ]
– 98,1 [8DE0786A] [EE1EF9E5] CRC32
01 98,1 [C9C99154] [B64240E2]
02 56,1 [134FA324] [F9950AC3]
03 84,7 [2AF28DF7] [D243361B]
04 83,8 [67DE3E0C] [EE8DBACF]
05 41,0 [39B8E012] [18177135]
06 74,8 [A292D777] [D11460FB]
07 68,1 [79C7AA8B] [DADC3470]
08 81,5 [58B69078] [1641ABA2]
09 87,6 [14F3DFA7] [12B47E15]
10 82,7 [5CB00A29] [398BE12F]
11 64,8 [794DA484] [12D4D9B5]
12 96,6 [45DE9714] [ED906291]
13 87,2 [F554685C] [66C948F6]
14 49,0 [A63091CD] [803E58D4]
15 88,2 [14E5F2E9] [4CC77020]
16 62,0 [6F3D1878] [E9C494AF]
17 68,8 [33E8511C] [9B3E2986]
18 73,1 [748EEE7D] [E95646B4]
19 92,3 [B8B09B8E] [2B7153CA]
20 54,9 [82BFE733] [5F41DB8B]
21 74,8 [535BD997] [2C677B0B]
22 74,6 [28B4B1AF] [469FC02F]
23 56,0 [FC9A875B] [F27BEA48]
24 65,2 [795C1A89] [99A039E0]
25 72,8 [E0522DC7] [D9A58BEF]
26 32,6 [90D085BA] [CE84B450]
27 86,1 [9E54A15F] [BBF3C36A]
28 72,4 [6AA74758] [1CBCE4F5]
29 67,3 [D8A6F616] [92F27201]
30 71,2 [3E2FABE6] [9BFD29B6]
31 80,7 [DCD3B280] [B139F8B8]
32 49,8 [EBCBDFAF] [E66EFD40]
33 67,8 [16640811] [151FD192]
34 86,0 [8E55D4E6] [5BBD3628]
35 59,7 [8799F1E0] [001CCA2D]
36 64,4 [9925A2FF] [6DE79DF6]

Thanks to the Original ripper A-Z!

Download: