Tags
Language
Tags

Colosseum II - Electric Savage (1977) {1993, US 1st Press}

Posted By: popsakov
Colosseum II - Electric Savage (1977) {1993, US 1st Press}

Colosseum II - Electric Savage (1977) {1993, US 1st Press}
EAC Rip | FLAC (Img) + Cue + Log ~ 302 Mb | MP3 CBR320 ~ 132 Mb
Full Scans | 00:41:47 | RAR 5% Recovery
Jazz-Rock, Progressive Rock | One Way Records / MCA Special Products #MCAD-22081

Colosseum II was a British band formed in 1975 by the former Colosseum drummer and leader, Jon Hiseman, following the 1974 demise of his band Tempest. Hiseman announced his plan to form the band eventually named Colosseum II in November 1974, but only Gary Moore was named as a member. Rehearsals were due to begin on January 1, 1975, but a permanent unit was not finalised until May 1975. Among musicians who almost made the group were Graham Bell, Duncan Mackay and Mark Clarke. The final line-up was completed by Don Airey, Neil Murray and Mike Starrs.

The band was oriented toward jazz fusion, much of which was driven by the guitar work of Moore, leading to a much heavier sound than the original Colosseum band. After disappointing sales of the first album, Murray and Starrs were unceremoniously sacked by the band's record label (Bronze) in July 1976.

The band continued with a new record label and a new bass player (John Mole), and recorded two further largely instrumental and still commercially unsuccessful albums. They also performed on Variations with Andrew Lloyd Webber, which also featured Julian Lloyd Webber on cello, Rod Argent on keyboards and Hiseman's wife, Barbara Thompson, on flute and sax. This album reached number 2 on the UK charts.

In August 1978, Moore left to rejoin Thin Lizzy for a fourth spell, and Airey's brother Keith Airey replaced him on guitar. Plans for a fourth album fell through when Don Airey decided to join Rainbow in December 1978.

~ Wiki

***************

Colosseum II - Electric Savage (1977) {1993, US 1st Press}

Colosseum II - Electric Savage (1977) {1993, US 1st Press}

Track List:

01. Put It This Way [5:00]
02. All Skin And Bone [3:49]
03. Rivers [5:53]
04. The Scorch [6:05]
05. Lament [4:43]
06. Desperado [6:02]
07. Am I [4:18]
08. Intergalactic Strut [5:58]

Personnel:
Bass Guitar - John Mole
Drums, Cymbal, Gong, Bells, Percussion - Jon Hiseman
Electric Piano, Grand Piano, Synthesizer, Organ, Clavinet - Don Airey
Guitar, Vocals - Gary Moore

EAC extraction logfile from 19. June 2007, 23:46 for CD
Colosseum II / Electric Savage

Used drive : BENQ DVD DD DW1640 Adapter: 1 ID: 0
Read mode : Secure with NO C2, accurate stream, disable cache
Read offset correction : 618
Overread into Lead-In and Lead-Out : No

Used output format : Internal WAV Routines
44.100 Hz; 16 Bit; Stereo

Other options :
Fill up missing offset samples with silence : Yes
Delete leading and trailing silent blocks : No
Installed external ASPI interface


Range status and errors
Selected range
Filename D:\Music\Rip\Colosseum II - Electric Savage.wav

Peak level 100.0 %
Range quality 99.9 %
CRC 06DAF38A
Copy OK

No errors occured

End of status report

foobar2000 1.4 / Dynamic Range Meter 1.1.1
log date: 2020-05-25 12:05:47

––––––––––––––––––––––––––––––––––––––––
Analyzed: Colosseum II / Electric Savage
––––––––––––––––––––––––––––––––––––––––

DR Peak RMS Duration Track
––––––––––––––––––––––––––––––––––––––––
DR14 0.00 dB -17.51 dB 5:00 01-Put It This Way
DR16 -0.44 dB -19.41 dB 3:49 02-All Skin And Bone
DR14 -3.98 dB -21.64 dB 5:53 03-Rivers
DR13 -4.07 dB -20.31 dB 6:05 04-The Scorch
DR14 -5.21 dB -22.51 dB 4:43 05-Lament
DR13 -5.37 dB -20.62 dB 6:02 06-Desperado
DR14 -3.51 dB -21.07 dB 4:18 07-Am I
DR15 -1.79 dB -18.25 dB 5:58 08-Intergalactic Strut
––––––––––––––––––––––––––––––––––––––––

Number of tracks: 8
Official DR value: DR14

Samplerate: 44100 Hz
Channels: 2
Bits per sample: 16
Bitrate: 860 kbps
Codec: FLAC
================================================================================

[CUETools log; Date: 25.05.2020 12:05:22; Version: 2.1.6]
[CTDB TOCID: cG4Ym.5.Q4C88XfScnl1vxSUnJY-] found.
Track | CTDB Status
1 | (7/7) Accurately ripped
2 | (7/7) Accurately ripped
3 | (7/7) Accurately ripped
4 | (7/7) Accurately ripped
5 | (7/7) Accurately ripped
6 | (7/7) Accurately ripped
7 | (7/7) Accurately ripped
8 | (7/7) Accurately ripped
[AccurateRip ID: 000ca143-0054d5fe-5b09cb08] found.
Track [ CRC | V2 ] Status
01 [53fcb957|701bf689] (0+3/3) Accurately ripped
02 [1655fa22|7400f7ab] (0+3/3) Accurately ripped
03 [15a8c966|0378390b] (0+3/3) Accurately ripped
04 [8e61919d|bc6c878d] (0+3/3) Accurately ripped
05 [c60e209f|be01f8e7] (0+3/3) Accurately ripped
06 [779a81fe|fe41c803] (0+3/3) Accurately ripped
07 [fd8eb25b|69b906cd] (0+3/3) Accurately ripped
08 [1371427d|1fc5dab3] (0+3/3) Accurately ripped

Track Peak [ CRC32 ] [W/O NULL] [ LOG ]
– 100,0 [06DAF38A] [29D56C1C] CRC32
01 100,0 [BE030CAA] [4B21526A]
02 95,0 [3AC23282] [C7263F7A]
03 63,2 [CC26F131] [E761D8AC]
04 62,5 [E2E7D34A] [B10CCB8C]
05 54,8 [CF54B46A] [1F930AC6]
06 53,9 [CF39BF20] [2CDC84DC]
07 66,7 [9256C4E5] [2994ED9E]
08 81,3 [C8E8408A] [C386E7F7]

Colosseum II - Electric Savage (1977) {1993, US 1st Press}


All thanks go to the original ripper(s) …

>>> Colosseum in my Blog <<<

DOWNLOAD: