Tags
Language
Tags

Connie Francis - Kissin, Twistin, Goin Where The Boys Are [1996, 5CD Box, Bear Family BCD 15826 EI]

Posted By: v3122
Connie Francis - Kissin, Twistin, Goin Where The Boys Are [1996, 5CD Box, Bear Family BCD 15826 EI]

Connie Francis - Kissin, Twistin, Goin Where The Boys Are (1996)
Country/Pop/Pop Rock | EAC Rip | Flac(Image) + Cue + Log | MP3 CBR 320Kbps | Covers -> 18 Mb
Bear Family Records | BCD 15826 EI | ~1909 + 900 Mb

Five more CDs of Connie Francis, picking up right where Bear Family's earlier White Sox, Pink Lipstick set left off, in 1960 – although its 300-plus minutes of music only cover the period of 1960 to 1962. By this time, Connie Francis was established as one of the top female vocal talents of her generation, and she was ready to experiment – you hear her successful move into country music, wonderful outtakes, and never-issued songs from her early-'60s sessions. Disc one has more highlights than most greatest-hits albums, notable among them a pair of unissued "Swinging Medley" tracks, and tracks from the most daring of all of her albums, Songs to a Swinging Band. Disc two includes the rest of the Swinging Band album and also highlights her first Nashville folk-style sessions with the Jordanaires. Disc three is devoted to the rest of Francis' Nashville sessions, including her outstanding covers of movie theme songs (one of her top-selling albums) and the folk-type songs with the Jordanaires. Disc four is given over to her recordings of Irish songs and, more significantly, Francis' 1962 Twist album, including the first release of the risquй-sounding "Lovey Dovey Twist." Disc five features more of her Irish songs, as well as a number of hit singles, but the highlight is the previously "lost" original recordings from Francis' April 1962 sessions in Rome, which were believed lost when the accompaniments from those sessions were wiped and replaced by new orchestrations. This set is a major investment of time and attention, but it is rewarding – Francis is one of those performers who seems hardly ever to have recorded anything second-rate.

~ Bruce Eder


covers her career from 1959-62, containing all of her English language songs, covering many musical bases, from country to cabaret to rock…
Connie Francis - Kissin, Twistin, Goin Where The Boys Are [1996, 5CD Box, Bear Family BCD 15826 EI]

Connie Francis:

Born: December 12, 1938, Newark, NJ
Active: '50s, '60s, '70s, '80s, '90s, 2000s
Genres: Rock
Instrument: Vocals
Representative Albums: "Connie's Greatest Hits", "Christmas in My Heart", "Connie's Christmas"
Representative Songs: "Stupid Cupid", "Lipstick on Your Collar", "Everybody's Somebody's Fool"

Connie Francis is the prototype for the female pop singer of today. At the height of her chart popularity in the late '50s and early '60s, Francis was unique as a female recording artist, amassing record sales equal to or surpassing those of many of her male contemporaries. Ultimately, she branched into other styles of music – big band, country, ethnic, and more. She still challenges Madonna as the biggest-selling female recording artist of all time. Like Madonna, Concetta Rosemarie Franconero came from an Italian-American background. Francis started her music career at three, playing an accordion bought for her by her contractor father, George. Her father's dream was not for his daughter to become a star, but for Francis to become independent of men as an adult with her own accordion school of music. At age ten, she was accepted on Startime, a New York City television show that featured talented child singers and performers. The show had no one else who played an accordion. Its host, legendary TV talent scout Arthur Godfrey, had difficulty pronouncing her name and suggested something "easy and Irish," which turned into Francis. After three weeks on Startime, the show's producer and Francis' would-be manager advised her to dump the accordion and concentrate on singing. Francis performed weekly on Startime for four years.

After being turned down by almost every record label she approached, 16-year-old Francis signed a record contract with MGM, only because one of the songs on her demo, "Freddy," also happened to be the name of the president's son. "Freddy" was released in June 1955 as the singer's first single. After a series of flop singles, on October 2, 1957 she undertook what was to be her last session for MGM. Francis had recently accepted a premed scholarship to New York University and was contemplating the end of her career as a singer. Having recorded two songs, she thanked the technicians and musicians, hoping not to have to record the third song her father had in mind, an old tune from 1923. After a false start, she sang it in one take. When Dick Clark played "Who's Sorry Now?" on American Bandstand, he told the show's eight million viewers that Connie Francis was "a new girl singer that is heading straight for the number one spot."

"Who's Sorry Now?" was the first of Francis' long string of worldwide hits. By 1967, she had sold 35 million worldwide, with 35 U.S. Top 40 hits and several number ones ("Everybody's Somebody's Fool," "My Heart Has a Mind of Its Own," "Don't Break the Heart That Loves You," and "Stupid Cupid") to her credit. Released in 1963, "In the Summer of His Years," written as a tribute to the assassinated John F. Kennedy, remains one of the earliest known charity records, with proceeds donated to dependents of the policemen shot during the incident.

Francis had an affinity for languages and was one of the first pop singers to record her songs in other languages; 1961's title song from the movie Where the Boys Are was recorded in six languages. She starred in four (nondescript) films, sang voice-overs in movies for actresses who could not sing, and was a guest star on innumerable TV shows. Music critics who didn't take kindly to Francis' pop music years were eventually won over by her versatility. Her Italian and Jewish albums transformed Francis from a teenage idol to a mature performer at leading nightspots around the world. She has also had a long history being a composer's first choice to interpret songs that went on to become major hits for other artists, including "Somewhere My Love," "Strangers in the Night," "Angel in the Morning," and "When Will the Apples Fall."

While the recording of "Who's Sorry Now?" in 1957 was planned to be her final session for MGM, she actually ended that relationship in 1969, choosing not to renew her contract when MGM was taken over by Polydor. She opted instead for domestic life with her third husband. Francis didn't return to the recording studio until 1973 when the writers of "Tie a Yellow Ribbon," longtime friends, wrote "The Answer" especially for Francis. In 1974, her husband encouraged her to return to the stage, with disastrous consequences. After her third performance, she was raped at the hotel where she was staying. Ultimately, this incident contributed to the end of her marriage. During 1975, nasal surgery temporarily robbed her of her voice. She was on the comeback trail in 1981 when her brother, George, was brutally murdered. It took seven years to determine that through all of those events, she was also a manic depressive. She finally made her return to the stage and recording in 1989, and Connie Francis has continued to sing to sold-out audiences into the new millennium. She has recorded more than 70 LPs.

~ Ed Nimmervoll, Rovi
Connie Francis - Kissin, Twistin, Goin Where The Boys Are (1996):

Connie Francis - Kissin, Twistin, Goin Where The Boys Are [1996, 5CD Box, Bear Family BCD 15826 EI]

Tracklist Disc 1:

01. Teddy
02. It Would Be Worth It
03. No One (false start/chat)
04. No One (second recording)
05. My Dream
06. Cashin' In
07. Valentino (single vocal)
08. Valentino (double vocal)
09. Swinging Medley (Yes, Indeed, Amen, Ac-centu-ate The Positive, Lonesome Road …
10. I Think of You (first recording)
11. The Millionaire
12. Swinging Medley (Yes, Indeed, Amen, Accentuate The Positive, Lonesome Road (w…
13. Jealous of You
14. Robot Man
15. Everybody's Somebody's Fool
16. I Think of You (second recording)
17. Robot Man (master)
18. My Heart Has A Mind of It's Own (version 1) (false start) (take 19)
19. My Heart Has A Mind of It's Own (version 1) (single vocal) (take 21)
20. My Heart Has A Mind of It's Own (version 1) (double vocal) (take 23)
21. I've Got Reason To Worry
22. My Heart Has A Mind of It's Own (version 2) (take 37)
23. My Heart Has A Mind of It's Own (version 3) (take 49/RE4)
24. Love Is Where You Find It
25. Swanee
26. My Love, My Love
27. Angel Eyes
28. I Got Lost In His Arms
29. Gone With The Wind
30. How Long Has This Been Going On
31. It Might As Well Be Spring

Exact Audio Copy V0.99 prebeta 4 from 23. January 2008

Отчёт EAC об извлечении, выполненном 26. февраля 2009, 9:57

Connie Francis / Kissin, Twistin, Goin Where The Boys Are - Disc 1

Дисковод: Optiarc DVD RW AD-7203A Adapter: 3 ID: 0

Режим чтения : Достоверность
Использование точного потока : Да
Отключение кэша аудио : Да
Использование указателей C2 : Нет

Коррекция смещения при чтении : 48
Способность читать области Lead-in и Lead-out : Нет
Заполнение пропущенных сэмплов тишиной : Да
Удаление блоков с тишиной в начале и конце : Нет
При вычислениях CRC использовались нулевые сэмплы : Да
Интерфейс : Установленный внешний ASPI-интерфейс

Выходной формат : Внутренние WAV-операции
Формат сэмплов : 44.100 Гц; 16 бит; стерео


TOC извлечённого CD

Трек | Старт | Длительность | Начальный сектор | Конечный сектор
––––––––––––––––––––––––––––––––––-
1 | 0:00.32 | 2:49.38 | 32 | 12744
2 | 2:49.70 | 2:24.12 | 12745 | 23556
3 | 5:14.07 | 1:16.68 | 23557 | 29324
4 | 6:31.00 | 3:08.32 | 29325 | 43456
5 | 9:39.32 | 2:08.55 | 43457 | 53111
6 | 11:48.12 | 2:00.18 | 53112 | 62129
7 | 13:48.30 | 2:39.10 | 62130 | 74064
8 | 16:27.40 | 2:40.42 | 74065 | 86106
9 | 19:08.07 | 3:10.28 | 86107 | 100384
10 | 22:18.35 | 2:31.40 | 100385 | 111749
11 | 24:50.00 | 2:31.37 | 111750 | 123111
12 | 27:21.37 | 3:07.70 | 123112 | 137206
13 | 30:29.32 | 2:28.30 | 137207 | 148336
14 | 32:57.62 | 1:55.28 | 148337 | 156989
15 | 34:53.15 | 2:43.20 | 156990 | 169234
16 | 37:36.35 | 2:09.10 | 169235 | 178919
17 | 39:45.45 | 1:55.00 | 178920 | 187544
18 | 41:40.45 | 0:47.17 | 187545 | 191086
19 | 42:27.62 | 2:25.10 | 191087 | 201971
20 | 44:52.72 | 2:30.00 | 201972 | 213221
21 | 47:22.72 | 2:17.18 | 213222 | 223514
22 | 49:40.15 | 2:31.40 | 223515 | 234879
23 | 52:11.55 | 2:37.12 | 234880 | 246666
24 | 54:48.67 | 2:16.58 | 246667 | 256924
25 | 57:05.50 | 2:24.52 | 256925 | 267776
26 | 59:30.27 | 2:44.63 | 267777 | 280139
27 | 62:15.15 | 3:06.57 | 280140 | 294146
28 | 65:21.72 | 2:48.45 | 294147 | 306791
29 | 68:10.42 | 2:41.18 | 306792 | 318884
30 | 70:51.60 | 3:01.02 | 318885 | 332461
31 | 73:52.62 | 4:11.03 | 332462 | 351289


Характеристики диапазона извлечения и сообщения об ошибках

Выбранный диапазон

Имя файла D:\Раздачи\Connie Francis\CD 1\Connie Francis - Kissin, Twistin, Goin Where The Boys Are - Disc 1.wav

Пиковый уровень 79.1 %
Качество диапазона 100.0 %
CRC копии 3E12FA6B
Копирование… OK

Ошибок не произошло


AccurateRip: сводка

Трек 1 нет в базе данных
Трек 2 нет в базе данных
Трек 3 нет в базе данных
Трек 4 нет в базе данных
Трек 5 нет в базе данных
Трек 6 нет в базе данных
Трек 7 нет в базе данных
Трек 8 нет в базе данных
Трек 9 нет в базе данных
Трек 10 нет в базе данных
Трек 11 нет в базе данных
Трек 12 нет в базе данных
Трек 13 нет в базе данных
Трек 14 нет в базе данных
Трек 15 нет в базе данных
Трек 16 нет в базе данных
Трек 17 нет в базе данных
Трек 18 нет в базе данных
Трек 19 нет в базе данных
Трек 20 нет в базе данных
Трек 21 нет в базе данных
Трек 22 нет в базе данных
Трек 23 нет в базе данных
Трек 24 нет в базе данных
Трек 25 нет в базе данных
Трек 26 нет в базе данных
Трек 27 нет в базе данных
Трек 28 нет в базе данных
Трек 29 нет в базе данных
Трек 30 нет в базе данных
Трек 31 нет в базе данных

Ни одного трека нет в базе AccurateRip

Конец отчёта

AUDIOCHECKER v2.0 beta (build 457) - by Dester - opdester@freemail.hu
~~~~~~~~~~~~~~~~~~~~~~~~~~~~~~~~~~
-=== DO NOT EDIT THIS FILE! ===-

Path: …\CD 1

1 -=- Connie Francis - Kissin, Twistin, Goin Where The Boys Are - Disc 1.flac -=- CDDA (100%)

127341476

[Verification date: 13.10.2010 15:52:12]
[Disc ID: 0052ab2c-071aa400-cc124b1f]
Pregap length 00:00:32.
Track [ CRC ] Status
01 [e515153b] (03/03) Accurately ripped as in pressing(s) #1
02 [2eecd9db] (03/03) Accurately ripped as in pressing(s) #1
03 [5b4d94d8] (03/03) Accurately ripped as in pressing(s) #1
04 [8e18e6e9] (03/03) Accurately ripped as in pressing(s) #1
05 [d481ddeb] (03/03) Accurately ripped as in pressing(s) #1
06 [e0aaa588] (03/03) Accurately ripped as in pressing(s) #1
07 [103d0ffc] (03/03) Accurately ripped as in pressing(s) #1
08 [aa66aa4a] (03/03) Accurately ripped as in pressing(s) #1
09 [36a131e8] (03/03) Accurately ripped as in pressing(s) #1
10 [9495fffd] (03/03) Accurately ripped as in pressing(s) #1
11 [cca93a4f] (03/03) Accurately ripped as in pressing(s) #1
12 [0ca27b45] (03/03) Accurately ripped as in pressing(s) #1
13 [dbf1a4a2] (03/03) Accurately ripped as in pressing(s) #1
14 [b605669f] (03/03) Accurately ripped as in pressing(s) #1
15 [4c177aaa] (03/03) Accurately ripped as in pressing(s) #1
16 [a9486f6c] (03/03) Accurately ripped as in pressing(s) #1
17 [b1bcda40] (03/03) Accurately ripped as in pressing(s) #1
18 [19ae93c3] (03/03) Accurately ripped as in pressing(s) #1
19 [40ed5397] (03/03) Accurately ripped as in pressing(s) #1
20 [f987ee02] (03/03) Accurately ripped as in pressing(s) #1
21 [0b599f2c] (03/03) Accurately ripped as in pressing(s) #1
22 [23d5891c] (03/03) Accurately ripped as in pressing(s) #1
23 [cf32b2c6] (03/03) Accurately ripped as in pressing(s) #1
24 [af6fab11] (03/03) Accurately ripped as in pressing(s) #1
25 [b06d61e7] (03/03) Accurately ripped as in pressing(s) #1
26 [99e7251f] (03/03) Accurately ripped as in pressing(s) #1
27 [e44ba424] (03/03) Accurately ripped as in pressing(s) #1
28 [b39b7e45] (03/03) Accurately ripped as in pressing(s) #1
29 [9bd59f45] (03/03) Accurately ripped as in pressing(s) #1
30 [8e5cc3c0] (03/03) Accurately ripped as in pressing(s) #1
31 [c27db55f] (03/03) Accurately ripped as in pressing(s) #1

Track [ CRC32 ] [W/O NULL] [ LOG ]
– [3E12FA6B] [397A419C] CRC32
01 [A51CE29D] [DA5BC36D]
02 [1B8948AC] [B66BF03A]
03 [B96390EC] [AED95DD6]
04 [F07B0E0A] [CA9E26F5]
05 [F79AFC04] [00B5780F]
06 [6595A6E9] [269C341F]
07 [989B49A4] [5AD8111A]
08 [D8684F24] [EF4C3970]
09 [92A36F61] [E311FF5F]
10 [DB7055DE] [3CB2E21F]
11 [E867C6EA] [C4880556]
12 [02CD79D7] [6A63B7CD]
13 [DAB4030B] [84D0F37D]
14 [57F6A975] [F88C79C4]
15 [20E1A95D] [60C16422]
16 [F0BA11AA] [CD176379]
17 [8466BA07] [FECBA59F]
18 [9ADE4099] [CF6AAB09]
19 [7046F08D] [1021033B]
20 [964F71CB] [AD152931]
21 [00E5FEDE] [6E139A4D]
22 [08792270] [A844E94A]
23 [9ADE9610] [F54BC5BF]
24 [0736AEAC] [AC181543]
25 [842DEB38] [107B5B51]
26 [02287AB1] [E697545E]
27 [78AAB745] [3BC91F48]
28 [BC9F61A5] [EE5EF79B]
29 [C9021F07] [9B5B3DD5]
30 [3BDE857D] [67099CFA]
31 [959D7DC4] [1F6454B5]

Connie Francis - Kissin, Twistin, Goin Where The Boys Are [1996, 5CD Box, Bear Family BCD 15826 EI]

Tracklist Disc 2:

01. Ol' Man Mose
02. Dat's Love
03. Taboo
04. You're Nobody Til Somebody Loves You
05. Where The Boys Are
06. On The Outside Looking In
07. Many Tears Ago
08. Happy New Year Baby
09. Breakin' In A Brand New Broken Heart
10. No One (Third Recording)
11. Without Your Love
12. Auf Wiedersen'n
13. Baby Roo
14. One Tear Too Many
15. Let The Rest of The World Go By (With Someone Like You)
16. Someone Else's Boy
17. It's Time To Say Goodnight (false start)
18. It's Time To Say Goodnight (long version)
19. Too Many Rules
20. Your Love
21. Together (re-recorded narrative)
22. Together
23. O Suzanna
24. On Top of Old Smokey
25. Every Night (When The Sun Goes In)
26. Boll Weevil
27. Clementine
28. She'll Be Comin Round The Mountain
29. Come on Jerry
30. Careless LoveArtist: Connie Francis

Exact Audio Copy V0.99 prebeta 4 from 23. January 2008

Отчёт EAC об извлечении, выполненном 26. февраля 2009, 10:20

Connie Francis / Kissin, Twistin, Goin Where The Boys Are - Disc 2

Дисковод: Optiarc DVD RW AD-7203A Adapter: 3 ID: 0

Режим чтения : Достоверность
Использование точного потока : Да
Отключение кэша аудио : Да
Использование указателей C2 : Нет

Коррекция смещения при чтении : 48
Способность читать области Lead-in и Lead-out : Нет
Заполнение пропущенных сэмплов тишиной : Да
Удаление блоков с тишиной в начале и конце : Нет
При вычислениях CRC использовались нулевые сэмплы : Да
Интерфейс : Установленный внешний ASPI-интерфейс

Выходной формат : Внутренние WAV-операции
Формат сэмплов : 44.100 Гц; 16 бит; стерео


TOC извлечённого CD

Трек | Старт | Длительность | Начальный сектор | Конечный сектор
––––––––––––––––––––––––––––––––––-
1 | 0:00.32 | 3:05.43 | 32 | 13949
2 | 3:06.00 | 2:05.65 | 13950 | 23389
3 | 5:11.65 | 2:17.57 | 23390 | 33721
4 | 7:29.47 | 2:36.65 | 33722 | 45486
5 | 10:06.37 | 2:40.43 | 45487 | 57529
6 | 12:47.05 | 3:09.05 | 57530 | 71709
7 | 15:56.10 | 1:58.40 | 71710 | 80599
8 | 17:54.50 | 3:08.55 | 80600 | 94754
9 | 21:03.30 | 2:40.20 | 94755 | 106774
10 | 23:43.50 | 2:51.60 | 106775 | 119659
11 | 26:35.35 | 2:48.10 | 119660 | 132269
12 | 29:23.45 | 2:40.42 | 132270 | 144311
13 | 32:04.12 | 2:30.00 | 144312 | 155561
14 | 34:34.12 | 2:04.23 | 155562 | 164884
15 | 36:38.35 | 2:54.50 | 164885 | 177984
16 | 39:33.10 | 2:46.50 | 177985 | 190484
17 | 42:19.60 | 0:42.62 | 190485 | 193696
18 | 43:02.47 | 2:50.13 | 193697 | 206459
19 | 45:52.60 | 2:28.02 | 206460 | 217561
20 | 48:20.62 | 2:39.23 | 217562 | 229509
21 | 51:00.10 | 2:58.55 | 229510 | 242914
22 | 53:58.65 | 2:58.25 | 242915 | 256289
23 | 56:57.15 | 1:40.40 | 256290 | 263829
24 | 58:37.55 | 2:07.05 | 263830 | 273359
25 | 60:44.60 | 3:21.30 | 273360 | 288464
26 | 64:06.15 | 2:16.17 | 288465 | 298681
27 | 66:22.32 | 1:54.65 | 298682 | 307296
28 | 68:17.22 | 1:55.35 | 307297 | 315956
29 | 70:12.57 | 1:58.18 | 315957 | 324824
30 | 72:11.00 | 2:14.15 | 324825 | 334889


Характеристики диапазона извлечения и сообщения об ошибках

Выбранный диапазон

Имя файла D:\Раздачи\Connie Francis\CD 2\Connie Francis - Kissin, Twistin, Goin Where The Boys Are - Disc 2.wav

Пиковый уровень 100.0 %
Качество диапазона 100.0 %
CRC копии 7F93C441
Копирование… OK

Ошибок не произошло


AccurateRip: сводка

Трек 1 нет в базе данных
Трек 2 нет в базе данных
Трек 3 нет в базе данных
Трек 4 нет в базе данных
Трек 5 нет в базе данных
Трек 6 нет в базе данных
Трек 7 нет в базе данных
Трек 8 нет в базе данных
Трек 9 нет в базе данных
Трек 10 нет в базе данных
Трек 11 нет в базе данных
Трек 12 нет в базе данных
Трек 13 нет в базе данных
Трек 14 нет в базе данных
Трек 15 нет в базе данных
Трек 16 нет в базе данных
Трек 17 нет в базе данных
Трек 18 нет в базе данных
Трек 19 нет в базе данных
Трек 20 нет в базе данных
Трек 21 нет в базе данных
Трек 22 нет в базе данных
Трек 23 нет в базе данных
Трек 24 нет в базе данных
Трек 25 нет в базе данных
Трек 26 нет в базе данных
Трек 27 нет в базе данных
Трек 28 нет в базе данных
Трек 29 нет в базе данных
Трек 30 нет в базе данных

Ни одного трека нет в базе AccurateRip

Конец отчёта

AUDIOCHECKER v2.0 beta (build 457) - by Dester - opdester@freemail.hu
~~~~~~~~~~~~~~~~~~~~~~~~~~~~~~~~~~
-=== DO NOT EDIT THIS FILE! ===-

Path: …\CD 2

1 -=- Connie Francis - Kissin, Twistin, Goin Where The Boys Are - Disc 2.flac -=- CDDA (100%)

127853476

[Verification date: 13.10.2010 15:53:02]
[Disc ID: 0051e442-06c8f22d-cb11711e]
Pregap length 00:00:32.
Track [ CRC ] Status
01 [de7ff12e] (02/02) Accurately ripped as in pressing(s) #1
02 [c8c52bd4] (02/02) Accurately ripped as in pressing(s) #1
03 [b7143519] (02/02) Accurately ripped as in pressing(s) #1
04 [955a4478] (02/02) Accurately ripped as in pressing(s) #1
05 [d9ee9cd5] (02/02) Accurately ripped as in pressing(s) #1
06 [1ef7a7cc] (02/02) Accurately ripped as in pressing(s) #1
07 [0b82cc84] (02/02) Accurately ripped as in pressing(s) #1
08 [1a6925bd] (02/02) Accurately ripped as in pressing(s) #1
09 [9fb5c716] (02/02) Accurately ripped as in pressing(s) #1
10 [32f3416a] (02/02) Accurately ripped as in pressing(s) #1
11 [764bb816] (02/02) Accurately ripped as in pressing(s) #1
12 [1d86b985] (02/02) Accurately ripped as in pressing(s) #1
13 [574c7fb6] (02/02) Accurately ripped as in pressing(s) #1
14 [85bd65e4] (02/02) Accurately ripped as in pressing(s) #1
15 [a149649c] (02/02) Accurately ripped as in pressing(s) #1
16 [c464b710] (02/02) Accurately ripped as in pressing(s) #1
17 [5625adc2] (02/02) Accurately ripped as in pressing(s) #1
18 [d2768047] (02/02) Accurately ripped as in pressing(s) #1
19 [33d4ee1e] (02/02) Accurately ripped as in pressing(s) #1
20 [ec376a4c] (02/02) Accurately ripped as in pressing(s) #1
21 [3e1fb16c] (02/02) Accurately ripped as in pressing(s) #1
22 [68d6e9c4] (02/02) Accurately ripped as in pressing(s) #1
23 [3c09379c] (02/02) Accurately ripped as in pressing(s) #1
24 [e702d82b] (02/02) Accurately ripped as in pressing(s) #1
25 [cb8e75b5] (02/02) Accurately ripped as in pressing(s) #1
26 [3fae4c03] (02/02) Accurately ripped as in pressing(s) #1
27 [920ea418] (02/02) Accurately ripped as in pressing(s) #1
28 [a38f9722] (02/02) Accurately ripped as in pressing(s) #1
29 [445ffafd] (02/02) Accurately ripped as in pressing(s) #1
30 [311795d6] (02/02) Accurately ripped as in pressing(s) #1

Track [ CRC32 ] [W/O NULL] [ LOG ]
– [7F93C441] [941C5ED8] CRC32
01 [0720018A] [DBB6E451]
02 [14FF4B9F] [7442387E]
03 [71748935] [37A37A25]
04 [5121A9F4] [FA8D5A63]
05 [6F039413] [57D566D7]
06 [98FA7B69] [7C434A7A]
07 [4F32B8EC] [3481EB66]
08 [ED18E536] [E2D9F123]
09 [0D328C8E] [66519D27]
10 [A5224E16] [4C9627EC]
11 [33450539] [8466045B]
12 [307F7AA9] [C720B74F]
13 [77D9A8C8] [F7349D89]
14 [1A0F76D6] [E9848738]
15 [48EC6553] [3614ECA5]
16 [CCF044AD] [1AA8638A]
17 [DA2CF373] [1A742F84]
18 [92C8CB8D] [7BA38BE2]
19 [178CA559] [E72E7646]
20 [BB7579E3] [62AD935F]
21 [8D73D5AD] [E0A0AB4E]
22 [28FDD985] [F18259AA]
23 [7E53FEF0] [FDE5FBB3]
24 [C700B224] [CF0DFCD9]
25 [6024065E] [201F749E]
26 [EDFCFBA8] [4E7C398A]
27 [E9EDDD5D] [AE324238]
28 [4B311EC2] [57A235DB]
29 [CB632CD5] [D0ED8937]
30 [261DCACC] [EF06A4A6]

Connie Francis - Kissin, Twistin, Goin Where The Boys Are [1996, 5CD Box, Bear Family BCD 15826 EI]

Tracklist Disc 3:

01. True Love, True Love
02. Aura Lee
03. Red River Valley
04. Beautiful Brown Eyes
05. High Noon (Do Not Forsake Me Oh My Darlin)
06. Love Is A Many Splendored Thing
07. Three Coins In The Fountain
08. Around The World
09. Tammy
10. April Love
11. Anna
12. Where Is Your Heart? (Theme from Moulin Rouge)
13. Love Me Tender
14. Young At Heart (second recording)
15. Never On Sunday
16. Moonglow & Theme from Picnic
17. Pretty Little Baby
18. (He's My) Dreamboat
19. He's Just A Scientist
20. Hollywood
21. Sing Along
22. You Tell Me Your Dream
23. In The Good Old Summertime
24. I Love You Truly
25. Home On The Range
26. And The Band Played On
27. My Wild Irish Rose (singalong version)
28. Auld Lang Syne
29. Tavern In The Town
30. Down In The Valley

Exact Audio Copy V0.99 prebeta 4 from 23. January 2008

Отчёт EAC об извлечении, выполненном 26. февраля 2009, 10:46

Connie Francis / Kissin, Twistin, Goin Where The Boys Are - Disc 3

Дисковод: Optiarc DVD RW AD-7203A Adapter: 3 ID: 0

Режим чтения : Достоверность
Использование точного потока : Да
Отключение кэша аудио : Да
Использование указателей C2 : Нет

Коррекция смещения при чтении : 48
Способность читать области Lead-in и Lead-out : Нет
Заполнение пропущенных сэмплов тишиной : Да
Удаление блоков с тишиной в начале и конце : Нет
При вычислениях CRC использовались нулевые сэмплы : Да
Интерфейс : Установленный внешний ASPI-интерфейс

Выходной формат : Внутренние WAV-операции
Формат сэмплов : 44.100 Гц; 16 бит; стерео


TOC извлечённого CD

Трек | Старт | Длительность | Начальный сектор | Конечный сектор
––––––––––––––––––––––––––––––––––-
1 | 0:00.00 | 3:01.10 | 0 | 13584
2 | 3:01.10 | 2:11.12 | 13585 | 23421
3 | 5:12.22 | 1:59.25 | 23422 | 32371
4 | 7:11.47 | 2:27.00 | 32372 | 43396
5 | 9:38.47 | 3:23.60 | 43397 | 58681
6 | 13:02.32 | 2:48.48 | 58682 | 71329
7 | 15:51.05 | 3:09.27 | 71330 | 85531
8 | 19:00.32 | 2:28.70 | 85532 | 96701
9 | 21:29.27 | 3:16.15 | 96702 | 111416
10 | 24:45.42 | 3:30.03 | 111417 | 127169
11 | 28:15.45 | 2:33.12 | 127170 | 138656
12 | 30:48.57 | 2:58.13 | 138657 | 152019
13 | 33:46.70 | 3:11.42 | 152020 | 166386
14 | 36:58.37 | 3:10.15 | 166387 | 180651
15 | 40:08.52 | 2:45.35 | 180652 | 193061
16 | 42:54.12 | 2:54.08 | 193062 | 206119
17 | 45:48.20 | 2:24.32 | 206120 | 216951
18 | 48:12.52 | 2:46.33 | 216952 | 229434
19 | 50:59.10 | 2:26.37 | 229435 | 240421
20 | 53:25.47 | 2:19.53 | 240422 | 250899
21 | 55:45.25 | 2:23.00 | 250900 | 261624
22 | 58:08.25 | 2:18.55 | 261625 | 272029
23 | 60:27.05 | 2:02.62 | 272030 | 281241
24 | 62:29.67 | 2:59.53 | 281242 | 294719
25 | 65:29.45 | 2:10.10 | 294720 | 304479
26 | 67:39.55 | 2:29.65 | 304480 | 315719
27 | 70:09.45 | 2:10.50 | 315720 | 325519
28 | 72:20.20 | 1:54.30 | 325520 | 334099
29 | 74:14.50 | 2:01.72 | 334100 | 343246
30 | 76:16.47 | 2:13.03 | 343247 | 353224


Характеристики диапазона извлечения и сообщения об ошибках

Выбранный диапазон

Имя файла D:\Раздачи\Connie Francis\CD 3\Connie Francis - Kissin, Twistin, Goin Where The Boys Are - Disc 3.wav

Пиковый уровень 96.8 %
Качество диапазона 99.9 %
CRC копии ECE63BB2
Копирование… OK

Ошибок не произошло


AccurateRip: сводка

Трек 1 нет в базе данных
Трек 2 нет в базе данных
Трек 3 нет в базе данных
Трек 4 нет в базе данных
Трек 5 нет в базе данных
Трек 6 нет в базе данных
Трек 7 нет в базе данных
Трек 8 нет в базе данных
Трек 9 нет в базе данных
Трек 10 нет в базе данных
Трек 11 нет в базе данных
Трек 12 нет в базе данных
Трек 13 нет в базе данных
Трек 14 нет в базе данных
Трек 15 нет в базе данных
Трек 16 нет в базе данных
Трек 17 нет в базе данных
Трек 18 нет в базе данных
Трек 19 нет в базе данных
Трек 20 нет в базе данных
Трек 21 нет в базе данных
Трек 22 нет в базе данных
Трек 23 нет в базе данных
Трек 24 нет в базе данных
Трек 25 нет в базе данных
Трек 26 нет в базе данных
Трек 27 нет в базе данных
Трек 28 нет в базе данных
Трек 29 нет в базе данных
Трек 30 нет в базе данных

Ни одного трека нет в базе AccurateRip

Конец отчёта

AUDIOCHECKER v2.0 beta (build 457) - by Dester - opdester@freemail.hu
~~~~~~~~~~~~~~~~~~~~~~~~~~~~~~~~~~
-=== DO NOT EDIT THIS FILE! ===-

Path: …\CD 3

1 -=- Connie Francis - Kissin, Twistin, Goin Where The Boys Are - Disc 3.flac -=- CDDA (99%)

175765668

[Verification date: 13.10.2010 15:53:50]
[Disc ID: 005757dd-073f744e-a812651e]
Track [ CRC ] Status
01 [dbfe80d2] (02/02) Accurately ripped as in pressing(s) #1
02 [b99f71f0] (02/02) Accurately ripped as in pressing(s) #1
03 [d45efb34] (02/02) Accurately ripped as in pressing(s) #1
04 [ddc3f36b] (02/02) Accurately ripped as in pressing(s) #1
05 [3f2b6be8] (02/02) Accurately ripped as in pressing(s) #1
06 [45190f9c] (02/02) Accurately ripped as in pressing(s) #1
07 [86d7e329] (02/02) Accurately ripped as in pressing(s) #1
08 [9e749012] (02/02) Accurately ripped as in pressing(s) #1
09 [85851392] (02/02) Accurately ripped as in pressing(s) #1
10 [796f08d1] (02/02) Accurately ripped as in pressing(s) #1
11 [1d95ff27] (02/02) Accurately ripped as in pressing(s) #1
12 [ee579d47] (02/02) Accurately ripped as in pressing(s) #1
13 [8eff09c1] (02/02) Accurately ripped as in pressing(s) #1
14 [6f58ec62] (02/02) Accurately ripped as in pressing(s) #1
15 [ae50c6e0] (02/02) Accurately ripped as in pressing(s) #1
16 [5d3a60ea] (02/02) Accurately ripped as in pressing(s) #1
17 [f4fe004d] (02/02) Accurately ripped as in pressing(s) #1
18 [a76ecfdb] (02/02) Accurately ripped as in pressing(s) #1
19 [4d201840] (02/02) Accurately ripped as in pressing(s) #1
20 [772a7a78] (02/02) Accurately ripped as in pressing(s) #1
21 [25938822] (02/02) Accurately ripped as in pressing(s) #1
22 [414757b4] (02/02) Accurately ripped as in pressing(s) #1
23 [9a9f97b8] (02/02) Accurately ripped as in pressing(s) #1
24 [f38b6a25] (02/02) Accurately ripped as in pressing(s) #1
25 [90495fba] (02/02) Accurately ripped as in pressing(s) #1
26 [80d910dd] (02/02) Accurately ripped as in pressing(s) #1
27 [c3652db9] (02/02) Accurately ripped as in pressing(s) #1
28 [e45e67f0] (02/02) Accurately ripped as in pressing(s) #1
29 [742d6024] (02/02) Accurately ripped as in pressing(s) #1
30 [04ba5004] (02/02) Accurately ripped as in pressing(s) #1

Track [ CRC32 ] [W/O NULL] [ LOG ]
– [ECE63BB2] [B9039085] CRC32
01 [67220A40] [602C8DAA]
02 [C76B024D] [0556C4F5]
03 [293C2FDB] [6315D82F]
04 [788816FF] [18A79E2A]
05 [97F04F26] [72EDD557]
06 [4BBDA135] [0339D204]
07 [B6DB9959] [2B78775C]
08 [2EE89549] [0A100336]
09 [751AE0FA] [3892EB74]
10 [55B11B27] [937F0DD4]
11 [8781E6C5] [598B8837]
12 [3E918A7C] [63549499]
13 [C148E2BB] [4A9AE4A0]
14 [34AA1A23] [22C35DC9]
15 [51F9161C] [28A72718]
16 [FCA04542] [52951C1B]
17 [19B8F44C] [F3E0C1E7]
18 [067012AB] [9A5563A5]
19 [F8372AC4] [E6A8CA94]
20 [F4265FF5] [A8A76AA8]
21 [B008D923] [2126DE83]
22 [7722EF40] [736BEA0D]
23 [0E3438E6] [11A58AF4]
24 [59999488] [43A108B9]
25 [928CC5BC] [6BAAD5C1]
26 [581DF7CD] [E4C00084]
27 [EB0DAD19] [8F417024]
28 [9A3A5960] [EC2C5352]
29 [8F195E5F] [08B366CC]
30 [F99BA054] [02AACDA5]

Connie Francis - Kissin, Twistin, Goin Where The Boys Are [1996, 5CD Box, Bear Family BCD 15826 EI]

Tracklist Disc 4:

01. When The Boy In Your Arms (Is The Boy In Your Heart)
02. I'm Falling In Love With You Tonight
03. Baby's First Christmas
04. Don't Break The Heart That Loves You
05. White Cliffs of Dover
06. White Cliffs of Dover (alt)
07. Mr. Twister (alt)
08. Mr. Twister
09. Ain't That Better Baby?
10. Don't Cry On My Shoulder
11. Love Bird
12. Does Ol' Broadway Ever Sleep?
13. Gonna Git That Man
14. Johnny Darlin'
15. Teach Me How To Twist
16. Kiss 'N' Twist
17. Cha Cha Twist
18. Lovey-Dovey Twist
19. Telephone Lover
20. Drop It Joe
21. Hey Rign-a-Ding
22. Mommy Your Daughter Is Fallin In Love
23. I Won't Be Home To You
24. My Real Happiness
25. A Little Bit of Heaven
26. Mother Machree
27. How Can You Buy Killarney?
28. Danny Boy
29. How Are Things In Glocca Morra?
30. My Wild Irish Rose (Irish version)

Exact Audio Copy V0.99 prebeta 4 from 23. January 2008

Отчёт EAC об извлечении, выполненном 26. февраля 2009, 11:18

Connie Francis / Kissin, Twistin, Goin Where The Boys Are - Disc 4

Дисковод: Optiarc DVD RW AD-7203A Adapter: 3 ID: 0

Режим чтения : Достоверность
Использование точного потока : Да
Отключение кэша аудио : Да
Использование указателей C2 : Нет

Коррекция смещения при чтении : 48
Способность читать области Lead-in и Lead-out : Нет
Заполнение пропущенных сэмплов тишиной : Да
Удаление блоков с тишиной в начале и конце : Нет
При вычислениях CRC использовались нулевые сэмплы : Да
Интерфейс : Установленный внешний ASPI-интерфейс

Выходной формат : Внутренние WAV-операции
Формат сэмплов : 44.100 Гц; 16 бит; стерео


TOC извлечённого CD

Трек | Старт | Длительность | Начальный сектор | Конечный сектор
––––––––––––––––––––––––––––––––––-
1 | 0:00.32 | 2:45.38 | 32 | 12444
2 | 2:45.70 | 2:55.50 | 12445 | 25619
3 | 5:41.45 | 2:30.60 | 25620 | 36929
4 | 8:12.30 | 3:06.00 | 36930 | 50879
5 | 11:18.30 | 2:46.17 | 50880 | 63346
6 | 14:04.47 | 2:46.10 | 63347 | 75806
7 | 16:50.57 | 1:56.15 | 75807 | 84521
8 | 18:46.72 | 2:09.65 | 84522 | 94261
9 | 20:56.62 | 2:39.33 | 94262 | 106219
10 | 23:36.20 | 2:57.10 | 106220 | 119504
11 | 26:33.30 | 2:36.70 | 119505 | 131274
12 | 29:10.25 | 2:48.55 | 131275 | 143929
13 | 31:59.05 | 2:59.10 | 143930 | 157364
14 | 34:58.15 | 2:15.60 | 157365 | 167549
15 | 37:14.00 | 2:27.35 | 167550 | 178609
16 | 39:41.35 | 2:01.57 | 178610 | 187741
17 | 41:43.17 | 2:05.20 | 187742 | 197136
18 | 43:48.37 | 2:59.13 | 197137 | 210574
19 | 46:47.50 | 2:39.60 | 210575 | 222559
20 | 49:27.35 | 2:51.02 | 222560 | 235386
21 | 52:18.37 | 2:37.53 | 235387 | 247214
22 | 54:56.15 | 2:43.05 | 247215 | 259444
23 | 57:39.20 | 2:28.67 | 259445 | 270611
24 | 60:08.12 | 2:31.03 | 270612 | 281939
25 | 62:39.15 | 3:09.32 | 281940 | 296146
26 | 65:48.47 | 2:31.13 | 296147 | 307484
27 | 68:19.60 | 2:11.57 | 307485 | 317366
28 | 70:31.42 | 3:35.55 | 317367 | 333546
29 | 74:07.22 | 3:02.35 | 333547 | 347231
30 | 77:09.57 | 2:03.20 | 347232 | 356476


Характеристики диапазона извлечения и сообщения об ошибках

Выбранный диапазон

Имя файла D:\Раздачи\Connie Francis\CD4\Connie Francis - Kissin, Twistin, Goin Where The Boys Are - Disc 4.wav

Пиковый уровень 99.9 %
Качество диапазона 100.0 %
CRC копии 46C4486B
Копирование… OK

Ошибок не произошло


AccurateRip: сводка

Трек 1 нет в базе данных
Трек 2 нет в базе данных
Трек 3 нет в базе данных
Трек 4 нет в базе данных
Трек 5 нет в базе данных
Трек 6 нет в базе данных
Трек 7 нет в базе данных
Трек 8 нет в базе данных
Трек 9 нет в базе данных
Трек 10 нет в базе данных
Трек 11 нет в базе данных
Трек 12 нет в базе данных
Трек 13 нет в базе данных
Трек 14 нет в базе данных
Трек 15 нет в базе данных
Трек 16 нет в базе данных
Трек 17 нет в базе данных
Трек 18 нет в базе данных
Трек 19 нет в базе данных
Трек 20 нет в базе данных
Трек 21 нет в базе данных
Трек 22 нет в базе данных
Трек 23 нет в базе данных
Трек 24 нет в базе данных
Трек 25 нет в базе данных
Трек 26 нет в базе данных
Трек 27 нет в базе данных
Трек 28 нет в базе данных
Трек 29 нет в базе данных
Трек 30 нет в базе данных

Ни одного трека нет в базе AccurateRip

Конец отчёта

AUDIOCHECKER v2.0 beta (build 457) - by Dester - opdester@freemail.hu
~~~~~~~~~~~~~~~~~~~~~~~~~~~~~~~~~~
-=== DO NOT EDIT THIS FILE! ===-

Path: …\CD 4

1 -=- Connie Francis - Kissin, Twistin, Goin Where The Boys Are - Disc 4.flac -=- CDDA (99%)

175764900

[Verification date: 13.10.2010 15:54:39]
[Disc ID: 00543740-070023f8-9b12911e]
Pregap length 00:00:32.
Track [ CRC ] Status
01 [3785f0f7] (03/03) Accurately ripped as in pressing(s) #1
02 [6c81603c] (03/03) Accurately ripped as in pressing(s) #1
03 [9ad755d4] (03/03) Accurately ripped as in pressing(s) #1
04 [69610cfc] (03/03) Accurately ripped as in pressing(s) #1
05 [b6bc8981] (03/03) Accurately ripped as in pressing(s) #1
06 [34f80821] (03/03) Accurately ripped as in pressing(s) #1
07 [5f7b82dd] (03/03) Accurately ripped as in pressing(s) #1
08 [25591c4d] (03/03) Accurately ripped as in pressing(s) #1
09 [8010a838] (03/03) Accurately ripped as in pressing(s) #1
10 [2414711a] (03/03) Accurately ripped as in pressing(s) #1
11 [a30b4d4a] (03/03) Accurately ripped as in pressing(s) #1
12 [515e245f] (03/03) Accurately ripped as in pressing(s) #1
13 [25ee081c] (03/03) Accurately ripped as in pressing(s) #1
14 [c98011ea] (03/03) Accurately ripped as in pressing(s) #1
15 [1fc25b9d] (03/03) Accurately ripped as in pressing(s) #1
16 [f81dfb00] (03/03) Accurately ripped as in pressing(s) #1
17 [c4c22392] (03/03) Accurately ripped as in pressing(s) #1
18 [8fb0a72b] (03/03) Accurately ripped as in pressing(s) #1
19 [523a626e] (03/03) Accurately ripped as in pressing(s) #1
20 [00d55780] (03/03) Accurately ripped as in pressing(s) #1
21 [fbf0fbf8] (03/03) Accurately ripped as in pressing(s) #1
22 [bdc088b1] (03/03) Accurately ripped as in pressing(s) #1
23 [bd29d64c] (03/03) Accurately ripped as in pressing(s) #1
24 [7a0d9cea] (03/03) Accurately ripped as in pressing(s) #1
25 [ab51061a] (03/03) Accurately ripped as in pressing(s) #1
26 [c43ba825] (03/03) Accurately ripped as in pressing(s) #1
27 [d46386fb] (03/03) Accurately ripped as in pressing(s) #1
28 [254b339b] (03/03) Accurately ripped as in pressing(s) #1
29 [9a75c477] (03/03) Accurately ripped as in pressing(s) #1
30 [c1764080] (03/03) Accurately ripped as in pressing(s) #1

Track [ CRC32 ] [W/O NULL] [ LOG ]
– [46C4486B] [7157B6E4] CRC32
01 [0EF36CDE] [C8A0774A]
02 [B90B67F6] [59240817]
03 [E08C98DD] [53D91137]
04 [A286E2C6] [9E0891E8]
05 [28A140A3] [EA0386C3]
06 [840D0ABD] [1FB62FB4]
07 [2643EF87] [705977D0]
08 [29B91162] [8AA93843]
09 [FEF9D15E] [ACEC7341]
10 [153CAB11] [2E599059]
11 [B72F08B2] [D40B3C95]
12 [3BF14892] [8E5A5E7C]
13 [EF738620] [65D1954A]
14 [24BEE1F8] [AE126D71]
15 [D1178F79] [CAA93CBC]
16 [EC25D0D7] [4ED96AF3]
17 [D92492AB] [E1C10508]
18 [C24CBA93] [FADB4D97]
19 [2F8890BA] [8BF128D3]
20 [A4B8439F] [0FD3D7F7]
21 [EA4770FF] [753E71E3]
22 [8C33DD2A] [94AAFBCC]
23 [63AA6CED] [8129B56F]
24 [08213A42] [9B447FD3]
25 [DB50AAED] [0845DA7D]
26 [FBB2435E] [BE370C92]
27 [29B31DD1] [CA196BDC]
28 [C947CD99] [9A85E6DA]
29 [E57EFFC5] [BF380FA7]
30 [09C5057F] [99D5231C]

Connie Francis - Kissin, Twistin, Goin Where The Boys Are [1996, 5CD Box, Bear Family BCD 15826 EI]

Tracklist Disc 5:

01. When Irish Eyes Are Smiling
02. Too-Ra-Loo-Ra-Loo-Ra
03. It's A Great Day for The Irish
04. Dear Old Donegal
05. McNamara's Band
06. Did Your Mother Come From Ireland?
07. When Johnny Comes Marchin' Home
08. I'm So Alone
09. It Happened Last Night
10. No One Ever Sends Me Roses (single vocal)
11. I Was Such A Fool (To Fall In Love With You)
12. Second Hand Love (single vocal)
13. Second Hand Love (double vocal)
14. You'll Never Know
15. Lullaby of Broadway
16. Zip-A-Dee-Do-Dah
17. Moon River
18. Whatever Will Be, Will Be (Que Sera, Sera)
19. (Somewhere) Over the Rainbow
20. Secret Love
21. When You Wish Upon A Star
22. Buttons and Bows
23. High Hopes
24. The Last Time I Saw Paris
25. All The Way
26. The Way You Look Tonight
27. It's Time To Say Goodnight (short version)

Exact Audio Copy V0.99 prebeta 4 from 23. January 2008

Отчёт EAC об извлечении, выполненном 26. февраля 2009, 11:44

Connie Francis / Kissin, Twistin, Goin Where The Boys Are - Disc 5

Дисковод: Optiarc DVD RW AD-7203A Adapter: 3 ID: 0

Режим чтения : Достоверность
Использование точного потока : Да
Отключение кэша аудио : Да
Использование указателей C2 : Нет

Коррекция смещения при чтении : 48
Способность читать области Lead-in и Lead-out : Нет
Заполнение пропущенных сэмплов тишиной : Да
Удаление блоков с тишиной в начале и конце : Нет
При вычислениях CRC использовались нулевые сэмплы : Да
Интерфейс : Установленный внешний ASPI-интерфейс

Выходной формат : Внутренние WAV-операции
Формат сэмплов : 44.100 Гц; 16 бит; стерео


TOC извлечённого CD

Трек | Старт | Длительность | Начальный сектор | Конечный сектор
––––––––––––––––––––––––––––––––––-
1 | 0:00.32 | 2:38.13 | 32 | 11894
2 | 2:38.45 | 2:18.35 | 11895 | 22279
3 | 4:57.05 | 1:52.70 | 22280 | 30749
4 | 6:50.00 | 1:56.15 | 30750 | 39464
5 | 8:46.15 | 2:20.07 | 39465 | 49971
6 | 11:06.22 | 2:10.55 | 49972 | 59776
7 | 13:17.02 | 1:46.18 | 59777 | 67744
8 | 15:03.20 | 3:01.45 | 67745 | 81364
9 | 18:04.65 | 2:47.20 | 81365 | 93909
10 | 20:52.10 | 2:17.05 | 93910 | 104189
11 | 23:09.15 | 2:48.22 | 104190 | 116811
12 | 25:57.37 | 2:53.33 | 116812 | 129819
13 | 28:50.70 | 2:54.27 | 129820 | 142896
14 | 31:45.22 | 3:30.73 | 142897 | 158719
15 | 35:16.20 | 2:38.72 | 158720 | 170641
16 | 37:55.17 | 1:42.68 | 170642 | 178359
17 | 39:38.10 | 2:43.32 | 178360 | 190616
18 | 42:21.42 | 2:31.40 | 190617 | 201981
19 | 44:53.07 | 3:48.10 | 201982 | 219091
20 | 48:41.17 | 2:54.20 | 219092 | 232161
21 | 51:35.37 | 3:10.63 | 232162 | 246474
22 | 54:46.25 | 2:26.07 | 246475 | 257431
23 | 57:12.32 | 2:33.68 | 257432 | 268974
24 | 59:46.25 | 3:15.07 | 268975 | 283606
25 | 63:01.32 | 2:34.48 | 283607 | 295204
26 | 65:36.05 | 3:14.40 | 295205 | 309794
27 | 68:50.45 | 2:13.62 | 309795 | 319831


Характеристики диапазона извлечения и сообщения об ошибках

Выбранный диапазон

Имя файла D:\Раздачи\Connie Francis\CDv5\Connie Francis - Kissin, Twistin, Goin Where The Boys Are - Disc 5.wav

Пиковый уровень 73.4 %
Качество диапазона 100.0 %
CRC копии C38BBA2C
Копирование… OK

Ошибок не произошло


AccurateRip: сводка

Трек 1 нет в базе данных
Трек 2 нет в базе данных
Трек 3 нет в базе данных
Трек 4 нет в базе данных
Трек 5 нет в базе данных
Трек 6 нет в базе данных
Трек 7 нет в базе данных
Трек 8 нет в базе данных
Трек 9 нет в базе данных
Трек 10 нет в базе данных
Трек 11 нет в базе данных
Трек 12 нет в базе данных
Трек 13 нет в базе данных
Трек 14 нет в базе данных
Трек 15 нет в базе данных
Трек 16 нет в базе данных
Трек 17 нет в базе данных
Трек 18 нет в базе данных
Трек 19 нет в базе данных
Трек 20 нет в базе данных
Трек 21 нет в базе данных
Трек 22 нет в базе данных
Трек 23 нет в базе данных
Трек 24 нет в базе данных
Трек 25 нет в базе данных
Трек 26 нет в базе данных
Трек 27 нет в базе данных

Ни одного трека нет в базе AccurateRip

Конец отчёта

AUDIOCHECKER v2.0 beta (build 457) - by Dester - opdester@freemail.hu
~~~~~~~~~~~~~~~~~~~~~~~~~~~~~~~~~~
-=== DO NOT EDIT THIS FILE! ===-

Path: …\CD 5

1 -=- Connie Francis - Kissin, Twistin, Goin Where The Boys Are - Disc 5.flac -=- CDDA (100%)

127849380

[Verification date: 13.10.2010 15:55:32]
[Disc ID: 00415d9e-0503c041-ad10a81b]
Pregap length 00:00:32.
Track [ CRC ] Status
01 [055e4431] (03/03) Accurately ripped as in pressing(s) #1
02 [a5776e05] (03/03) Accurately ripped as in pressing(s) #1
03 [f2d606ea] (03/03) Accurately ripped as in pressing(s) #1
04 [aa1b4f83] (03/03) Accurately ripped as in pressing(s) #1
05 [4166ffbf] (03/03) Accurately ripped as in pressing(s) #1
06 [6316ce95] (03/03) Accurately ripped as in pressing(s) #1
07 [8ef77f0b] (03/03) Accurately ripped as in pressing(s) #1
08 [f5333942] (03/03) Accurately ripped as in pressing(s) #1
09 [ce11fa86] (03/03) Accurately ripped as in pressing(s) #1
10 [077421b4] (03/03) Accurately ripped as in pressing(s) #1
11 [9802570e] (03/03) Accurately ripped as in pressing(s) #1
12 [14aa524c] (03/03) Accurately ripped as in pressing(s) #1
13 [c5f59ed0] (03/03) Accurately ripped as in pressing(s) #1
14 [e356671e] (03/03) Accurately ripped as in pressing(s) #1
15 [2d9b62d8] (03/03) Accurately ripped as in pressing(s) #1
16 [a9ef8619] (03/03) Accurately ripped as in pressing(s) #1
17 [2e9bcb7f] (03/03) Accurately ripped as in pressing(s) #1
18 [53b7b7ec] (03/03) Accurately ripped as in pressing(s) #1
19 [96f9c706] (03/03) Accurately ripped as in pressing(s) #1
20 [143479f4] (03/03) Accurately ripped as in pressing(s) #1
21 [659bca2a] (03/03) Accurately ripped as in pressing(s) #1
22 [481c2a30] (03/03) Accurately ripped as in pressing(s) #1
23 [b52a3429] (03/03) Accurately ripped as in pressing(s) #1
24 [087fa348] (03/03) Accurately ripped as in pressing(s) #1
25 [e956c8fb] (03/03) Accurately ripped as in pressing(s) #1
26 [323d094f] (03/03) Accurately ripped as in pressing(s) #1
27 [db76bef6] (02/02) Accurately ripped as in pressing(s) #1

Track [ CRC32 ] [W/O NULL] [ LOG ]
– [C38BBA2C] [2272B6E5] CRC32
01 [717089A0] [9EC97EFC]
02 [951CE51C] [7EBDFA11]
03 [CC557660] [0C9B2A20]
04 [EC4E11B4] [399D93C0]
05 [B4C75920] [98ADE6CB]
06 [9EFDF9C4] [0342B151]
07 [F2FF2AAA] [2C86641F]
08 [15343FD1] [8D12BACB]
09 [B7E3F030] [D6C5B84D]
10 [E885DCE4] [806A7521]
11 [F5A264B8] [58BB8ABF]
12 [D1E0D661] [58A75CFA]
13 [5615267E] [44672523]
14 [D344A156] [4B30603A]
15 [A95D27D9] [EFDC44DF]
16 [2B1A14F3] [A1094073]
17 [AC7A6C18] [3E9B94DB]
18 [0BBF96F0] [E6476FA7]
19 [1A81B6C0] [56C793A5]
20 [D5D4D8C8] [0F8FC8B2]
21 [72C70831] [A354D4CB]
22 [75372201] [D8D2713B]
23 [DC8F537A] [0F953F7B]
24 [BD24C68F] [D59D3E0F]
25 [441BFE0D] [A88CFA0F]
26 [26C70579] [CD054F1D]
27 [A58B9DB5] [79B7BC11]

All thanks go to sinicinal

Download Connie Francis - Kissin, Twistin, Goin Where The Boys Are (1996):