Cory Branan - Adios (2017)

Posted By: Pisulik
Cory Branan - Adios (2017)

Cory Branan - Adios (2017)
EAC Rip | FLAC (Tracks) +cue, log - 332 MB | MP3 CBR 320 kbps - 123 MB | 00:52:56
Country, Alt Country, Folk, Americana | Label: Bloodshot Records | Release Year: 2017

The album was self-produced and recorded in the spring of 2016 at Tweed Studios in Oxford, MS with a tight three piece: Branan on lead vocals and guitar (both electric and acoustic), Robbie Crowell (formerly of Deer Tick) on drums and percussion, keys, and horns, and James "Haggs" Haggerty on bass. Additionally, Amanda Shires contributes on fiddle and vocals, and Laura Jane Grace of Against Me! And Dave Hause provide guest vocals. Cory Branan has four previous full-length releases: The Hell You Say (2002), 12 Songs (2006), Mutt (2012), and The No-Hit Wonder (2014). His music has received critical praise from the likes of Rolling Stone and Rolling Stone Country, NPR All Things Considered, Noisey, Wall Street Journal, Paste Magazine, Oxford American, Consequence of Sound, Southern Living, and many others.

TRACKLIST

01. Come with Me
02. Sonny's Blues
03. Blue Moon
04. It Ain't Easy
05. Blue Sky to Blue Sky
06. San Francisco Good Times
07. St. Vincent De Paul's
08. When You're Here
09. Analisa Knows
10. Deptford High St.
11. If Ever You're Lonesome
12. Be Here Now
13. The Strangler

Exact Audio Copy V1.1 from 23. June 2015

EAC extraction logfile from 5. April 2017, 13:53

Cory Branan / Adios

Used drive : HL-DT-STDVDRAM GT50N Adapter: 1 ID: 0

Read mode : Secure
Utilize accurate stream : Yes
Defeat audio cache : Yes
Make use of C2 pointers : No

Read offset correction : 103
Overread into Lead-In and Lead-Out : No
Fill up missing offset samples with silence : Yes
Delete leading and trailing silent blocks : No
Null samples used in CRC calculations : Yes
Used interface : Native Win32 interface for Win NT & 2000
Gap handling : Appended to previous track

Used output format : User Defined Encoder
Selected bitrate : 1024 kBit/s
Quality : High
Add ID3 tag : No
Command line compressor : C:\Program Files (x86)\Exact Audio Copy\Flac\flac.exe
Additional command line options : -8 -e -V -T "ARTIST=%artist%" -T "TITLE=%title%" -T "ALBUM=%albumtitle%" -T "DATE=%year%" -T "TRACKNUMBER=%tracknr%" -T "GENRE=%genre%" -T "PERFORMER=%albuminterpret%" -T "COMPOSER=%composer%" %haslyrics%–tag-from-file=LYRICS="%lyricsfile%"%haslyrics% -T "ALBUMARTIST=%albumartist%" -T "DISCNUMBER=%cdnumber%" -T "TOTALDISCS=%totalcds%" -T "TOTALTRACKS=%numtracks%" -T "COMMENT=%comment%" %source% -o %dest%


TOC of the extracted CD

Track | Start | Length | Start sector | End sector
––––––––––––––––––––––––––––-
1 | 0:00.00 | 1:45.46 | 0 | 7920
2 | 1:45.46 | 3:51.44 | 7921 | 25289
3 | 5:37.15 | 4:21.15 | 25290 | 44879
4 | 9:58.30 | 2:08.40 | 44880 | 54519
5 | 12:06.70 | 2:57.52 | 54520 | 67846
6 | 15:04.47 | 5:02.48 | 67847 | 90544
7 | 20:07.20 | 4:00.61 | 90545 | 108605
8 | 24:08.06 | 5:38.67 | 108606 | 134022
9 | 29:46.73 | 3:57.50 | 134023 | 151847
10 | 33:44.48 | 3:40.28 | 151848 | 168375
11 | 37:25.01 | 2:51.20 | 168376 | 181220
12 | 40:16.21 | 4:55.25 | 181221 | 203370
13 | 45:11.46 | 3:49.54 | 203371 | 220599
14 | 49:01.25 | 4:02.54 | 220600 | 238803


Track 1

Filename C:\Rips v2\Cory Branan - Adios (FLAC)\01 - I Only Know.wav

Pre-gap length 0:00:02.00

Peak level 94.5 %
Extraction speed 2.0 X
Track quality 100.0 %
Test CRC BE3C83AB
Copy CRC BE3C83AB
Track not present in AccurateRip database
Copy OK

Track 2

Filename C:\Rips v2\Cory Branan - Adios (FLAC)\02 - Imogene.wav

Peak level 94.4 %
Extraction speed 2.5 X
Track quality 100.0 %
Test CRC 75D2F105
Copy CRC 75D2F105
Track not present in AccurateRip database
Copy OK

Track 3

Filename C:\Rips v2\Cory Branan - Adios (FLAC)\03 - Blacksburg.wav

Peak level 94.4 %
Extraction speed 2.8 X
Track quality 100.0 %
Test CRC 1C39DCB6
Copy CRC 1C39DCB6
Track not present in AccurateRip database
Copy OK

Track 4

Filename C:\Rips v2\Cory Branan - Adios (FLAC)\04 - Yeah, So What.wav

Peak level 94.4 %
Extraction speed 2.7 X
Track quality 100.0 %
Test CRC D643124D
Copy CRC D643124D
Track not present in AccurateRip database
Copy OK

Track 5

Filename C:\Rips v2\Cory Branan - Adios (FLAC)\05 - You Got Through.wav

Peak level 94.5 %
Extraction speed 3.0 X
Track quality 100.0 %
Test CRC 7DFA275C
Copy CRC 7DFA275C
Track not present in AccurateRip database
Copy OK

Track 6

Filename C:\Rips v2\Cory Branan - Adios (FLAC)\06 - The Vow.wav

Peak level 94.4 %
Extraction speed 3.4 X
Track quality 100.0 %
Test CRC 8246CFFC
Copy CRC 8246CFFC
Track not present in AccurateRip database
Copy OK

Track 7

Filename C:\Rips v2\Cory Branan - Adios (FLAC)\07 - Walls, MS.wav

Peak level 94.4 %
Extraction speed 3.6 X
Track quality 100.0 %
Test CRC EC53845C
Copy CRC EC53845C
Track not present in AccurateRip database
Copy OK

Track 8

Filename C:\Rips v2\Cory Branan - Adios (FLAC)\08 - Cold Blue Moonlight.wav

Peak level 94.4 %
Extraction speed 3.9 X
Track quality 100.0 %
Test CRC 457F03C6
Copy CRC 457F03C6
Track not present in AccurateRip database
Copy OK

Track 9

Filename C:\Rips v2\Cory Branan - Adios (FLAC)\09 - Another Nightmare in America.wav

Peak level 94.4 %
Extraction speed 3.9 X
Track quality 100.0 %
Test CRC A00DD819
Copy CRC A00DD819
Track not present in AccurateRip database
Copy OK

Track 10

Filename C:\Rips v2\Cory Branan - Adios (FLAC)\10 - Chameleon Moon.wav

Peak level 94.4 %
Extraction speed 4.0 X
Track quality 100.0 %
Test CRC BFD2027B
Copy CRC BFD2027B
Track not present in AccurateRip database
Copy OK

Track 11

Filename C:\Rips v2\Cory Branan - Adios (FLAC)\11 - Equinox.wav

Peak level 94.4 %
Extraction speed 4.0 X
Track quality 100.0 %
Test CRC A07C9E59
Copy CRC A07C9E59
Track not present in AccurateRip database
Copy OK

Track 12

Filename C:\Rips v2\Cory Branan - Adios (FLAC)\12 - Don't Go.wav

Peak level 94.4 %
Extraction speed 4.5 X
Track quality 100.0 %
Test CRC CC9BC5FC
Copy CRC CC9BC5FC
Track not present in AccurateRip database
Copy OK

Track 13

Filename C:\Rips v2\Cory Branan - Adios (FLAC)\13 - Visiting Hours.wav

Peak level 94.5 %
Extraction speed 3.6 X
Track quality 99.9 %
Test CRC 0BB9B8A1
Copy CRC 0BB9B8A1
Track not present in AccurateRip database
Copy OK

Track 14

Filename C:\Rips v2\Cory Branan - Adios (FLAC)\14 - My Father Was an Accordion Player.wav

Peak level 94.4 %
Extraction speed 3.8 X
Track quality 99.9 %
Test CRC AC1719F7
Copy CRC AC1719F7
Track not present in AccurateRip database
Copy OK


None of the tracks are present in the AccurateRip database

No errors occurred

End of status report

–– CUETools DB Plugin V2.1.6

[CTDB TOCID: UAE1.BOGrVuK6ZYX7sysAj5L1Zs-] disk not present in database
Submit result: UAE1.BOGrVuK6ZYX7sysAj5L1Zs- has been uploaded


==== Log checksum E415C70D1B49F1A8FF89D6112FAF2F11E192CE4B9D8348741C3CBEC112348A56 ====


All thanks go to the original releaser