Subcategories

Corydon Singers, Corydon Orchestra, Matthew Best - Bruckner: Masses, Te Deum (1996)

Posted By: tirexiss
Corydon Singers, Corydon Orchestra, Matthew Best - Bruckner: Masses, Te Deum (1996)

Corydon Singers, Corydon Orchestra, Matthew Best - Bruckner: Masses, Te Deum (1996)
EAC | FLAC (image+.cue, log) | Covers Included | 03:08:45 | 823 MB
Genre: Classical, Sacred | Label: Hyperion | Catalog: 44071/3

Matthew Best began his career as a bass, singing at Covent Garden and at other leading operatic venues throughout the world. But since the mid-'80s he has turned increasingly toward conducting, recording many choral/orchestral and operatic works for Hyperion Records. Over the years his singing range has changed as well, placing him in the category of bass-baritone and including roles such as Scarpia and Amfortas.
Best was born in Farnborough, Kent, on February 6, 1957. He showed vocal talent in his youth and at age 16 (1973) founded the Corydon Singers, serving then and ever since as the ensemble's artistic director. He enrolled at King's College, Cambridge, and later at the National Opera Studio in London. His principal teachers included Robert Lloyd, Otakar Kraus, and Patrick McGuigan.
Best was signed on as a principal bass at Covent Garden in 1980 and two years later drew major notice when he was awarded the Decca-Kathleen Ferrier Prize. In 1985 he began an association with the English Chamber Orchestra, leading the ensemble in concerts and recordings, often with his Corydon Singers. He left Covent Garden the following year but continued singing with many other opera companies throughout the world, including the Scottish Opera and Nederlandse Opera.
Best founded the Corydon Orchestra in 1991, and together with the Corydon Singers has made numerous critically acclaimed recordings, including the Bruckner Mass in F minor and Psalm 150 (1992) and the Beethoven Opferlied and Meeresstille Cantatas (1996).
In 1998 Best became principal conductor of the Sussex-based Hanover Band, a highly respected period instrument chamber ensemble. But his increasing activity on the podium hardly diminished his operatic pursuits. He received high praise, in particular, for his portrayal of Amfortas in Wagner's Parsifal at the Scottish Opera in 2000, as well as for his Wotan in Wagner's Siegfried there in 2003. In the role of Kutuzov in Prokofiev's War and Peace at the English National Opera's 2001 English-language production, he scored a similar success. – Robert Cummings

Corydon Singers, Corydon Orchestra, Matthew Best - Bruckner: Masses, Te Deum (1996)

Track List:

CD 1:
01. Te Deum: Te Deum laudamus
02. Te Deum: Te ergo, quaesumus
03. Te Deum: Aeterna fac cum sanctis tuis
04. Te Deum: Salvum fac populum tuum, Domine
05. Te Deum: In te, Domine, speravi
06. Mass No 1 In D Minor: Kyrie
07. Mass No 1 In D Minor: Gloria
08. Mass No 1 In D Minor: Credo
09. Mass No 1 In D Minor: Sanctus
10. Mass No 1 In D Minor: Benedictus
11. Mass No 1 In D Minor: Agnus Dei

Exact Audio Copy V1.0 beta 3 from 29. August 2011

EAC extraction logfile from 12. March 2013, 20:36

Corydon Singers - Matthew Best / Bruckner - The Masses [Disc 1]

Used drive : TSSTcorpCDDVDW SN-208BB Adapter: 0 ID: 1

Read mode : Secure
Utilize accurate stream : Yes
Defeat audio cache : Yes
Make use of C2 pointers : No

Read offset correction : 6
Overread into Lead-In and Lead-Out : No
Fill up missing offset samples with silence : Yes
Delete leading and trailing silent blocks : No
Null samples used in CRC calculations : Yes
Used interface : Native Win32 interface for Win NT & 2000

Used output format : User Defined Encoder
Selected bitrate : 1024 kBit/s
Quality : High
Add ID3 tag : No
Command line compressor : C:\Program Files (x86)\FLAC\flac.exe
Additional command line options : -T "COMMENT=rip by el coronel, rutracker.org" -8 -V %source%


TOC of the extracted CD

Track | Start | Length | Start sector | End sector
––––––––––––––––––––––––––––-
1 | 0:00.00 | 6:33.37 | 0 | 29511
2 | 6:33.37 | 2:56.38 | 29512 | 42749
3 | 9:30.00 | 1:35.12 | 42750 | 49886
4 | 11:05.12 | 6:54.65 | 49887 | 81001
5 | 18:00.02 | 5:28.73 | 81002 | 105674
6 | 23:29.00 | 7:02.27 | 105675 | 137351
7 | 30:31.27 | 6:05.73 | 137352 | 164799
8 | 36:37.25 | 13:03.30 | 164800 | 223554
9 | 49:40.55 | 1:50.15 | 223555 | 231819
10 | 51:30.70 | 7:18.30 | 231820 | 264699
11 | 58:49.25 | 8:41.50 | 264700 | 303824


Range status and errors

Selected range

Filename K:\Music\Bruckner Masses - Best\Bruckner - The Masses [Disc 1].wav

Peak level 97.7 %
Extraction speed 3.1 X
Range quality 100.0 %
Test CRC 35AB564E
Copy CRC 35AB564E
Copy OK

No errors occurred


AccurateRip summary

Track 1 accurately ripped (confidence 3) [F2EAAF75] (AR v1)
Track 2 accurately ripped (confidence 3) [9CC55539] (AR v1)
Track 3 accurately ripped (confidence 3) [245D1184] (AR v1)
Track 4 accurately ripped (confidence 3) [C32A6E51] (AR v1)
Track 5 accurately ripped (confidence 3) [1822A4EC] (AR v1)
Track 6 accurately ripped (confidence 3) [B8318CCE] (AR v1)
Track 7 accurately ripped (confidence 3) [5C016222] (AR v1)
Track 8 accurately ripped (confidence 3) [0FD93641] (AR v1)
Track 9 accurately ripped (confidence 2) [721F01B9] (AR v1)
Track 10 accurately ripped (confidence 2) [3D817871] (AR v1)
Track 11 accurately ripped (confidence 3) [4F0CD586] (AR v1)

All tracks accurately ripped

End of status report

==== Log checksum 6D6D5AE3F93E5C234B65BC3C326FF313C6949B2E5E9FEF2F811BD1933E98C720 ====

[CUETools log; Date: 02.01.2018 11:55:44; Version: 2.1.5]
[CTDB TOCID: ad3I6tuZCZsJY99PxJ2lphbEf4U-] found.
Track | CTDB Status
1 | (36/38) Accurately ripped
2 | (37/38) Accurately ripped
3 | (38/38) Accurately ripped
4 | (38/38) Accurately ripped
5 | (38/38) Accurately ripped
6 | (38/38) Accurately ripped
7 | (38/38) Accurately ripped
8 | (37/38) Accurately ripped
9 | (37/38) Accurately ripped
10 | (37/38) Accurately ripped
11 | (36/38) Accurately ripped
[AccurateRip ID: 0018f23e-00deae06-990fd30b] found.
Track [ CRC | V2 ] Status
01 [f2eaaf75|37209761] (03+03/57) Accurately ripped
02 [9cc55539|634e85cd] (03+03/58) Accurately ripped
03 [245d1184|2b256fb1] (03+03/58) Accurately ripped
04 [c32a6e51|ddb3588f] (03+03/58) Accurately ripped
05 [1822a4ec|fa0263f4] (03+03/58) Accurately ripped
06 [b8318cce|62ea0cef] (03+03/58) Accurately ripped
07 [5c016222|4af74c7d] (03+03/58) Accurately ripped
08 [0fd93641|2660e4ec] (03+03/58) Accurately ripped
09 [721f01b9|9053cf04] (02+03/57) Accurately ripped
10 [3d817871|e5d08fb1] (02+03/57) Accurately ripped
11 [4f0cd586|7ddb15ab] (03+03/57) Accurately ripped
Offsetted by -652:
01 [62dfb31a] (06/57) Accurately ripped
02 [98caf379] (06/58) Accurately ripped
03 [0916a158] (06/58) Accurately ripped
04 [e102dde7] (06/58) Accurately ripped
05 [5bfcc987] (06/58) Accurately ripped
06 [696a44c2] (06/58) Accurately ripped
07 [98d6f5c8] (06/58) Accurately ripped
08 [441f293b] (06/58) Accurately ripped
09 [68f349fd] (06/57) Accurately ripped
10 [716f3c9e] (06/57) Accurately ripped
11 [9b4e5121] (06/57) Accurately ripped
Offsetted by 43:
01 [04926b2d] (04/57) Accurately ripped
02 [e4cadb5c] (04/58) Accurately ripped
03 [3e022f19] (04/58) Accurately ripped
04 [5969c6aa] (04/58) Accurately ripped
05 [4d341d00] (04/58) Accurately ripped
06 [f079d969] (04/58) Accurately ripped
07 [cf0a74ae] (04/58) Accurately ripped
08 [06b72bad] (04/58) Accurately ripped
09 [d22aa7c6] (04/57) Accurately ripped
10 [0b940233] (04/57) Accurately ripped
11 [d66c10c8] (04/57) Accurately ripped
Offsetted by 700:
01 [ed61e6bb] (07/57) Accurately ripped
02 [3e2238bd] (07/58) Accurately ripped
03 [05ba07a4] (07/58) Accurately ripped
04 [bc20b167] (07/58) Accurately ripped
05 [2a44034c] (07/58) Accurately ripped
06 [2e7efc5a] (07/58) Accurately ripped
07 [ca073ec6] (07/58) Accurately ripped
08 [8cf61222] (07/58) Accurately ripped
09 [8d342ab9] (07/57) Accurately ripped
10 [903fdd0a] (07/57) Accurately ripped
11 [6b48bcfa] (06/57) Accurately ripped
Offsetted by -709:
01 [a71a460f] (00/57) No match (V2 was not tested)
02 [c1e51f8b] (00/58) No match (V2 was not tested)
03 [84bcdd1c] (00/58) No match (V2 was not tested)
04 [ddec3036] (00/58) No match (V2 was not tested)
05 [62d2b91d] (00/58) No match (V2 was not tested)
06 [dd90c2ff] (00/58) No match (V2 was not tested)
07 [005867b4] (00/58) No match (V2 was not tested)
08 [2362d746] (00/58) No match (V2 was not tested)
09 [54b46df5] (00/57) No match (V2 was not tested)
10 [0f338a25] (00/57) No match (V2 was not tested)
11 [bf1f155d] (00/57) No match (V2 was not tested)
Offsetted by -621:
01 [235ddb83] (00/57) No match
02 [82cb5d64] (00/58) No match
03 [4523ebd7] (00/58) No match
04 [796843c1] (00/58) No match
05 [a4028156] (00/58) No match
06 [313b426f] (00/58) No match (V2 was not tested)
07 [942f36a9] (00/58) No match (V2 was not tested)
08 [9822773b] (00/58) No match (V2 was not tested)
09 [73494f03] (00/57) No match (V2 was not tested)
10 [0ad87bd4] (00/57) No match (V2 was not tested)
11 [6830564e] (00/57) No match (V2 was not tested)
Offsetted by 42:
01 [8944b522] (00/57) No match (V2 was not tested)
02 [aae52cc8] (00/58) No match (V2 was not tested)
03 [bef47137] (00/58) No match (V2 was not tested)
04 [59623481] (00/58) No match (V2 was not tested)
05 [94d39155] (00/58) No match (V2 was not tested)
06 [f57b6b2d] (00/58) No match (V2 was not tested)
07 [3f0afe7f] (00/58) No match (V2 was not tested)
08 [55d431fb] (00/58) No match (V2 was not tested)
09 [fb80c37a] (00/57) No match (V2 was not tested)
10 [a0a964e8] (00/57) No match (V2 was not tested)
11 [e3624a15] (00/57) No match (V2 was not tested)

Track Peak [ CRC32 ] [W/O NULL] [ LOG ]
– 97,7 [35AB564E] [6F9A24F8] CRC32
01 97,1 [8F83FA08] [B1A6DE1C]
02 20,1 [B6856461] [8B69E31C]
03 97,5 [C0D83263] [DE748832]
04 64,7 [7EEC52AB] [30F69FCE]
05 96,3 [78E31280] [1ACAFE14]
06 80,9 [F04C2B18] [BB92BC14]
07 91,1 [2949E835] [F43493BC]
08 97,7 [85923502] [E4B4EAEE]
09 93,4 [8FDF2C26] [9647BBB1]
10 97,6 [30615363] [0FEF0698]
11 82,5 [C57E41A3] [1D0EEE69]

CD 2:
01. Aequalis No. 1 - Bruckner
02. Libera me - Bruckner
03. Aequalis No. 2 - Bruckner
04. Mass No. 2 In E Minor: Kyrie - Bruckner
05. Mass No. 2 In E Minor: Gloria - Bruckner
06. Mass No. 2 In E Minor: Credo - Bruckner
07. Mass No. 2 In E Minor: Sanctus - Bruckner
08. Mass No. 2 In E Minor: Benedictus - Bruckner
09. Mass No. 2 In E Minor: Agnus Dei - Bruckner

Exact Audio Copy V1.0 beta 3 from 29. August 2011

EAC extraction logfile from 12. March 2013, 21:38

Corydon Singers - Matthew Best / Bruckner - The Masses [Disc 2]

Used drive : TSSTcorpCDDVDW SN-208BB Adapter: 0 ID: 1

Read mode : Secure
Utilize accurate stream : Yes
Defeat audio cache : Yes
Make use of C2 pointers : No

Read offset correction : 6
Overread into Lead-In and Lead-Out : No
Fill up missing offset samples with silence : Yes
Delete leading and trailing silent blocks : No
Null samples used in CRC calculations : Yes
Used interface : Native Win32 interface for Win NT & 2000

Used output format : User Defined Encoder
Selected bitrate : 1024 kBit/s
Quality : High
Add ID3 tag : No
Command line compressor : C:\Program Files (x86)\FLAC\flac.exe
Additional command line options : -T "COMMENT=rip by el coronel, rutracker.org" -8 -V %source%


TOC of the extracted CD

Track | Start | Length | Start sector | End sector
––––––––––––––––––––––––––––-
1 | 0:00.00 | 2:00.47 | 0 | 9046
2 | 2:00.47 | 7:20.23 | 9047 | 42069
3 | 9:20.70 | 2:02.57 | 42070 | 51276
4 | 11:23.52 | 7:56.48 | 51277 | 87024
5 | 19:20.25 | 6:44.65 | 87025 | 117389
6 | 26:05.15 | 10:50.12 | 117390 | 166151
7 | 36:55.27 | 3:38.60 | 166152 | 182561
8 | 40:34.12 | 6:38.35 | 182562 | 212446
9 | 47:12.47 | 5:59.73 | 212447 | 239444


Range status and errors

Selected range

Filename K:\Music\Bruckner Masses - Best\Bruckner - The Masses [Disc 2].wav

Peak level 100.0 %
Extraction speed 3.0 X
Range quality 100.0 %
Test CRC 5544F1E6
Copy CRC 5544F1E6
Copy OK

No errors occurred


AccurateRip summary

Track 1 cannot be verified as accurate (confidence 4) [FE8AFC37], AccurateRip returned [0150DF3C] (AR v2)
Track 2 cannot be verified as accurate (confidence 4) [2ACAE3F8], AccurateRip returned [28396213] (AR v2)
Track 3 cannot be verified as accurate (confidence 4) [80568156], AccurateRip returned [E55DA272] (AR v2)
Track 4 cannot be verified as accurate (confidence 5) [62BDE667], AccurateRip returned [15B90A74] (AR v2)
Track 5 cannot be verified as accurate (confidence 5) [FCC0A496], AccurateRip returned [883FBFE6] (AR v2)
Track 6 cannot be verified as accurate (confidence 4) [AEFDD783], AccurateRip returned [00E1ECE2] (AR v2)
Track 7 cannot be verified as accurate (confidence 5) [F1E69954], AccurateRip returned [98AFB83F] (AR v2)
Track 8 cannot be verified as accurate (confidence 5) [EB898909], AccurateRip returned [FAFCC095] (AR v2)
Track 9 cannot be verified as accurate (confidence 5) [05B76599], AccurateRip returned [F0209E74] (AR v2)

No tracks could be verified as accurate
You may have a different pressing from the one(s) in the database

End of status report

==== Log checksum F4FF660FF7804F1BC27B17542C6025840A8EC3643F4B812C1C96A9F8494E173B ====

[CUETools log; Date: 02.01.2018 11:56:10; Version: 2.1.5]
[CTDB TOCID: huuwd9iTDfbw_CYHOKvaOe_nCjg-] found.
Track | CTDB Status
1 | ( 9/12) Accurately ripped
2 | ( 9/12) Accurately ripped
3 | ( 9/12) Accurately ripped
4 | ( 9/12) Accurately ripped
5 | ( 9/12) Accurately ripped
6 | ( 9/12) Accurately ripped
7 | ( 9/12) Accurately ripped
8 | ( 9/12) Accurately ripped
9 | ( 9/12) Accurately ripped
[AccurateRip ID: 0010e5d7-0080765f-700c7809] found.
Track [ CRC | V2 ] Status
01 [34fa01a0|fe8afc37] (00+00/13) No match
02 [43b87e98|2acae3f8] (00+00/13) No match
03 [5e1cb4c5|80568156] (00+00/13) No match
04 [3a86c32e|62bde667] (00+00/14) No match
05 [9d6f58ed|fcc0a496] (00+00/14) No match
06 [51ea9f55|aefdd783] (00+00/13) No match
07 [e1d6e523|f1e69954] (00+00/14) No match
08 [7e64bed2|eb898909] (00+00/14) No match
09 [526f3033|05b76599] (00+00/13) No match
Offsetted by 1364:
01 [0150df3c] (04/13) Accurately ripped
02 [28396213] (04/13) Accurately ripped
03 [e55da272] (04/13) Accurately ripped
04 [15b90a74] (05/14) Accurately ripped
05 [883fbfe6] (05/14) Accurately ripped
06 [00e1ece2] (04/13) Accurately ripped
07 [98afb83f] (05/14) Accurately ripped
08 [fafcc095] (05/14) Accurately ripped
09 [f0209e74] (05/13) Accurately ripped
Offsetted by 36:
01 [24ec5324] (00/13) No match (V2 was not tested)
02 [4b9adaf8] (00/13) No match (V2 was not tested)
03 [3d147706] (00/13) No match (V2 was not tested)
04 [f825c3dd] (00/14) No match (V2 was not tested)
05 [23a6f46e] (00/14) No match (V2 was not tested)
06 [658ee4eb] (00/13) No match (V2 was not tested)
07 [9e8471b7] (00/14) No match (V2 was not tested)
08 [d5029823] (00/14) No match (V2 was not tested)
09 [adedce81] (00/13) No match (V2 was not tested)
Offsetted by 1293:
01 [463e001d] (00/13) No match (V2 was not tested)
02 [0370f13a] (00/13) No match (V2 was not tested)
03 [671b36d2] (00/13) No match (V2 was not tested)
04 [5fda0566] (00/14) No match (V2 was not tested)
05 [92778cd4] (00/14) No match (V2 was not tested)
06 [150263e1] (00/13) No match (V2 was not tested)
07 [14417cff] (00/14) No match (V2 was not tested)
08 [6fd61c67] (00/14) No match (V2 was not tested)
09 [be618d22] (00/13) No match (V2 was not tested)

Track Peak [ CRC32 ] [W/O NULL] [ LOG ]
– 100,0 [5544F1E6] [20DEF2CD] CRC32
01 36,1 [1336E57B] [E095DD9A]
02 100,0 [F21733A7] [DB1CE9CC]
03 43,7 [290A65DF] [D91F096E]
04 100,0 [8BD14B97] [5D3ED1AB]
05 100,0 [B71A458D] [A236E6CA]
06 100,0 [AF90373C] [17C1566C]
07 100,0 [E639893D] [7636466A]
08 100,0 [D8810376] [324BA927]
09 100,0 [E4468369] [E87911CE]

CD 3:
01. Mass No. 3 In F Minor: Kyrie
02. Mass No. 3 In F Minor: Gloria
03. Mass No. 3 In F Minor: Qui tollis
04. Mass No. 3 In F Minor: Quoniam tu solus sanctus
05. Mass No. 3 In F Minor: In gloria Dei Patris
06. Mass No. 3 In F Minor: Credo
07. Mass No. 3 In F Minor: Et incarnatus est
08. Mass No. 3 In F Minor: Crucifixus est
09. Mass No. 3 In F Minor: Et resurrexit
10. Mass No. 3 In F Minor: Et in spiritum sanctum
11. Mass No. 3 In F Minor: Et expecto resurrectionem
12. Mass No. 3 In F Minor: Sanctus
13. Mass No. 3 In F Minor: Benedictus
14. Mass No. 3 In F Minor: Agnus Dei
15. Psalm 150

Exact Audio Copy V1.0 beta 3 from 29. August 2011

EAC extraction logfile from 12. March 2013, 22:29

Corydon Singers - Matthew Best / Bruckner - The Masses [Disc 3]

Used drive : TSSTcorpCDDVDW SN-208BB Adapter: 0 ID: 1

Read mode : Secure
Utilize accurate stream : Yes
Defeat audio cache : Yes
Make use of C2 pointers : No

Read offset correction : 6
Overread into Lead-In and Lead-Out : No
Fill up missing offset samples with silence : Yes
Delete leading and trailing silent blocks : No
Null samples used in CRC calculations : Yes
Used interface : Native Win32 interface for Win NT & 2000

Used output format : User Defined Encoder
Selected bitrate : 1024 kBit/s
Quality : High
Add ID3 tag : No
Command line compressor : C:\Program Files (x86)\FLAC\flac.exe
Additional command line options : -T "COMMENT=rip by el coronel, rutracker.org" -8 -V %source%


TOC of the extracted CD

Track | Start | Length | Start sector | End sector
––––––––––––––––––––––––––––-
1 | 0:00.00 | 9:47.67 | 0 | 44091
2 | 9:47.67 | 3:00.63 | 44092 | 57654
3 | 12:48.55 | 4:03.17 | 57655 | 75896
4 | 16:51.72 | 1:27.10 | 75897 | 82431
5 | 18:19.07 | 2:54.50 | 82432 | 95531
6 | 21:13.57 | 2:16.05 | 95532 | 105736
7 | 23:29.62 | 3:35.08 | 105737 | 121869
8 | 27:04.70 | 4:02.37 | 121870 | 140056
9 | 31:07.32 | 3:25.45 | 140057 | 155476
10 | 34:33.02 | 2:58.18 | 155477 | 168844
11 | 37:31.20 | 3:53.45 | 168845 | 186364
12 | 41:24.65 | 2:21.20 | 186365 | 196959
13 | 43:46.10 | 7:19.30 | 196960 | 229914
14 | 51:05.40 | 8:39.12 | 229915 | 268851
15 | 59:44.52 | 8:16.58 | 268852 | 306109


Range status and errors

Selected range

Filename K:\Music\Bruckner Masses - Best\Bruckner - The Masses [Disc 3].wav

Peak level 98.6 %
Extraction speed 3.1 X
Range quality 100.0 %
Test CRC BF1847AD
Copy CRC BF1847AD
Copy OK

No errors occurred


AccurateRip summary

Track 1 cannot be verified as accurate (confidence 5) [36853DC2], AccurateRip returned [5291593A] (AR v2)
Track 2 cannot be verified as accurate (confidence 5) [9B931436], AccurateRip returned [51051189] (AR v2)
Track 3 cannot be verified as accurate (confidence 5) [3F972685], AccurateRip returned [48F85DA4] (AR v2)
Track 4 cannot be verified as accurate (confidence 5) [694DCD6C], AccurateRip returned [F63ECF80] (AR v2)
Track 5 cannot be verified as accurate (confidence 5) [4500E7A2], AccurateRip returned [44B45861] (AR v2)
Track 6 cannot be verified as accurate (confidence 5) [D4B0A576], AccurateRip returned [410EFB23] (AR v2)
Track 7 cannot be verified as accurate (confidence 5) [08901337], AccurateRip returned [CC7769A7] (AR v2)
Track 8 cannot be verified as accurate (confidence 5) [22A80703], AccurateRip returned [DDB2D8C7] (AR v2)
Track 9 cannot be verified as accurate (confidence 5) [0132C4B9], AccurateRip returned [A02CEEEE] (AR v2)
Track 10 cannot be verified as accurate (confidence 5) [C05E7384], AccurateRip returned [B683EF7B] (AR v2)
Track 11 cannot be verified as accurate (confidence 5) [5C801297], AccurateRip returned [2411B2D9] (AR v2)
Track 12 cannot be verified as accurate (confidence 5) [5D7BA090], AccurateRip returned [500D8661] (AR v2)
Track 13 cannot be verified as accurate (confidence 5) [FCC7F373], AccurateRip returned [DC528293] (AR v2)
Track 14 cannot be verified as accurate (confidence 5) [744D18A6], AccurateRip returned [E57C5ECA] (AR v2)
Track 15 cannot be verified as accurate (confidence 5) [6D34C22D], AccurateRip returned [ABC6E2AD] (AR v2)

No tracks could be verified as accurate
You may have a different pressing from the one(s) in the database

End of status report

==== Log checksum 3AD49D7B79B96E851C9EF2265A613353405FE1DBC9406DD733536C6B58D98127 ====

[CUETools log; Date: 02.01.2018 11:56:33; Version: 2.1.5]
[CTDB TOCID: oERbdYlKtDmghE3Q1nSumVKbpcs-] found.
Track | CTDB Status
1 | (13/13) Accurately ripped
2 | (13/13) Accurately ripped
3 | (13/13) Accurately ripped
4 | (13/13) Accurately ripped
5 | (13/13) Accurately ripped
6 | (13/13) Accurately ripped
7 | (13/13) Accurately ripped
8 | (13/13) Accurately ripped
9 | (13/13) Accurately ripped
10 | (13/13) Accurately ripped
11 | (13/13) Accurately ripped
12 | (13/13) Accurately ripped
13 | (13/13) Accurately ripped
14 | (13/13) Accurately ripped
15 | (11/13) Accurately ripped
[AccurateRip ID: 00221d94-017bb31d-d10ff10f] found.
Track [ CRC | V2 ] Status
01 [f5f37fac|36853dc2] (00+00/20) No match
02 [ff2b774c|9b931436] (00+00/20) No match
03 [4b410dfe|3f972685] (00+00/20) No match
04 [6e442995|694dcd6c] (00+00/20) No match
05 [663a9c07|4500e7a2] (00+00/20) No match
06 [4dce5026|d4b0a576] (00+00/20) No match
07 [e9bd72c6|08901337] (00+00/20) No match
08 [6da683b2|22a80703] (00+00/20) No match
09 [0e060964|0132c4b9] (00+00/20) No match
10 [1903a303|c05e7384] (00+00/20) No match
11 [9a8e304c|5c801297] (00+00/20) No match
12 [93ed96dd|5d7ba090] (00+00/20) No match
13 [8e810552|fcc7f373] (00+00/20) No match
14 [7f0ad0d1|744d18a6] (00+00/20) No match
15 [66dca7b7|6d34c22d] (00+00/17) No match
Offsetted by -777:
01 [3292622f] (02/20) Accurately ripped
02 [0df143e6] (02/20) Accurately ripped
03 [5baaac05] (02/20) Accurately ripped
04 [0b4ee05c] (02/20) Accurately ripped
05 [a8a7b7dd] (02/20) Accurately ripped
06 [1c6ae8fe] (02/20) Accurately ripped
07 [374b8d61] (02/20) Accurately ripped
08 [63c7019d] (02/20) Accurately ripped
09 [cbd8b9fc] (02/20) Accurately ripped
10 [a59b2a2a] (02/20) Accurately ripped
11 [dab6791d] (02/20) Accurately ripped
12 [5c789b07] (02/20) Accurately ripped
13 [308d0138] (02/20) Accurately ripped
14 [3ca2de97] (02/20) Accurately ripped
15 [a25117ab] (02/17) Accurately ripped
Offsetted by 700:
01 [5291593a] (05/20) Accurately ripped
02 [51051189] (05/20) Accurately ripped
03 [48f85da4] (05/20) Accurately ripped
04 [f63ecf80] (05/20) Accurately ripped
05 [44b45861] (05/20) Accurately ripped
06 [410efb23] (05/20) Accurately ripped
07 [cc7769a7] (05/20) Accurately ripped
08 [ddb2d8c7] (05/20) Accurately ripped
09 [a02ceeee] (05/20) Accurately ripped
10 [b683ef7b] (05/20) Accurately ripped
11 [2411b2d9] (05/20) Accurately ripped
12 [500d8661] (05/20) Accurately ripped
13 [dc528293] (05/20) Accurately ripped
14 [e57c5eca] (05/20) Accurately ripped
15 [abc6e2ad] (05/17) Accurately ripped
Offsetted by 42:
01 [07f1ee93] (00/20) No match (V2 was not tested)
02 [db518409] (00/20) No match (V2 was not tested)
03 [dcbd1278] (00/20) No match (V2 was not tested)
04 [bff33ba0] (00/20) No match (V2 was not tested)
05 [d774a56b] (00/20) No match (V2 was not tested)
06 [ee5fae3c] (00/20) No match (V2 was not tested)
07 [7a6e368c] (00/20) No match (V2 was not tested)
08 [9e651bf8] (00/20) No match (V2 was not tested)
09 [39b435a7] (00/20) No match (V2 was not tested)
10 [af6899b2] (00/20) No match (V2 was not tested)
11 [c9414b44] (00/20) No match (V2 was not tested)
12 [53228ab3] (00/20) No match (V2 was not tested)
13 [06419f56] (00/20) No match (V2 was not tested)
14 [732834bd] (00/20) No match (V2 was not tested)
15 [e2510b1e] (00/17) No match (V2 was not tested)
Offsetted by 1359:
01 [cfcc5e27] (00/20) No match (V2 was not tested)
02 [afae3aa0] (00/20) No match (V2 was not tested)
03 [3e93511e] (00/20) No match (V2 was not tested)
04 [a7d941da] (00/20) No match (V2 was not tested)
05 [8b213e2f] (00/20) No match (V2 was not tested)
06 [61b5fee1] (00/20) No match (V2 was not tested)
07 [4a3e5bff] (00/20) No match (V2 was not tested)
08 [123c56ac] (00/20) No match (V2 was not tested)
09 [f9c2489d] (00/20) No match (V2 was not tested)
10 [c2c1c6e9] (00/20) No match (V2 was not tested)
11 [5794dcf2] (00/20) No match (V2 was not tested)
12 [22e096dc] (00/20) No match (V2 was not tested)
13 [34d3e582] (00/20) No match (V2 was not tested)
14 [9edb48a0] (00/20) No match (V2 was not tested)
15 [1f337e5f] (00/17) No match (V2 was not tested)
Offsetted by 1376:
01 [e9fef4cc] (00/20) No match (V2 was not tested)
02 [7e8b8b9a] (00/20) No match (V2 was not tested)
03 [03f12288] (00/20) No match (V2 was not tested)
04 [7e6b3fc1] (00/20) No match (V2 was not tested)
05 [3d2d2555] (00/20) No match (V2 was not tested)
06 [c80e5aee] (00/20) No match (V2 was not tested)
07 [697edd32] (00/20) No match (V2 was not tested)
08 [9250c887] (00/20) No match (V2 was not tested)
09 [9fea2406] (00/20) No match (V2 was not tested)
10 [0c314f4e] (00/20) No match (V2 was not tested)
11 [59cea7d7] (00/20) No match (V2 was not tested)
12 [714a0eb5] (00/20) No match (V2 was not tested)
13 [373fd570] (00/20) No match (V2 was not tested)
14 [6daddafb] (00/20) No match (V2 was not tested)
15 [e927b4bc] (00/17) No match (V2 was not tested)

Track Peak [ CRC32 ] [W/O NULL] [ LOG ]
– 98,6 [BF1847AD] [655B00C0] CRC32
01 84,6 [EE8F07C3] [1E22B941]
02 96,9 [F9BFDBC8] [5F6BFCE3]
03 72,3 [D8AEAA45] [8BD8141A]
04 70,2 [BAA11457] [B220BF4C]
05 91,8 [2E0B1897] [489FF62C]
06 98,6 [2D36E2CC] [F0EC63B2]
07 22,8 [59768D83] [62BB7642]
08 40,1 [1EF425CF] [22917F7F]
09 97,5 [9722F5EC] [0E13406B]
10 76,4 [B5FEB0AD] [9C15FD0E]
11 98,2 [56CEF7BF] [EB470F41]
12 98,2 [1E024A0F] [72C87D8B]
13 87,6 [91FC5F19] [DE5EFB3E]
14 97,9 [62935920] [FE442A6D]
15 97,9 [BD33B02D] [EB58B475]

Performers:
Corydon Singers
Corydon Orchestra
Matthew Best, conductor

Thanks to the Original ripper unknown)!

Download: