Tags
Language
Tags

Coverdale • Page - Coverdale • Page (1993) {Japan 1st Press}

Posted By: popsakov
Coverdale • Page - Coverdale • Page (1993) {Japan 1st Press}

Coverdale • Page - Coverdale • Page (1993) {Japan 1st Press}
XLD Rip | FLAC (Img) + Cue + Log ~ 654 Mb | MP3 CBR320 ~ 151 Mb
Scans Included | RAR 5% Recovery
Hard Rock, Blues Rock | Sony Records #SRCS 6662

Coverdale•Page is an album by Whitesnake lead vocalist David Coverdale and former Led Zeppelin and London session guitarist Jimmy Page (as Coverdale•Page), released by Geffen Records on 15 March 1993. The album was recorded at Little Mountain Sound Studios in Vancouver, Criteria Studios in Miami, Granny's House in Reno, Nevada and Abbey Road Studios, London. Recording commenced in the fall of 1991 and concluded in early 1992. It was produced by Jimmy Page, David Coverdale and Canadian record producer, Mike Fraser.

Adding to the Led Zeppelin sound of this album was the John Bonham-influence of former Montrose drummer Denny Carmassi. According to David Coverdale, the traffic sign shown on the cover of the album signified "two roads joining to one road. Try to express unification or joining together." The album reached No. 4 in the UK and No. 5 on the US Billboard 200 chart, while the first single released, "Pride and Joy", although barely making a dent on the pop charts, reached the No. 1 spot on the Album Rock Tracks chart for six weeks.
~ Wiki

Everything about Coverdale/Page, right down to the goofy copping of the Presence artwork, is an attempt to recapture the pompous majesty of Led Zeppelin. It doesn't succeed, of course, but it does leave all of the Zep clones in the dust. Although Jimmy Page plays better here than he has since 1979's In Through the Out Door, there is a conspicuous lack of solos. If you've never liked David Coverdale, his performance will not change your opinion. Both fare better on the rockers; the power ballads tend be slightly tedious. Essentially, Coverdale/Page boils down to a guilty pleasure at its best moments ("Shake My Tree," "Pride and Joy," "Absolution Blues"), but never quite rivals the bold experimentation of Led Zeppelin.

~ Stephen Thomas Erlewine, All Music

***************

Coverdale • Page - Coverdale • Page (1993) {Japan 1st Press}

Track List:

01. Shake My Tree [4:53]
02. Waiting On You [5:16]
03. Take Me For A Little While [6:16]
04. Pride And Joy [3:32]
05. Over Now [5:24]
06. Feeling Hot [4:12]
07. Easy Does It [5:53]
08. Take A Look At Yourself [5:02]
09. Don't Leave Me This Way [7:53]
10. Absolution Blues [5:59]
11. Whisper A Prayer For The Dying [6:56]

Personnel:
David Coverdale - lead vocals, acoustic guitar on "Pride and Joy" and "Easy Does It"
Jimmy Page - electric guitars, acoustic guitar on "Shake My Tree", "Take Me for a Little While", "Pride and Joy", "Over Now", "Easy Does It", "Don't Leave Me This Way" and "Whisper a Prayer for the Dying", bass on "Take Me for a Little While", harmonica on "Pride and Joy", dulcimer on "Pride and Joy"

Additional musicians
Denny Carmassi - drums, percussion
Jorge Casas - bass guitar
Tommy Funderburk - backing vocals
John Harris - harmonica
Lester Mendez - keyboards on "Take Me for a Little While", "Over Now", "Easy Does It", "Take a Look at Yourself", "Don't Leave Me This Way", "Absolution Blues" and "Whisper a Prayer for the Dying", percussion
Ricky Phillips - bass guitar
John Sambataro - backing vocals on "Waiting on You", "Feeling Hot", "Absolution Blues" and "Whisper a Prayer for the Dying"

X Lossless Decoder version 20160920 (149.2)

XLD extraction logfile from 2018-12-03 09:43:33 +0300

Coverdale / Page / Coverdale / Page

Used drive : OPTIARC DVD RW AD-5630A (revision 2CH9)
Media type : Pressed CD

Ripper mode : XLD Secure Ripper
Disable audio cache : OK for the drive with a cache less than 1375KiB
Make use of C2 pointers : NO
Read offset correction : 48
Max retry count : 20
Gap status : Analyzed, Appended

TOC of the extracted CD
Track | Start | Length | Start sector | End sector
––––––––––––––––––––––––––––-
1 | 00:00:00 | 04:53:15 | 0 | 21989
2 | 04:53:15 | 05:16:05 | 21990 | 45694
3 | 10:09:20 | 06:16:05 | 45695 | 73899
4 | 16:25:25 | 03:31:52 | 73900 | 89776
5 | 19:57:02 | 05:23:65 | 89777 | 114066
6 | 25:20:67 | 04:11:40 | 114067 | 132931
7 | 29:32:32 | 05:52:45 | 132932 | 159376
8 | 35:25:02 | 05:02:30 | 159377 | 182056
9 | 40:27:32 | 07:52:73 | 182057 | 217529
10 | 48:20:30 | 05:59:37 | 217530 | 244491
11 | 54:19:67 | 06:56:03 | 244492 | 275694

List of alternate offset correction values
# | Absolute | Relative | Confidence
–––––––––––––––––––––
1 | -628 | -676 | 2

AccurateRip Summary (DiscID: 0017c408-00cfeeb2-990e5b0b)
Track 01 : OK (v1+v2, confidence 54/56)
Track 02 : OK (v1+v2, confidence 54/56)
Track 03 : OK (v1+v2, confidence 54/56)
Track 04 : OK (v1+v2, confidence 54/56)
Track 05 : OK (v1+v2, confidence 54/56)
Track 06 : OK (v1+v2, confidence 54/56)
Track 07 : OK (v1+v2, confidence 54/56)
Track 08 : OK (v1+v2, confidence 54/56)
Track 09 : OK (v1+v2, confidence 54/56)
Track 10 : OK (v1+v2, confidence 54/56)
Track 11 : OK (v1+v2, confidence 53/55)
->All tracks accurately ripped.

All Tracks
Filename : /Users/dima/Desktop/Coverdale / Page(1).flac
Album gain : -8.39 dB
Peak : 0.999969
CRC32 hash (test run) : 5A3EE7C3
CRC32 hash : 5A3EE7C3
CRC32 hash (skip zero) : 88D2650F
Statistics
Read error : 0
Jitter error (maybe fixed) : 0
Retry sector count : 0
Damaged sector count : 0

Track 01
Pre-gap length : 00:02:00

Track gain : -8.34 dB
Peak : 0.999969
CRC32 hash (test run) : 7AB9DAA6
CRC32 hash : 7AB9DAA6
CRC32 hash (skip zero) : 383D094D
AccurateRip v1 signature : CFB4FB64
AccurateRip v2 signature : DB9F559F
->Accurately ripped (v1+v2, confidence 20+34/56)
Statistics
Read error : 0
Jitter error (maybe fixed) : 0
Retry sector count : 0
Damaged sector count : 0

Track 02

Track gain : -7.83 dB
Peak : 0.999969
CRC32 hash (test run) : 2254C526
CRC32 hash : 2254C526
CRC32 hash (skip zero) : 0BEBD137
AccurateRip v1 signature : 38EAF86F
AccurateRip v2 signature : 96B3CC07
->Accurately ripped (v1+v2, confidence 20+34/56)
Statistics
Read error : 0
Jitter error (maybe fixed) : 0
Retry sector count : 0
Damaged sector count : 0

Track 03

Track gain : -6.98 dB
Peak : 0.999969
CRC32 hash (test run) : E3D673BD
CRC32 hash : E3D673BD
CRC32 hash (skip zero) : FFC808DE
AccurateRip v1 signature : 99026E4B
AccurateRip v2 signature : B5F78E00
->Accurately ripped (v1+v2, confidence 20+34/56)
Statistics
Read error : 0
Jitter error (maybe fixed) : 0
Retry sector count : 0
Damaged sector count : 0

Track 04

Track gain : -9.13 dB
Peak : 0.999969
CRC32 hash (test run) : 48366857
CRC32 hash : 48366857
CRC32 hash (skip zero) : C425D660
AccurateRip v1 signature : 5A440489
AccurateRip v2 signature : 497BCBFF
->Accurately ripped (v1+v2, confidence 20+34/56)
Statistics
Read error : 0
Jitter error (maybe fixed) : 0
Retry sector count : 0
Damaged sector count : 0

Track 05

Track gain : -9.01 dB
Peak : 0.999969
CRC32 hash (test run) : F799BD9E
CRC32 hash : F799BD9E
CRC32 hash (skip zero) : 77DBD30A
AccurateRip v1 signature : 6B6FE7F6
AccurateRip v2 signature : 9AE87E15
->Accurately ripped (v1+v2, confidence 20+34/56)
Statistics
Read error : 0
Jitter error (maybe fixed) : 0
Retry sector count : 0
Damaged sector count : 0

Track 06

Track gain : -9.43 dB
Peak : 0.999969
CRC32 hash (test run) : 5F117BE8
CRC32 hash : 5F117BE8
CRC32 hash (skip zero) : CAD067F6
AccurateRip v1 signature : FE20ABE0
AccurateRip v2 signature : 29175FA0
->Accurately ripped (v1+v2, confidence 20+34/56)
Statistics
Read error : 0
Jitter error (maybe fixed) : 0
Retry sector count : 0
Damaged sector count : 0

Track 07

Track gain : -7.60 dB
Peak : 0.999969
CRC32 hash (test run) : 0253D65B
CRC32 hash : 0253D65B
CRC32 hash (skip zero) : 6D3B6AC8
AccurateRip v1 signature : EABDDC24
AccurateRip v2 signature : 886AFA95
->Accurately ripped (v1+v2, confidence 20+34/56)
Statistics
Read error : 0
Jitter error (maybe fixed) : 0
Retry sector count : 0
Damaged sector count : 0

Track 08

Track gain : -7.54 dB
Peak : 0.999969
CRC32 hash (test run) : D351DA62
CRC32 hash : D351DA62
CRC32 hash (skip zero) : 3B3B498E
AccurateRip v1 signature : 0B13D125
AccurateRip v2 signature : 25BC0CFE
->Accurately ripped (v1+v2, confidence 20+34/56)
Statistics
Read error : 0
Jitter error (maybe fixed) : 0
Retry sector count : 0
Damaged sector count : 0

Track 09

Track gain : -8.39 dB
Peak : 0.999969
CRC32 hash (test run) : 8D4B0D0B
CRC32 hash : 8D4B0D0B
CRC32 hash (skip zero) : 762AA720
AccurateRip v1 signature : 9EAC5613
AccurateRip v2 signature : FFB3079B
->Accurately ripped (v1+v2, confidence 20+34/56)
Statistics
Read error : 0
Jitter error (maybe fixed) : 0
Retry sector count : 0
Damaged sector count : 0

Track 10

Track gain : -7.84 dB
Peak : 0.999969
CRC32 hash (test run) : F5D421A2
CRC32 hash : F5D421A2
CRC32 hash (skip zero) : 3D94FE3E
AccurateRip v1 signature : 2A3F6F44
AccurateRip v2 signature : 68E529E0
->Accurately ripped (v1+v2, confidence 20+34/56)
Statistics
Read error : 0
Jitter error (maybe fixed) : 0
Retry sector count : 0
Damaged sector count : 0

Track 11

Track gain : -8.23 dB
Peak : 0.994781
CRC32 hash (test run) : FD68BCCB
CRC32 hash : FD68BCCB
CRC32 hash (skip zero) : F2FFDC41
AccurateRip v1 signature : 2D141B3E
AccurateRip v2 signature : EC660D93
->Accurately ripped (v1+v2, confidence 20+33/55)
Statistics
Read error : 0
Jitter error (maybe fixed) : 0
Retry sector count : 0
Damaged sector count : 0

No errors occurred

End of status report

[CUETools log; Date: 03.12.2018 18:15:21; Version: 2.1.6]
[CTDB TOCID: 2LYyYlqC64fGPoLWCdWecnQXyF8-] found.
Track | CTDB Status
1 | (125/125) Accurately ripped
2 | (125/125) Accurately ripped
3 | (125/125) Accurately ripped
4 | (125/125) Accurately ripped
5 | (125/125) Accurately ripped
6 | (125/125) Accurately ripped
7 | (125/125) Accurately ripped
8 | (125/125) Accurately ripped
9 | (125/125) Accurately ripped
10 | (125/125) Accurately ripped
11 | (123/125) Accurately ripped
[AccurateRip ID: 0017c408-00cfeeb2-990e5b0b] found.
Track [ CRC | V2 ] Status
01 [cfb4fb64|db9f559f] (20+34/56) Accurately ripped
02 [38eaf86f|96b3cc07] (20+34/56) Accurately ripped
03 [99026e4b|b5f78e00] (20+34/56) Accurately ripped
04 [5a440489|497bcbff] (20+34/56) Accurately ripped
05 [6b6fe7f6|9ae87e15] (20+34/56) Accurately ripped
06 [fe20abe0|29175fa0] (20+34/56) Accurately ripped
07 [eabddc24|886afa95] (20+34/56) Accurately ripped
08 [0b13d125|25bc0cfe] (20+34/56) Accurately ripped
09 [9eac5613|ffb3079b] (20+34/56) Accurately ripped
10 [2a3f6f44|68e529e0] (20+34/56) Accurately ripped
11 [2d141b3e|ec660d93] (20+33/55) Accurately ripped
Offsetted by -676:
01 [7962eb1c] (00/56) No match (V2 was not tested)
02 [4a7c6d6f] (00/56) No match (V2 was not tested)
03 [efbc801d] (00/56) No match (V2 was not tested)
04 [529ce901] (00/56) No match (V2 was not tested)
05 [719e0c46] (00/56) No match (V2 was not tested)
06 [0bde768d] (00/56) No match (V2 was not tested)
07 [468b763e] (00/56) No match (V2 was not tested)
08 [4315b4a8] (00/56) No match (V2 was not tested)
09 [f37da83b] (00/56) No match (V2 was not tested)
10 [04840a4b] (00/56) No match (V2 was not tested)
11 [e02beaa7] (00/55) No match (V2 was not tested)

Track Peak [ CRC32 ] [W/O NULL]
– 99,9 [5A3EE7C3] [88D2650F]
01 99,9 [7AB9DAA6] [383D094D]
02 99,9 [2254C526] [0BEBD137]
03 99,9 [E3D673BD] [FFC808DE]
04 99,9 [48366857] [C425D660]
05 99,9 [F799BD9E] [77DBD30A]
06 99,9 [5F117BE8] [CAD067F6]
07 99,9 [0253D65B] [6D3B6AC8]
08 99,9 [D351DA62] [3B3B498E]
09 99,9 [8D4B0D0B] [762AA720]
10 99,9 [F5D421A2] [3D94FE3E]
11 99,4 [FD68BCCB] [F2FFDC41]

Coverdale • Page - Coverdale • Page (1993) {Japan 1st Press}

See also:
Coverdale • Page - Coverdale • Page (1993)

All thanks go to amsterwhat

>>> My Blog <<<

Download from icerbox.com: