Subcategories

Cozy Powell - Especially For You (1998) {Japan} Repost / New Rip

Posted By: popsakov
Cozy Powell - Especially For You (1998) {Japan} Repost / New Rip

Cozy Powell - Especially For You (1998) {Japan}
EAC Rip | FLAC (Img) + Cue + Log ~ 418 Mb | MP3 CBR320 ~ 161 Mb
Scans Included | RAR 5% Recovery
Hard Rock, AOR, Classic Rock | Polydor K.K. #POCP-7326

Considered to be one of England's best drummers, Cozy Powell was almost legendary for a heavy-hitting style that could be made to work with many styles of music, He is best remembered for his work with Rainbow, Michael Schenker Group, Whitesnake and Black Sabbath as well as Emerson, Lake & Powell. The final solo album by Cozy Powell "Especially For You" was released in 1998 after his death, and featured American vocalist John West, Neil Murray, Lonnie Park, Michael Casswell and others. This album was only released in Japan.

***************

Cozy Powell - Especially For You (1998) {Japan} Repost / New Rip

Cozy Powell - Especially For You (1998) {Japan} Repost / New Rip

Track List:

01. Man With A Mission [0:04:37.12]
02. Ivory Towers [0:04:34.50]
03. Why Does Love Hurt [0:04:44.63]
04. Haunted By The Devil [0:04:13.37]
05. Doing The Natural Thing [0:05:08.00]
06. All I Wanted Was Your Love [0:05:27.13]
07. Call Me Mayhem [0:04:06.50]
08. The Light [0:04:03.27]
09. High Time To Fly [0:03:32.73]
10. Make You A Man [0:04:34.50]
11. Power In The Wrong Hands [0:06:14.50]
12. You're All I Believe In [0:04:22.25]

Personnel:
Cozy Powell - drums
John West - vocals
Neil Murray - bass
Mike Casswell - guitars
Lonnie Parks - keyboards on 1,2,8,9
Ken Boley - keyboards on 5,7,10,11
Mike Burns - keyboards, sequencing on 3,6,12
Sylvian - guitar on 4
Viracocha - keyboards, sequencimg on 4

Exact Audio Copy V1.2 from 12. August 2016

EAC extraction logfile from 24. August 2017, 21:01

Cozy Powell / Especially For You [POCP-7326]

Used drive : HL-DT-STBD-RE BH10LS38 Adapter: 1 ID: 1

Read mode : Secure
Utilize accurate stream : Yes
Defeat audio cache : Yes
Make use of C2 pointers : No

Read offset correction : 667
Overread into Lead-In and Lead-Out : No
Fill up missing offset samples with silence : Yes
Delete leading and trailing silent blocks : No
Null samples used in CRC calculations : Yes
Used interface : Installed external ASPI interface

Used output format : User Defined Encoder
Selected bitrate : 128 kBit/s
Quality : High
Add ID3 tag : No
Command line compressor : C:\Program Files (x86)\Exact Audio Copy\wavpack-4.60.1\wavpack.exe
Additional command line options : -hm -w "Year=%year%" -w "Genre=%genre%" %source% %dest%


TOC of the extracted CD

Track | Start | Length | Start sector | End sector
––––––––––––––––––––––––––––-
1 | 0:00.00 | 4:37.12 | 0 | 20786
2 | 4:37.12 | 4:34.50 | 20787 | 41386
3 | 9:11.62 | 4:44.63 | 41387 | 62749
4 | 13:56.50 | 4:13.37 | 62750 | 81761
5 | 18:10.12 | 5:08.00 | 81762 | 104861
6 | 23:18.12 | 5:27.13 | 104862 | 129399
7 | 28:45.25 | 4:06.50 | 129400 | 147899
8 | 32:52.00 | 4:03.27 | 147900 | 166151
9 | 36:55.27 | 3:32.73 | 166152 | 182124
10 | 40:28.25 | 4:34.50 | 182125 | 202724
11 | 45:03.00 | 6:14.50 | 202725 | 230824
12 | 51:17.50 | 4:22.25 | 230825 | 250499


Range status and errors

Selected range

Filename G:\Rips by Alder\Cozy Powell - Especially For You [POCP-7326].wav

Peak level 94.4 %
Extraction speed 7.4 X
Range quality 100.0 %
Test CRC 370D5E81
Copy CRC 370D5E81
Copy OK

No errors occurred


AccurateRip summary

Track 1 accurately ripped (confidence 4) [935537F3] (AR v2)
Track 2 accurately ripped (confidence 4) [132488A1] (AR v2)
Track 3 accurately ripped (confidence 4) [BEFC5F0D] (AR v2)
Track 4 accurately ripped (confidence 4) [A107661F] (AR v2)
Track 5 accurately ripped (confidence 4) [78F4AEF6] (AR v2)
Track 6 accurately ripped (confidence 4) [5FF15BC7] (AR v2)
Track 7 accurately ripped (confidence 4) [0FF6E2AD] (AR v2)
Track 8 accurately ripped (confidence 4) [57A676DF] (AR v2)
Track 9 accurately ripped (confidence 4) [558EC95C] (AR v2)
Track 10 accurately ripped (confidence 4) [3CD0CE29] (AR v2)
Track 11 accurately ripped (confidence 4) [AA3AF204] (AR v2)
Track 12 accurately ripped (confidence 4) [3F9DE898] (AR v2)

All tracks accurately ripped

End of status report

–– CUETools DB Plugin V2.1.6

[CTDB TOCID: q88.brvlW_e_wUifuaT76vUYNvk-] found
Submit result: q88.brvlW_e_wUifuaT76vUYNvk- has been confirmed
Track | CTDB Status
1 | (5/5) Accurately ripped
2 | (5/5) Accurately ripped
3 | (5/5) Accurately ripped
4 | (5/5) Accurately ripped
5 | (5/5) Accurately ripped
6 | (5/5) Accurately ripped
7 | (5/5) Accurately ripped
8 | (5/5) Accurately ripped
9 | (5/5) Accurately ripped
10 | (5/5) Accurately ripped
11 | (5/5) Accurately ripped
12 | (5/5) Accurately ripped


==== Log checksum C235CBBA5DC09945FC8C238EC135DDEC23ED208B7234A828A26064F967B3BABF ====

[CUETools log; Date: 15.05.2019 12:49:35; Version: 2.1.6]
[CTDB TOCID: q88.brvlW_e_wUifuaT76vUYNvk-] found.
Track | CTDB Status
1 | (9/9) Accurately ripped
2 | (9/9) Accurately ripped
3 | (9/9) Accurately ripped
4 | (9/9) Accurately ripped
5 | (9/9) Accurately ripped
6 | (9/9) Accurately ripped
7 | (9/9) Accurately ripped
8 | (9/9) Accurately ripped
9 | (9/9) Accurately ripped
10 | (9/9) Accurately ripped
11 | (9/9) Accurately ripped
12 | (9/9) Accurately ripped
[AccurateRip ID: 0018bcb7-00e6a9a7-a10d0c0c] found.
Track [ CRC | V2 ] Status
01 [8401bc94|935537f3] (03+04/10) Accurately ripped
02 [042ff773|132488a1] (03+04/10) Accurately ripped
03 [efe211db|befc5f0d] (03+04/10) Accurately ripped
04 [a3c9be2b|a107661f] (03+04/10) Accurately ripped
05 [88e02f06|78f4aef6] (03+04/10) Accurately ripped
06 [b22d3653|5ff15bc7] (03+04/10) Accurately ripped
07 [b3afc577|0ff6e2ad] (03+04/10) Accurately ripped
08 [fe133761|57a676df] (03+04/10) Accurately ripped
09 [5c038eeb|558ec95c] (03+04/10) Accurately ripped
10 [2a084da6|3cd0ce29] (03+04/10) Accurately ripped
11 [b4081746|aa3af204] (03+04/10) Accurately ripped
12 [e9932a8f|3f9de898] (03+04/10) Accurately ripped
Offsetted by 96:
01 [d33a1d34] (00/10) No match (V2 was not tested)
02 [8fde7073] (00/10) No match (V2 was not tested)
03 [0075b878] (00/10) No match (V2 was not tested)
04 [6cd2d7ef] (00/10) No match (V2 was not tested)
05 [3831bcb9] (00/10) No match (V2 was not tested)
06 [3e25127d] (00/10) No match (V2 was not tested)
07 [54373a18] (00/10) No match (V2 was not tested)
08 [95bbdfbb] (00/10) No match (V2 was not tested)
09 [8eb7315b] (00/10) No match (V2 was not tested)
10 [85a8ac07] (00/10) No match (V2 was not tested)
11 [475c50f7] (00/10) No match (V2 was not tested)
12 [08008d78] (00/10) No match (V2 was not tested)

Track Peak [ CRC32 ] [W/O NULL] [ LOG ]
– 94,4 [370D5E81] [C030BF87] CRC32
01 94,4 [BD9632B5] [821BFD26]
02 94,4 [CDE49423] [057C56C2]
03 94,4 [F26A5E91] [1D41A6A2]
04 94,4 [03E84A00] [30FD1B42]
05 94,4 [B377B4FF] [15535D89]
06 94,4 [58664839] [7DCA2AE9]
07 94,4 [A80E0CAC] [3AC6337D]
08 94,4 [5CC36BE3] [56819AF6]
09 94,4 [34DD655C] [1EA18CE4]
10 94,4 [B562C8BB] [304035A4]
11 94,4 [C2429372] [17CFC6D4]
12 94,4 [2B1694A6] [E07156FC]

Cozy Powell - Especially For You (1998) {Japan} Repost / New Rip

All thanks go to Alder

>>> Cozy Powell in my Blog <<<

Download from icerbox.com: