Subcategories

Cozy Powell - Octopuss (1983) {1990, Japan 1st Press} Repost / New Rip

Posted By: popsakov
Cozy Powell - Octopuss (1983) {1990, Japan 1st Press} Repost / New Rip

Cozy Powell - Octopuss (1983) {1990, Japan 1st Press}
EAC Rip | WavPack (Img) + Cue + Log ~ 239 Mb | MP3 CBR320 ~ 96 Mb
Scans Included | RAR 5% Recovery
Hard Rock, Instrumental Rock | Polydor K.K. #POCP-1813

Octopuss is the third solo album by English drummer Cozy Powell, released in 1983. Considered to be one of England's best drummers, Cozy Powell was almost legendary for a heavy-hitting style that could be made to work with many styles of music, He is best remembered for his work with Rainbow, Michael Schenker Group, Whitesnake and Black Sabbath as well as Emerson, Lake & Powell. Octopus features musical assistance from John Lord, Mel Galley and Gary Moore.

***************

Cozy Powell - Octopuss (1983) {1990, Japan 1st Press} Repost / New Rip

Cozy Powell - Octopuss (1983) {1990, Japan 1st Press} Repost / New Rip

Track List:

01. Up On The Downs [0:03:55.53]
02. 633 Squadron [0:04:13.42]
03. Octopuss [0:05:53.58]
04. The Big Country [0:02:56.60]
05. Formula One [0:03:21.55]
06. Princetown [0:04:37.67]
07. Dartmoore [0:05:41.33]
08. The Rattler [0:02:57.45]

Personnel:
Cozy Powell - drums, percussion
Colin Hodgkinson - bass guitar
Mel Galley - guitar on "Up on the Downs", "633 Squadron", "Octopuss" and "The Big Country"
Gary Moore - guitar on "Formula One", "Princetown", "Dartmoore" and "The Rattler"
Jon Lord - keyboards
Don Airey - keyboards

Exact Audio Copy V1.2 from 12. August 2016

EAC extraction logfile from 24. August 2017, 20:13

Cozy Powell / Octopuss [POCP-1813]

Used drive : HL-DT-STBD-RE BH10LS38 Adapter: 1 ID: 1

Read mode : Secure
Utilize accurate stream : Yes
Defeat audio cache : Yes
Make use of C2 pointers : No

Read offset correction : 667
Overread into Lead-In and Lead-Out : No
Fill up missing offset samples with silence : Yes
Delete leading and trailing silent blocks : No
Null samples used in CRC calculations : Yes
Used interface : Installed external ASPI interface

Used output format : User Defined Encoder
Selected bitrate : 128 kBit/s
Quality : High
Add ID3 tag : No
Command line compressor : C:\Program Files (x86)\Exact Audio Copy\wavpack-4.60.1\wavpack.exe
Additional command line options : -hm -w "Year=%year%" -w "Genre=%genre%" %source% %dest%


TOC of the extracted CD

Track | Start | Length | Start sector | End sector
––––––––––––––––––––––––––––-
1 | 0:00.37 | 3:55.53 | 37 | 17714
2 | 3:56.15 | 4:13.42 | 17715 | 36731
3 | 8:09.57 | 5:53.58 | 36732 | 63264
4 | 14:03.40 | 2:56.60 | 63265 | 76524
5 | 17:00.25 | 3:21.55 | 76525 | 91654
6 | 20:22.05 | 4:37.67 | 91655 | 112496
7 | 24:59.72 | 5:41.33 | 112497 | 138104
8 | 30:41.30 | 2:57.45 | 138105 | 151424


Range status and errors

Selected range

Filename G:\Rips by Alder\Cozy Powell - Octopuss [POCP-1813].wav

Peak level 92.6 %
Extraction speed 6.8 X
Range quality 100.0 %
Test CRC 6E075362
Copy CRC 6E075362
Copy OK

No errors occurred


AccurateRip summary

Track 1 accurately ripped (confidence 2) [5449B0C5] (AR v2)
Track 2 accurately ripped (confidence 2) [2BD58A80] (AR v2)
Track 3 accurately ripped (confidence 2) [17ED3BA6] (AR v2)
Track 4 accurately ripped (confidence 2) [AC390A36] (AR v2)
Track 5 accurately ripped (confidence 2) [B8812981] (AR v2)
Track 6 accurately ripped (confidence 2) [5A649E7F] (AR v2)
Track 7 accurately ripped (confidence 2) [909D9FA6] (AR v2)
Track 8 accurately ripped (confidence 2) [B15C4A78] (AR v2)

All tracks accurately ripped

End of status report

–– CUETools DB Plugin V2.1.6

[CTDB TOCID: _BfOtp9PMILO3VIAUZEuAhFqBIg-] found
Submit result: _BfOtp9PMILO3VIAUZEuAhFqBIg- has been confirmed
Track | CTDB Status
1 | (17/17) Accurately ripped
2 | (17/17) Accurately ripped
3 | (17/17) Accurately ripped
4 | (17/17) Accurately ripped
5 | (17/17) Accurately ripped
6 | (17/17) Accurately ripped
7 | (17/17) Accurately ripped
8 | (17/17) Accurately ripped


==== Log checksum ABE4377A496FB691F8EFEF02D06150FEC7B8AF8D73DCFBC4277B9E11919CF8A0 ====

[CUETools log; Date: 15.05.2019 11:51:57; Version: 2.1.6]
Pregap length 00:00:37.
[CTDB TOCID: _BfOtp9PMILO3VIAUZEuAhFqBIg-] found.
Track | CTDB Status
1 | (23/23) Accurately ripped
2 | (23/23) Accurately ripped
3 | (23/23) Accurately ripped
4 | (23/23) Accurately ripped
5 | (23/23) Accurately ripped
6 | (23/23) Accurately ripped
7 | (23/23) Accurately ripped
8 | (23/23) Accurately ripped
[AccurateRip ID: 000a7f54-0045fbb6-5307e308] found.
Track [ CRC | V2 ] Status
01 [b6b07615|5449b0c5] (0+3/3) Accurately ripped
02 [046b63ed|2bd58a80] (0+3/3) Accurately ripped
03 [f67682e3|17ed3ba6] (0+3/3) Accurately ripped
04 [4c9623be|ac390a36] (0+3/3) Accurately ripped
05 [17c12f56|b8812981] (0+3/3) Accurately ripped
06 [afcf256f|5a649e7f] (0+3/3) Accurately ripped
07 [76f03156|909d9fa6] (0+3/3) Accurately ripped
08 [b89fa368|b15c4a78] (0+3/3) Accurately ripped

Track Peak [ CRC32 ] [W/O NULL] [ LOG ]
– 92,6 [6E075362] [5431316D] CRC32
01 82,5 [A087B134] [8D016B5E]
02 82,7 [C67624D2] [436E982D]
03 89,7 [0D3C0C79] [171A708C]
04 92,6 [4259FC9D] [15AAD453]
05 83,3 [D6F19549] [1601B955]
06 90,2 [1079D992] [835BA5B6]
07 77,0 [89BA7111] [ADF1B048]
08 91,5 [3AD7E808] [932D6B69]

Cozy Powell - Octopuss (1983) {1990, Japan 1st Press} Repost / New Rip

All thanks go to Alder

>>> Cozy Powell in my Blog <<<

Download from icerbox.com: