Subcategories

Craig Erickson - Rare Tracks (2007) {Grooveyard}

Posted By: tiburon
Craig Erickson - Rare Tracks (2007) {Grooveyard}

Craig Erickson - Rare Tracks (2007) {Grooveyard}
EAC 1.0b1 | FLAC tracks level 8 | Cue+Log+M3U | Full Scans 600dpi | 531MB + 5% Recovery
Genre: Blues Rock

“Rare Tracks”, the latest disc by outstanding, world-class, blues/rock axeslinger Craig Erickson, features an intimate collection of awesome, rare “unreleased” home demo tracks by this amazing, gifted guitarist from Cedar Rapids, Iowa. Includes 14 tracks (77 minutes) of pure, stripped-down “Rare Tracks” recorded between (1989 - 2006) that range from deep, acoustic bluesy grooves to flat-out blues-based heavy guitar rockers.
Track List

01. Jammin' July 5:26
02. Rewind 5:59
03. Only Drifting 5:40
04. Away 5:28
05. Stones In My Pathway 4:43
06. River Blues 4:15
07. Tomorrow 4:54
08. Guitar/Bass Interplay 0:24
09. Overload 5:59
10. Jam For J 3:51
11. Down At The Bottom 6:39
12. Little Wing 5:32
13. Elliptical Galaxy 6:46
14. Below Zero Blues 11:38


Exact Audio Copy V1.0 beta 1 from 15. November 2010

EAC extraction logfile from 12. August 2011, 15:09

Craig Erickson / Rare Tracks

Used drive : HL-DT-STDVDRAM GH20NS10 Adapter: 2 ID: 1

Read mode : Secure
Utilize accurate stream : Yes
Defeat audio cache : Yes
Make use of C2 pointers : No

Read offset correction : 667
Overread into Lead-In and Lead-Out : No
Fill up missing offset samples with silence : Yes
Delete leading and trailing silent blocks : No
Null samples used in CRC calculations : Yes
Used interface : Native Win32 interface for Win NT & 2000
Gap handling : Appended to previous track

Used output format : User Defined Encoder
Selected bitrate : 1024 kBit/s
Quality : High
Add ID3 tag : No
Command line compressor : C:\Program Files\Exact Audio Copy\Flac\flac.exe
Additional command line options : -8 -V -T "ARTIST=%a" -T "TITLE=%t" -T "ALBUM=%g" -T "DATE=%y" -T "TRACKNUMBER=%n" -T "TOTALTRACKS=%x" -T "GENRE=%m" -T "ALBUMARTIST=%v" -T "ALBUM ARTIST=%v" -T "COMMENT=EAC Secure Mode, Test & Copy, AccurateRip, FLAC -8" %s


TOC of the extracted CD

Track | Start | Length | Start sector | End sector
––––––––––––––––––––––––––––-
1 | 0:00.00 | 5:26.69 | 0 | 24518
2 | 5:26.69 | 5:59.18 | 24519 | 51461
3 | 11:26.12 | 5:40.22 | 51462 | 76983
4 | 17:06.34 | 5:28.02 | 76984 | 101585
5 | 22:34.36 | 4:43.62 | 101586 | 122872
6 | 27:18.23 | 4:15.44 | 122873 | 142041
7 | 31:33.67 | 4:54.17 | 142042 | 164108
8 | 36:28.09 | 0:24.10 | 164109 | 165918
9 | 36:52.19 | 5:59.74 | 165919 | 192917
10 | 42:52.18 | 3:51.33 | 192918 | 210275
11 | 46:43.51 | 6:38.74 | 210276 | 240199
12 | 53:22.50 | 5:32.09 | 240200 | 265108
13 | 58:54.59 | 6:46.60 | 265109 | 295618
14 | 65:41.44 | 11:38.16 | 295619 | 347984


Track 1

Filename G:\Craig Erickson - Rare Tracks (2007) {Grooveyard}\01 - Jammin' July.wav

Pre-gap length 0:00:02.00

Peak level 98.8 %
Extraction speed 5.0 X
Track quality 100.0 %
Test CRC 5E01C45A
Copy CRC 5E01C45A
Accurately ripped (confidence 2) [FECA0BF6]
Copy OK

Track 2

Filename G:\Craig Erickson - Rare Tracks (2007) {Grooveyard}\02 - Rewind.wav

Peak level 98.8 %
Extraction speed 5.5 X
Track quality 100.0 %
Test CRC 5E2213A3
Copy CRC 5E2213A3
Accurately ripped (confidence 2) [5E97B84C]
Copy OK

Track 3

Filename G:\Craig Erickson - Rare Tracks (2007) {Grooveyard}\03 - Only Drifting.wav

Peak level 98.8 %
Extraction speed 5.9 X
Track quality 100.0 %
Test CRC 47352CE2
Copy CRC 47352CE2
Accurately ripped (confidence 2) [BEEEE606]
Copy OK

Track 4

Filename G:\Craig Erickson - Rare Tracks (2007) {Grooveyard}\04 - Away.wav

Peak level 98.8 %
Extraction speed 6.4 X
Track quality 100.0 %
Test CRC 6B569EBA
Copy CRC 6B569EBA
Accurately ripped (confidence 2) [9FA3C53F]
Copy OK

Track 5

Filename G:\Craig Erickson - Rare Tracks (2007) {Grooveyard}\05 - Stones In My Pathway.wav

Peak level 98.8 %
Extraction speed 6.6 X
Track quality 100.0 %
Test CRC D087DF81
Copy CRC D087DF81
Accurately ripped (confidence 2) [7EF46625]
Copy OK

Track 6

Filename G:\Craig Erickson - Rare Tracks (2007) {Grooveyard}\06 - River Blues.wav

Peak level 98.8 %
Extraction speed 6.8 X
Track quality 100.0 %
Test CRC 7856813D
Copy CRC 7856813D
Accurately ripped (confidence 2) [DF0C0DF7]
Copy OK

Track 7

Filename G:\Craig Erickson - Rare Tracks (2007) {Grooveyard}\07 - Tomorrow.wav

Peak level 98.8 %
Extraction speed 7.3 X
Track quality 100.0 %
Test CRC E0292646
Copy CRC E0292646
Track not present in AccurateRip database
Copy OK

Track 8

Filename G:\Craig Erickson - Rare Tracks (2007) {Grooveyard}\08 - Guitar Bass Interplay.wav

Peak level 98.8 %
Extraction speed 2.8 X
Track quality 100.0 %
Test CRC 2B29135A
Copy CRC 2B29135A
Accurately ripped (confidence 2) [6A5DDE0F]
Copy OK

Track 9

Filename G:\Craig Erickson - Rare Tracks (2007) {Grooveyard}\09 - Overload.wav

Peak level 98.8 %
Extraction speed 7.8 X
Track quality 100.0 %
Test CRC 17DEA5B7
Copy CRC 17DEA5B7
Track not present in AccurateRip database
Copy OK

Track 10

Filename G:\Craig Erickson - Rare Tracks (2007) {Grooveyard}\10 - Jam For J.wav

Peak level 98.8 %
Extraction speed 6.2 X
Track quality 99.9 %
Test CRC E5F1EBED
Copy CRC E5F1EBED
Track not present in AccurateRip database
Copy OK

Track 11

Filename G:\Craig Erickson - Rare Tracks (2007) {Grooveyard}\11 - Down At The Bottom.wav

Peak level 98.8 %
Extraction speed 8.4 X
Track quality 100.0 %
Test CRC 0288B74D
Copy CRC 0288B74D
Track not present in AccurateRip database
Copy OK

Track 12

Filename G:\Craig Erickson - Rare Tracks (2007) {Grooveyard}\12 - Little Wing.wav

Peak level 98.8 %
Extraction speed 8.6 X
Track quality 100.0 %
Test CRC 648A484B
Copy CRC 648A484B
Track not present in AccurateRip database
Copy OK

Track 13

Filename G:\Craig Erickson - Rare Tracks (2007) {Grooveyard}\13 - Elliptical Galaxy.wav

Peak level 98.8 %
Extraction speed 9.0 X
Track quality 100.0 %
Test CRC 79904060
Copy CRC 79904060
Track not present in AccurateRip database
Copy OK

Track 14

Filename G:\Craig Erickson - Rare Tracks (2007) {Grooveyard}\14 - Below Zero Blues.wav

Peak level 100.0 %
Extraction speed 9.7 X
Track quality 100.0 %
Test CRC 2E970813
Copy CRC 2E970813
Track not present in AccurateRip database
Copy OK


7 track(s) accurately ripped
7 track(s) not present in the AccurateRip database

Some tracks could not be verified as accurate

No errors occurred

End of status report

==== Log checksum 98B54B331D56F288E0D9FBAC0184C6CD21B82EB05CBA90E8974D104D4639D0E4 ====
Craig Erickson - Rare Tracks (2007) {Grooveyard}
Craig Erickson - Rare Tracks (2007) {Grooveyard}




The Files Are Interchangeable

Rip by tiburon

Visit My Blog