Creedence Clearwater Revival - Creedence Clearwater Revival (1989)

Posted By: v3122
Creedence Clearwater Revival - Creedence Clearwater Revival (1989)

Creedence Clearwater Revival - Creedence Clearwater Revival (1989)
EAC | Flac(Image) + Cue + Log & MP3 CBR 320Kbps
Time Life Music, 2-CLR-18 | ~ 415 or 165 Mb | Scans(png) -> 120 Mb
Blues Rock, Southern Rock, Classic Rock

For a group that was essentially inactive from 1972 on, Creedence Clearwater Revival had more than their share of sales revivals, mostly courtesy of Fantasy Records' periodic reissues and their attendant marketing campaigns, most notably with Chronicle (1976) and its follow-up, Chronicle, Vol. 2 (1986), and the various re-compilations and assembly of albums (plus the release of The Concert) between and around them. But Time Life also got into the act during the late '90s, and showed that even though they were limited to what Fantasy would let them have under license, they could do a better – or, at least, a more interesting – job. The 23 songs on this single CD/double-LP package are drawn equally from singles and notable album tracks, with the result that one gets a much fuller picture of the group's overall output than one would by listening to either volume of Chronicle – in addition to obvious single touchstones such as "Proud Mary" and "Bad Moon Rising," listeners also get more daring, subtle, and complex album cuts like "It Came Out of the Sky" and "Cross-Tie Walker." The sound is very good as well, Time Life being as much a stickler as Rhino Records for getting access to first-generation masters and making the most of them with whatever technology happens to be available at that moment in history – though in honesty, the 20-bit K2 remasterings issued by Fantasy more than a decade later do run circles around the sound on this or any other older compilation. In terms of content, however, this is a very handy compilation of their best work in both idioms, single and long-play, and a great way to start listening to Creedence Clearwater Revival or skim over their most enduring music, assuming one wishes to do that rather than just plunge into it.

by Bruce Eder, AMG
Creedence Clearwater Revival - Creedence Clearwater Revival (1989)


Creedence Clearwater Revival - Creedence Clearwater Revival (1989):

Creedence Clearwater Revival - Creedence Clearwater Revival (1989)

Tracklist:

01. Proud Mary
02. Born On The Bayou
03. Down On The Corner
04. Travelin' Band
05. Bad Moon Rising
06. Who'll Stop The Rain
07. Fortunate Son
08. Green River
09. It Came Out Of The Sky
10. Run Through The Jungle
11. Lookin' Out My Back Door
12. Long As I Can See The Light
13. Up Around The Bend
14. Lodi
15. The Midnight Special
16. Bootleg
17. Don't Look Now
18. Have You Ever Seen The Rain
19. Hey Tonight
20. Cross-Tie Walker
21. Sweet Hitch-Hiker
22. Someday Never Comes
23. (Wish I Could) Hideaway

Exact Audio Copy V1.1 from 23. June 2015

EAC extraction logfile from 1. January 2016, 17:07

Creedence Clearwater Revival / Creedence Clearwater Revival

Used drive : SONY BD RW BDX-S600U Adapter: 1 ID: 2

Read mode : Secure
Utilize accurate stream : Yes
Defeat audio cache : Yes
Make use of C2 pointers : No

Read offset correction : 48
Overread into Lead-In and Lead-Out : No
Fill up missing offset samples with silence : Yes
Delete leading and trailing silent blocks : No
Null samples used in CRC calculations : Yes
Used interface : Native Win32 interface for Win NT & 2000

Used output format : User Defined Encoder
Selected bitrate : 768 kBit/s
Quality : High
Add ID3 tag : No
Command line compressor : C:\Program Files (x86)\Exact Audio Copy\FLAC\FLAC.EXE
Additional command line options : -6 -V -T "ARTIST=%artist%" -T "TITLE=%title%" -T "ALBUM=%albumtitle%" -T "DATE=%year%" -T "TRACKNUMBER=%tracknr%" -T "GENRE=%genre%" -T "COMMENT=%comment%" -T "BAND=%albuminterpret%" -T "ALBUMARTIST=%albuminterpret%" -T "COMPOSER=%composer%" %haslyrics%–tag-from-file=LYRICS="%lyricsfile%"%haslyrics% -T "DISCNUMBER=%cdnumber%" -T "TOTALDISCS=%totalcds%" -T "TOTALTRACKS=%numtracks%" %hascover%–picture="%coverfile%"%hascover% %source% -o %dest%


TOC of the extracted CD

Track | Start | Length | Start sector | End sector
––––––––––––––––––––––––––––-
1 | 0:00.33 | 3:08.42 | 33 | 14174
2 | 3:09.00 | 5:14.63 | 14175 | 37787
3 | 8:23.63 | 2:46.35 | 37788 | 50272
4 | 11:10.23 | 2:09.17 | 50273 | 59964
5 | 13:19.40 | 2:20.53 | 59965 | 70517
6 | 15:40.18 | 2:29.57 | 70518 | 81749
7 | 18:10.00 | 2:19.73 | 81750 | 92247
8 | 20:29.73 | 2:34.15 | 92248 | 103812
9 | 23:04.13 | 2:55.17 | 103813 | 116954
10 | 25:59.30 | 3:05.50 | 116955 | 130879
11 | 29:05.05 | 2:32.65 | 130880 | 142344
12 | 31:37.70 | 3:34.05 | 142345 | 158399
13 | 35:12.00 | 2:42.45 | 158400 | 170594
14 | 37:54.45 | 3:11.33 | 170595 | 184952
15 | 41:06.03 | 4:13.72 | 184953 | 203999
16 | 45:20.00 | 3:01.70 | 204000 | 217644
17 | 48:21.70 | 2:11.60 | 217645 | 227529
18 | 50:33.55 | 2:40.33 | 227530 | 239562
19 | 53:14.13 | 2:41.60 | 239563 | 251697
20 | 55:55.73 | 3:17.55 | 251698 | 266527
21 | 59:13.53 | 2:55.37 | 266528 | 279689
22 | 62:09.15 | 4:00.48 | 279690 | 297737
23 | 66:09.63 | 3:45.07 | 297738 | 314619


Range status and errors

Selected range

Filename D:\CREEDE~1\COMPIL~1\1989~1.CRE\1989~1.CRE\Creedence Clearwater Revival - Creedence Clearwater Revival.wav

Peak level 100.0 %
Extraction speed 6.9 X
Range quality 100.0 %
Test CRC 4E476F44
Copy CRC 4E476F44
Copy OK

No errors occurred


AccurateRip summary

Track 1 accurately ripped (confidence 7) [AB448605] (AR v2)
Track 2 accurately ripped (confidence 7) [F538E762] (AR v2)
Track 3 accurately ripped (confidence 8) [E121F1C4] (AR v2)
Track 4 accurately ripped (confidence 8) [6C575B35] (AR v2)
Track 5 accurately ripped (confidence 8) [843E99AD] (AR v2)
Track 6 accurately ripped (confidence 8) [B8DD8EB3] (AR v2)
Track 7 accurately ripped (confidence 8) [1FF4E780] (AR v2)
Track 8 accurately ripped (confidence 8) [99E28EF9] (AR v2)
Track 9 accurately ripped (confidence 8) [3E722DE7] (AR v2)
Track 10 accurately ripped (confidence 8) [69B46854] (AR v2)
Track 11 accurately ripped (confidence 8) [813A2352] (AR v2)
Track 12 accurately ripped (confidence 8) [A58DBC52] (AR v2)
Track 13 accurately ripped (confidence 8) [08376AAF] (AR v2)
Track 14 accurately ripped (confidence 8) [CEE292C3] (AR v2)
Track 15 accurately ripped (confidence 8) [E58359D7] (AR v2)
Track 16 accurately ripped (confidence 8) [82C3ED27] (AR v2)
Track 17 accurately ripped (confidence 8) [D139C68C] (AR v2)
Track 18 accurately ripped (confidence 8) [6D107738] (AR v2)
Track 19 accurately ripped (confidence 7) [BD154191] (AR v2)
Track 20 accurately ripped (confidence 7) [2394339F] (AR v2)
Track 21 accurately ripped (confidence 7) [5A68F768] (AR v2)
Track 22 accurately ripped (confidence 8) [0F836A19] (AR v2)
Track 23 accurately ripped (confidence 7) [78325934] (AR v2)

All tracks accurately ripped

End of status report

==== Log checksum B01995CECB459D46A4F9360B991FF1044A404422B287675CA74D6F1DF192D838 ====

foobar2000 1.2.9 / Dynamic Range Meter 1.1.1
log date: 2016-01-06 07:46:15

––––––––––––––––––––––––––––––––––––––––
Analyzed: Creedence Clearwater Revival / Creedence Clearwater Revival
––––––––––––––––––––––––––––––––––––––––

DR Peak RMS Duration Track
––––––––––––––––––––––––––––––––––––––––
DR14 -3.56 dB -19.77 dB 3:09 01-Proud Mary
DR15 -1.03 dB -19.25 dB 5:15 02-Born On The Bayou
DR14 -2.77 dB -20.12 dB 2:46 03-Down On The Corner
DR14 -1.73 dB -18.08 dB 2:09 04-Travelin' Band
DR14 -3.48 dB -19.02 dB 2:21 05-Bad Moon Rising
DR14 -2.48 dB -20.01 dB 2:30 06-Who'll Stop The Rain
DR13 -4.03 dB -19.14 dB 2:20 07-Fortunate Son
DR14 -4.12 dB -20.04 dB 2:34 08-Green River
DR13 -4.32 dB -19.32 dB 2:55 09-It Came Out Of The Sky
DR13 -4.14 dB -19.98 dB 3:06 10-Run Through The Jungle
DR14 -3.72 dB -20.33 dB 2:33 11-Lookin' Out My Back Door
DR14 -3.37 dB -20.82 dB 3:34 12-Long As I Can See The Light
DR13 -4.52 dB -19.19 dB 2:43 13-Up Around The Bend
DR15 -2.33 dB -19.90 dB 3:11 14-Lodi
DR14 -2.70 dB -20.11 dB 4:14 15-The Midnight Special
DR15 0.00 dB -19.43 dB 3:02 16-Bootleg
DR13 -4.62 dB -20.02 dB 2:12 17-Don't Look Now
DR14 -2.81 dB -19.25 dB 2:40 18-Have You Ever Seen The Rain
DR14 -2.81 dB -19.91 dB 2:42 19-Hey Tonight
DR15 -0.41 dB -19.64 dB 3:18 20-Cross-Tie Walker
DR13 -3.80 dB -19.61 dB 2:55 21-Sweet Hitch-Hiker
DR15 -0.96 dB -20.34 dB 4:01 22-Someday Never Comes
DR14 -2.99 dB -19.84 dB 3:45 23-(Wish I Could) Hideaway
––––––––––––––––––––––––––––––––––––––––

Number of tracks: 23
Official DR value: DR14

Samplerate: 44100 Hz
Channels: 2
Bits per sample: 16
Bitrate: 790 kbps
Codec: FLAC

[CUETools log; Date: 06.01.2016 7:41:19; Version: 2.1.4]
Pregap length 00:00:33.
[CTDB TOCID: TMzIt6VheduoeHON.wc9q_NNkv4-] found.
Track | CTDB Status
1 | (1/1) Accurately ripped
2 | (1/1) Accurately ripped
3 | (1/1) Accurately ripped
4 | (1/1) Accurately ripped
5 | (1/1) Accurately ripped
6 | (1/1) Accurately ripped
7 | (1/1) Accurately ripped
8 | (1/1) Accurately ripped
9 | (1/1) Accurately ripped
10 | (1/1) Accurately ripped
11 | (1/1) Accurately ripped
12 | (1/1) Accurately ripped
13 | (1/1) Accurately ripped
14 | (1/1) Accurately ripped
15 | (1/1) Accurately ripped
16 | (1/1) Accurately ripped
17 | (1/1) Accurately ripped
18 | (1/1) Accurately ripped
19 | (1/1) Accurately ripped
20 | (1/1) Accurately ripped
21 | (1/1) Accurately ripped
22 | (1/1) Accurately ripped
23 | (1/1) Accurately ripped
[AccurateRip ID: 0038aaa7-03ac9c1a-4b106217] found.
Track [ CRC | V2 ] Status
01 [d5a0ecef|ab448605] (06+07/13) Accurately ripped
02 [918c1f64|f538e762] (06+07/13) Accurately ripped
03 [b66fb30c|e121f1c4] (07+08/15) Accurately ripped
04 [a03bdaa4|6c575b35] (07+08/15) Accurately ripped
05 [1bc932fa|843e99ad] (07+08/15) Accurately ripped
06 [59784b94|b8dd8eb3] (07+08/15) Accurately ripped
07 [588e5b3c|1ff4e780] (07+08/15) Accurately ripped
08 [2ccdb77c|99e28ef9] (07+08/15) Accurately ripped
09 [fee86279|3e722de7] (07+08/15) Accurately ripped
10 [f1ace300|69b46854] (07+08/15) Accurately ripped
11 [0659f364|813a2352] (07+08/15) Accurately ripped
12 [a6f7703b|a58dbc52] (07+08/15) Accurately ripped
13 [bed12774|08376aaf] (07+08/15) Accurately ripped
14 [ce07de6f|cee292c3] (07+08/15) Accurately ripped
15 [c8c16a16|e58359d7] (07+08/15) Accurately ripped
16 [7a910e92|82c3ed27] (07+08/15) Accurately ripped
17 [71cb3c53|d139c68c] (07+08/15) Accurately ripped
18 [fff1c17b|6d107738] (06+08/14) Accurately ripped
19 [7a86eaa1|bd154191] (07+07/14) Accurately ripped
20 [2f0b3dca|2394339f] (07+07/14) Accurately ripped
21 [cbb09163|5a68f768] (06+07/13) Accurately ripped
22 [5a3a234a|0f836a19] (06+08/14) Accurately ripped
23 [86e9807d|78325934] (08+07/15) Accurately ripped

Track Peak [ CRC32 ] [W/O NULL] [ LOG ]
– 100,0 [4E476F44] [DE9D6E8C] CRC32
01 66,3 [A5BA302B] [95C70D43]
02 88,8 [BEA68C64] [B3682D1F]
03 72,7 [E3F64FFA] [07E35816]
04 81,9 [50E93E40] [B8E9EE07]
05 67,0 [BB0A231A] [055C5C1F]
06 75,1 [05282E94] [FBAEC0D4]
07 62,9 [D39B5D84] [15958DBD]
08 62,2 [C97E66F1] [D456BA57]
09 60,7 [515C6D20] [72B421F0]
10 62,1 [24771FAC] [2748B4F1]
11 65,1 [FD833AF7] [15B5F780]
12 67,8 [784BF970] [6BE3B25B]
13 59,4 [0E21929D] [6B60DFDA]
14 76,4 [2CE1CBFF] [6EB022F2]
15 73,3 [8345DE22] [48F72A27]
16 100,0 [FEFC1DEB] [0FD44B85]
17 58,7 [4F46CEB4] [C47130D2]
18 72,3 [EC414FA1] [2729B611]
19 72,3 [9669A940] [0792FE53]
20 95,4 [14B041BE] [0172A9CA]
21 64,5 [7A9F8684] [5B60119C]
22 89,5 [5E625D43] [F92B44F7]
23 70,8 [D909F2D2] [D58ABCA5]

Creedence Clearwater Revival - Creedence Clearwater Revival (1989)

All thanks go to alonzo

Creedence Clearwater Revival in my Blog

Download Creedence Clearwater Revival - Creedence Clearwater Revival (1989):