Subcategories

Creedence Clearwater Revival - Covers the Classics (2009)

Posted By: v3122
Creedence Clearwater Revival - Covers the Classics (2009)

Creedence Clearwater Revival - Covers the Classics (2009)
EAC | Flac(Image) + Cue + Log & MP3 CBR 320Kbps
Fantasy, 0888072314221 | ~ 273 or 103 Mb | Scans Included
Blues Rock, Southern Rock, Classic Rock

Creedence Clearwater Revival Covers the Classics is a compilation album by Creedence Clearwater Revival. Released in 2009, the album contains cover versions of songs as recorded by the band…

~ wiki
Creedence Clearwater Revival - Covers the Classics (2009)


Creedence Clearwater Revival - Covers the Classics (2009):

Creedence Clearwater Revival - Covers the Classics (2009)

Tracklist:

01. Good Golly Miss Molly (02:42)
02. I Heard It Through The Grapevine (Single Edit) (03:54)
03. Hello Mary Lou (02:13)
04. Susie Q (Single Edit) (04:35)
05. The Midnight Special (04:13)
06. Ooby Dooby (02:07)
07. The Night Time Is The Right Time (03:09)
08. Cotton Fields (02:56)
09. Ninety-Nine And A Half (03:38)
10. Before You Accuse Me (03:27)
11. My Baby Left Me (02:19)
12. I Put A Spell On You (04:32)

Converted to Image (CUETools 2.1.4)

Exact Audio Copy V1.0 beta 3 from 29. August 2011

EAC extraction logfile from 30. November 2011, 23:01

Creedence Clearwater Revival / Covers the Classics

Used drive : _NEC DVD_RW ND-3520A Adapter: 0 ID: 0

Read mode : Secure
Utilize accurate stream : Yes
Defeat audio cache : Yes
Make use of C2 pointers : No

Read offset correction : 48
Overread into Lead-In and Lead-Out : No
Fill up missing offset samples with silence : Yes
Delete leading and trailing silent blocks : No
Null samples used in CRC calculations : Yes
Used interface : Native Win32 interface for Win NT & 2000
Gap handling : Appended to previous track

Used output format : User Defined Encoder
Selected bitrate : 1024 kBit/s
Quality : High
Add ID3 tag : No
Command line compressor : C:\Program Files\Exact Audio Copy\FLAC\FLAC.EXE
Additional command line options : -8 -V -T "ARTIST=%artist%" -T "TITLE=%title%" -T "ALBUM=%albumtitle%" -T "DATE=%year%" -T "TRACKNUMBER=%tracknr%" -T "TOTALTRACKS=%numtracks%" -T "GENRE=%genre%" -T "ALBUMARTIST=%albumartist%" -T "ALBUM ARTIST=%albumartist%" -T "COMMENT=EAC Secure Mode, Test & Copy, AccurateRip, FLAC -8" %source%


TOC of the extracted CD

Track | Start | Length | Start sector | End sector
––––––––––––––––––––––––––––-
1 | 0:00.00 | 2:43.13 | 0 | 12237
2 | 2:43.13 | 3:53.57 | 12238 | 29769
3 | 6:36.70 | 2:14.50 | 29770 | 39869
4 | 8:51.45 | 4:35.63 | 39870 | 60557
5 | 13:27.33 | 4:13.55 | 60558 | 79587
6 | 17:41.13 | 2:07.65 | 79588 | 89177
7 | 19:49.03 | 3:09.24 | 89178 | 103376
8 | 22:58.27 | 2:57.04 | 103377 | 116655
9 | 25:55.31 | 3:38.50 | 116656 | 133055
10 | 29:34.06 | 3:28.20 | 133056 | 148675
11 | 33:02.26 | 2:19.59 | 148676 | 159159
12 | 35:22.10 | 4:31.59 | 159160 | 179543


Track 1

Filename K:\EACrips6\Creedence Clearwater Revival - Covers the Classics (2009) [FLAC]\01 - Good Golly Miss Molly.wav

Pre-gap length 0:00:02.00

Peak level 98.8 %
Extraction speed 3.4 X
Track quality 100.0 %
Test CRC F42CE0D3
Copy CRC F42CE0D3
Accurately ripped (confidence 1) [18164F2D] (AR v1)
Copy OK

Track 2

Filename K:\EACrips6\Creedence Clearwater Revival - Covers the Classics (2009) [FLAC]\02 - I Heard It Through the Grapevine.wav

Pre-gap length 0:00:01.74

Peak level 97.2 %
Extraction speed 3.9 X
Track quality 100.0 %
Test CRC 98F6CCED
Copy CRC 98F6CCED
Accurately ripped (confidence 1) [36DA4A68] (AR v1)
Copy OK

Track 3

Filename K:\EACrips6\Creedence Clearwater Revival - Covers the Classics (2009) [FLAC]\03 - Hello Mary Lou.wav

Pre-gap length 0:00:01.74

Peak level 98.8 %
Extraction speed 3.8 X
Track quality 100.0 %
Test CRC 862B9F6A
Copy CRC 862B9F6A
Accurately ripped (confidence 1) [CE533F82] (AR v1)
Copy OK

Track 4

Filename K:\EACrips6\Creedence Clearwater Revival - Covers the Classics (2009) [FLAC]\04 - Susie Q.wav

Pre-gap length 0:00:01.74

Peak level 100.0 %
Extraction speed 4.6 X
Track quality 100.0 %
Test CRC 62B7C535
Copy CRC 62B7C535
Accurately ripped (confidence 1) [F7515C57] (AR v1)
Copy OK

Track 5

Filename K:\EACrips6\Creedence Clearwater Revival - Covers the Classics (2009) [FLAC]\05 - The Midnight Special.wav

Pre-gap length 0:00:01.74

Peak level 98.8 %
Extraction speed 4.9 X
Track quality 100.0 %
Test CRC A64E749F
Copy CRC A64E749F
Accurately ripped (confidence 2) [09CD3698] (AR v1)
Copy OK

Track 6

Filename K:\EACrips6\Creedence Clearwater Revival - Covers the Classics (2009) [FLAC]\06 - Ooby Dooby.wav

Pre-gap length 0:00:01.74

Peak level 98.8 %
Extraction speed 4.5 X
Track quality 100.0 %
Test CRC B692323E
Copy CRC B692323E
Accurately ripped (confidence 1) [474DF4D6] (AR v1)
Copy OK

Track 7

Filename K:\EACrips6\Creedence Clearwater Revival - Covers the Classics (2009) [FLAC]\07 - The Night Time Is the Right Time.wav

Pre-gap length 0:00:01.74

Peak level 98.8 %
Extraction speed 5.1 X
Track quality 100.0 %
Test CRC 71D5D9E7
Copy CRC 71D5D9E7
Accurately ripped (confidence 1) [EC969BD6] (AR v1)
Copy OK

Track 8

Filename K:\EACrips6\Creedence Clearwater Revival - Covers the Classics (2009) [FLAC]\08 - Cotton Fields.wav

Pre-gap length 0:00:01.73

Peak level 98.8 %
Extraction speed 5.2 X
Track quality 100.0 %
Test CRC 768CB9CE
Copy CRC 768CB9CE
Accurately ripped (confidence 1) [A28DE637] (AR v1)
Copy OK

Track 9

Filename K:\EACrips6\Creedence Clearwater Revival - Covers the Classics (2009) [FLAC]\09 - Ninety-Nine and a Half.wav

Pre-gap length 0:00:01.74

Peak level 98.8 %
Extraction speed 5.6 X
Track quality 100.0 %
Test CRC E841CDEE
Copy CRC E841CDEE
Accurately ripped (confidence 1) [4E6B1068] (AR v1)
Copy OK

Track 10

Filename K:\EACrips6\Creedence Clearwater Revival - Covers the Classics (2009) [FLAC]\10 - Before You Accuse Me.wav

Pre-gap length 0:00:01.74

Peak level 98.8 %
Extraction speed 5.7 X
Track quality 100.0 %
Test CRC EA4C2D5C
Copy CRC EA4C2D5C
Accurately ripped (confidence 1) [C8B61BCB] (AR v1)
Copy OK

Track 11

Filename K:\EACrips6\Creedence Clearwater Revival - Covers the Classics (2009) [FLAC]\11 - My Baby Left Me.wav

Pre-gap length 0:00:01.74

Peak level 98.8 %
Extraction speed 4.1 X
Track quality 99.9 %
Test CRC FF935E76
Copy CRC FF935E76
Accurately ripped (confidence 1) [B66CBF0B] (AR v1)
Copy OK

Track 12

Filename K:\EACrips6\Creedence Clearwater Revival - Covers the Classics (2009) [FLAC]\12 - I Put a Spell on You.wav

Pre-gap length 0:00:01.74

Peak level 98.8 %
Extraction speed 6.3 X
Track quality 100.0 %
Test CRC F861F67D
Copy CRC F861F67D
Accurately ripped (confidence 1) [686F96D4] (AR v1)
Copy OK


All tracks accurately ripped

No errors occurred

End of status report

–– CUETools DB Plugin V2.1.3

[CTDB TOCID: avzBluWct2CkbufXl7U6Pb7Awxs-] disk not present in database, Submit result: avzBluWct2CkbufXl7U6Pb7Awxs- has been uploaded


==== Log checksum EC94FE75CC724C55164D3485E0A74D10E013DE86A943FE5E60D78AF8CD6D0769 ====

foobar2000 1.2.9 / Dynamic Range Meter 1.1.1
log date: 2016-05-15 11:09:15

––––––––––––––––––––––––––––––––––––––––
Analyzed: Creedence Clearwater Revival / Covers the Classics
––––––––––––––––––––––––––––––––––––––––

DR Peak RMS Duration Track
––––––––––––––––––––––––––––––––––––––––
DR10 -0.10 dB -11.26 dB 2:43 01-Good Golly Miss Molly
DR10 -0.24 dB -12.02 dB 3:54 02-I Heard It Through the Grapevine
DR9 -0.10 dB -10.87 dB 2:15 03-Hello Mary Lou
DR10 0.00 dB -12.05 dB 4:36 04-Susie Q
DR11 -0.10 dB -12.42 dB 4:14 05-The Midnight Special
DR9 -0.10 dB -10.81 dB 2:08 06-Ooby Dooby
DR9 -0.10 dB -10.89 dB 3:09 07-The Night Time Is the Right Time
DR9 -0.10 dB -11.23 dB 2:57 08-Cotton Fields
DR9 -0.10 dB -9.93 dB 3:39 09-Ninety-Nine and a Half
DR10 -0.10 dB -11.71 dB 3:28 10-Before You Accuse Me
DR9 -0.10 dB -10.74 dB 2:20 11-My Baby Left Me
DR9 -0.10 dB -10.39 dB 4:32 12-I Put a Spell on You
––––––––––––––––––––––––––––––––––––––––

Number of tracks: 12
Official DR value: DR10

Samplerate: 44100 Hz
Channels: 2
Bits per sample: 16
Bitrate: 911 kbps
Codec: FLAC

[CUETools log; Date: 14.05.2016 16:35:29; Version: 2.1.4]
[AccurateRip ID: 001192b7-00a441c3-a609590c] found.
Track [ CRC | V2 ] Status
01 [18164f2d|bfea3fa1] (2+6/8) Accurately ripped
02 [36da4a68|8bea5c90] (2+6/8) Accurately ripped
03 [ce533f82|5bd6436b] (2+6/8) Accurately ripped
04 [f7515c57|a40849f0] (2+6/8) Accurately ripped
05 [09cd3698|47ab87dc] (3+6/9) Accurately ripped
06 [474df4d6|8d4533e7] (2+6/8) Accurately ripped
07 [ec969bd6|93fd879d] (2+6/8) Accurately ripped
08 [a28de637|694c76bb] (2+6/8) Accurately ripped
09 [4e6b1068|c554671c] (2+6/8) Accurately ripped
10 [c8b61bcb|6e06f30a] (2+6/8) Accurately ripped
11 [b66cbf0b|e69a78d4] (2+6/8) Accurately ripped
12 [686f96d4|77fc65fa] (2+6/8) Accurately ripped

Track Peak [ CRC32 ] [W/O NULL] [ LOG ]
– 100,0 [0A4105C5] [1C30C295]
01 98,8 [F42CE0D3] [7D761A14] CRC32
02 97,2 [98F6CCED] [24D32740] CRC32
03 98,8 [862B9F6A] [BEDBBC1F] CRC32
04 100,0 [62B7C535] [9C49E110] CRC32
05 98,8 [A64E749F] [95925862] CRC32
06 98,8 [B692323E] [7CF4C386] CRC32
07 98,8 [71D5D9E7] [6DF666F2] CRC32
08 98,8 [768CB9CE] [489CED4F] CRC32
09 98,8 [E841CDEE] [0BE7A41A] CRC32
10 98,8 [EA4C2D5C] [099FCA10] CRC32
11 98,8 [FF935E76] [6021334C] CRC32
12 98,8 [F861F67D] [ECEA3965] CRC32

Creedence Clearwater Revival - Covers the Classics (2009)

All thanks go to the original releaser

Creedence Clearwater Revival in my Blog

Download Creedence Clearwater Revival - Covers the Classics (2009):