Subcategories

Crosby, Stills, Nash & Young - Deja Vu Live (2006) REPOST

Posted By: uff
Crosby, Stills, Nash & Young - Deja Vu Live (2006) REPOST

Crosby, Stills, Nash & Young - Deja Vu Live (2006)
rock | 1cd | Eac Rip | Flac + Cue + Log | covers
Reprise 2008 | HDCD | 470mb

Based on the title, it's hard not to think that Déjà Vu Live finds Crosby, Stills, Nash & Young reaching back into their past, perhaps even performing their classic 1970 album in its entirety. That's not true, although there is an album that comes close to being performed in its entirety here, and that's Neil Young's 2006 political manifesto Living with War, a controversial record that Young supported by re-teaming with CSN for a tour – a tour that was documented in the Young-directed feature documentary Déjà Vu Live. Got that? It's a series of circumstances a bit too confusing for music that's so straightforward, as the Living with War tour was as direct as the album itself. Direct, yes, but it also was a bit softer than the record, as it was bathed in the warm glow of the reunion of Young with CSN, whose presence helps Young's songs seem elegiac instead of bitter. There's no disguising what this is: this is a set of aging hippies lamenting the way things are now by connecting to who they were back then, reuniting for the new songs and mixing up relevant older ones – including, yes, the warhorses "For What It's Worth" and "Teach Your Children" – to provide a bridge to the past. CSNY don't run from their age, as they can't escape it: some voices have grown gravelly, the harmonies are shakier, there isn't quite as much muscle to the guitar. But by not running from these signs of age, CSNY wind up with a live album that has a bit of resonance, as when it's contrasted with the rangy, restless 4 Way Street, it's hard not to be a little moved and marvel that the bandmembers feel so comfortable here, especially considering their tortured history. This winds up being the overarching impression left by Déjà Vu Live, as despite the topicality of the set list, Déjà Vu Live feels curiously isolated; there may have been controversy on the tour, all chronicled on Young's film, but it doesn't feel engaged with the culture at large, which could be a side effect of the digital dislocation of the 21st century, or it could be a sign that CSNY are growing older and simply don't stir things up the way they did back then. But for those who are listening, their message has resonance – and so does the music, as this live record winds up being a nice understated grace note to their tumultuous career.

Tracks:
1. "What Are Their Names?" (David Crosby) – 2:28
2. "Living with War - theme" (Neil Young) – 3:25
3. "After the Garden" (Young) – 3:41
4. "Military Madness" (Graham Nash) – 4:02
5. "Let's Impeach the President" (Young) – 5:43
6. "Déjà Vu" (Crosby) – 7:15
7. "Shock and Awe" (Young) – 5:08
8. "Families" (Neil Young) – 2:58
9. "Wooden Ships" (Crosby, Paul Kantner, Stills) – 8:18
10. "Looking for a Leader" (Young) – 3:55
11. "For What It's Worth" (Stills, Richard Furay) – 4:50
12. "Living with War" (Young) – 5:24
13. "Roger and Out" (Young) – 5:37
14. "Find the Cost of Freedom" (Stills) – 3:55
15. "Teach Your Children" (Nash) – 3:20
16. "Living with War - theme [reprise]" (Young) – 3:01

Personnel
Crosby, Stills, Nash & Young
* David Crosby – rhythm guitar, vocals
* Stephen Stills – lead and rhythm guitar, keyboard, vocals
* Graham Nash – rhythm guitar, piano, vocals
* Neil Young – lead and rhythm guitar, piano, vocals
Additional personnel
* Rick Rosas – bass
* Chad Cromwell – drums
* Spooner Oldham – keyboards
* Ben Keith – pedal steel
* Tom Bray – trumpet

Exact Audio Copy V0.99 prebeta 3 from 28. July 2007

EAC extraction logfile from 24. July 2008, 16:48

Crosby,Stills,Nash & Young / Deja Vu Live

Used drive : _NEC DVD_RW ND-3500AG Adapter: 0 ID: 2

Read mode : Secure
Utilize accurate stream : Yes
Defeat audio cache : Yes
Make use of C2 pointers : No

Read offset correction : 48
Overread into Lead-In and Lead-Out : No
Fill up missing offset samples with silence : Yes
Delete leading and trailing silent blocks : No
Null samples used in CRC calculations : Yes
Used interface : Installed external ASPI interface

Used output format : Internal WAV Routines
Sample format : 44.100 Hz; 16 Bit; Stereo


TOC of the extracted CD

Track | Start | Length | Start sector | End sector
––––––––––––––––––––––––––––-
1 | 0:00.00 | 2:28.53 | 0 | 11152
2 | 2:28.53 | 3:25.27 | 11153 | 26554
3 | 5:54.05 | 3:41.70 | 26555 | 43199
4 | 9:36.00 | 4:02.10 | 43200 | 61359
5 | 13:38.10 | 5:43.40 | 61360 | 87124
6 | 19:21.50 | 7:15.20 | 87125 | 119769
7 | 26:36.70 | 5:08.51 | 119770 | 142920
8 | 31:45.46 | 2:58.02 | 142921 | 156272
9 | 34:43.48 | 8:18.22 | 156273 | 193644
10 | 43:01.70 | 3:55.43 | 193645 | 211312
11 | 46:57.38 | 4:50.07 | 211313 | 233069
12 | 51:47.45 | 5:24.54 | 233070 | 257423
13 | 57:12.24 | 5:37.35 | 257424 | 282733
14 | 62:49.59 | 3:55.38 | 282734 | 300396
15 | 66:45.22 | 3:20.43 | 300397 | 315439
16 | 70:05.65 | 3:01.14 | 315440 | 329028


Range status and errors

Selected range

Filename K:\CSN&Y\Crosby,Stills,Nash & Young - Deja Vu Live.wav

Peak level 98.3 %
Range quality 100.0 %
Copy CRC 4C848FF1
Copy OK

No errors occurred

End of status report


[CUETools log; Date: 2013.01.22. 11:16:58; Version: 2.1.4]
HDCD: peak extend: yes, transient filter: some, gain: -4,0dB..0,0dB
[CTDB TOCID: K583EFGXg_j.Uo3pXczJxd..Na4-] found.
Track | CTDB Status
1 | (15/15) Accurately ripped
2 | (15/15) Accurately ripped
3 | (15/15) Accurately ripped
4 | (15/15) Accurately ripped
5 | (15/15) Accurately ripped
6 | (15/15) Accurately ripped
7 | (14/15) Accurately ripped
8 | (15/15) Accurately ripped
9 | (13/15) Accurately ripped, or (1/15) differs in 121 samples @05:49:24,05:49:41-05:49:42,05:49:59,05:50:19,05:50:37
10 | (15/15) Accurately ripped
11 | (15/15) Accurately ripped
12 | (14/15) Accurately ripped, or (1/15) differs in 9639 samples @04:19:06-04:19:07,04:19:26-04:19:27,04:19:45-

04:19:46,04:19:65-04:19:66,04:20:10-04:20:11,04:20:30-04:20:31,04:20:49-04:20:51,04:20:69-04:20:70,04:21:14-04:21:15,04:21:34-

04:21:35,04:21:53-04:21:55,04:21:73-04:21:74,04:22:18-04:22:19,04:22:38-04:22:39,04:22:57-04:22:59,04:23:02-04:23:03,04:23:22-

04:23:23,04:23:42-04:23:43,04:23:62-04:23:63,04:24:06-04:24:07,04:24:26-04:24:27,04:24:46-04:24:47,04:25:50-04:25:51
13 | (14/15) Accurately ripped
14 | (14/15) Accurately ripped
15 | (15/15) Accurately ripped
16 | (14/15) Accurately ripped
[AccurateRip ID: 002a49d1-0206d28a-e1112310] found.
Track [ CRC | V2 ] Status
01 [569cd9c1|4fcf314e] (17+02/57) Accurately ripped
02 [57cf82f9|9f470ebc] (17+02/57) Accurately ripped
03 [d84e8605|b437f843] (18+02/57) Accurately ripped
04 [29247cba|700fa2af] (18+02/58) Accurately ripped
05 [3bf6e96f|f69ff69b] (18+02/58) Accurately ripped
06 [a1cec5a7|ec91259a] (18+02/58) Accurately ripped
07 [c2e82f4f|42026e31] (18+02/58) Accurately ripped
08 [edd018ec|65f69cdb] (18+02/57) Accurately ripped
09 [bcb789b8|f048889e] (17+02/55) Accurately ripped
10 [e10db644|9bbd3551] (18+02/58) Accurately ripped
11 [53fd6c32|db09f3c9] (18+02/57) Accurately ripped
12 [a63a221f|bbaecad7] (18+02/58) Accurately ripped
13 [ab560388|0d0304ff] (18+02/57) Accurately ripped
14 [2b6b347f|5261069c] (18+02/57) Accurately ripped
15 [2d09ca90|7e5088ea] (18+02/57) Accurately ripped
16 [120b3d54|a89adf00] (18+02/56) Accurately ripped
Offsetted by 6:
01 [038e2849] (34/57) Accurately ripped
02 [e815875f] (34/57) Accurately ripped
03 [cd2e4b7f] (33/57) Accurately ripped
04 [b60f4a98] (34/58) Accurately ripped
05 [845d1d2f] (34/58) Accurately ripped
06 [c3bbea51] (34/58) Accurately ripped
07 [78d681c5] (34/58) Accurately ripped
08 [0e17bb9b] (33/57) Accurately ripped
09 [a98d0d24] (32/55) Accurately ripped
10 [ea92f7ed] (34/58) Accurately ripped
11 [09386e7c] (33/57) Accurately ripped
12 [22048fcf] (34/58) Accurately ripped
13 [ed695ee2] (33/57) Accurately ripped
14 [ceeb4fc3] (33/57) Accurately ripped
15 [8bb4637c] (33/57) Accurately ripped
16 [2dafa3e6] (32/56) Accurately ripped

Track Peak [ CRC32 ] [W/O NULL] [ LOG ]
– 98,3 [4C848FF1] [0C6578DB] CRC32
01 95,1 [8D105D3B] [0B48A988]
02 91,4 [78DB7FFE] [FD5A4A4D]
03 96,9 [866F7FD4] [B360451D]
04 96,8 [3F2B93D0] [B73737AC]
05 98,1 [D322D80C] [012EA49D]
06 98,1 [E195751C] [DB6A52B1]
07 97,4 [1155E2C5] [E3CB8546]
08 97,8 [0D5B2D44] [DDBECDD6]
09 98,3 [70656A3B] [D5461B2A]
10 97,7 [EB68BBA5] [B86AFA5A]
11 97,8 [188D8020] [9C453837]
12 97,0 [0BCF7440] [ED6DAAEF]
13 96,9 [D54F3900] [AEB477B9]
14 93,5 [186FC445] [BBAEE5AA]
15 95,1 [E80D710F] [6181CCF7]
16 90,4 [85D9D179] [7CA14D70]



Thx to the original uploader