Subcategories
Please register here if you want to download anything!

If domain in your address bar is different from the list below
PLEASE LEAVE THAT SITE IMMEDIATELY
❗IT'S A DANGEROUS FAKE❗



Spicy Magazines for Men! ;-)

Crowded House - The Very Very Best Of Crowded House (2010) [Re-Up]

Posted By: Designol
Crowded House - The Very Very Best Of Crowded House (2010) [Re-Up]

Crowded House - The Very Very Best Of Crowded House (2010)
EAC | FLAC | Image (Cue&Log) ~ 461 Mb | Mp3 (CBR320) ~ 163 Mb | Scans ~ 140 Mb | 01:11:28
Rock, Pop/Rock, College Rock, Alternative Rock | Label: Capitol | # 50999 917403 2 8

The Very Very Best of Crowded House is a compilation album featuring 19 singles from the period spanning Crowded House's first six studio albums.

The second big-scale Crowded House compilation – following the first, Recurring Dream, by 14 years, and the budget-line set Classic Masters by seven - 2010’s The Very Very Best of Crowded House (the second “very” distinguishing it from Recurring Dream, which was merely “The Very Best”) comes in two incarnations: a single CD running a tight 19 tracks, and a digital download that’s expanded to 32 songs. The CD version offers up much of Crowded House’s canon including “Weather with You,” “Something so Strong,” “Don’t Dream It’s Over,” “Four Seasons in One Day,” “It’s Only Natural,” “Better Be Home Soon” and “Mean to Me,” ultimately repeating 14 of Recurring Dream’s 19 songs while finding space for a pair of tunes from the 2007 reunion Time on Earth (“Don’t Stop Now,” “Pour Le Monde”). The three tunes left behind – “World Where You Live,” “Into Temptation,” “When You Come” – are all missed but they can be found on the digital edition, along with a clutch of other great songs that help make it the best Crowded House comp so far, verging on the definitive. Naturally, the single disc isn’t as thorough, but it does as good a job of offering the basics as Recurring Dream, and will surely satisfy listeners who don’t believe they need more than a disc of Crowded House.

Review by Stephen Thomas Erlewine, Allmusic.com

Crowded House - The Very Very Best Of Crowded House (2010) [Re-Up]

Crowded House - The Very Very Best Of Crowded House (2010) [Re-Up]



Tracklist:

01. Something So Strong (02:53)
02. Weather With You (03:44)
03. It's Only Natural (03:30)
04. Chocolate Cake (04:00)
05. Fall At Your Feet (03:18)
06. Distant Sun (03:51)
07. Better Be Home Soon (03:08)
08. Four Seasons In One Day (02:48)
09. Don't Dream It's Over (03:56)
10. Mean To Me (03:16)
11. Locked Out (03:17)
12. Don't Stop Now (03:54)
13. Pineapple Head (03:29)
14. Instinct (03:08)
15. Fingers Of Love (04:26)
16. Private Universe (05:39)
17. Not The Girl You Think You Are (04:10)
18. Nails In My Feet (03:42)
19. Pour Le Monde (05:10)


Exact Audio Copy V1.0 beta 3 from 29. August 2011

EAC extraction logfile from 18. April 2015, 20:45

Crowded House / The Very Very Best Of Crowded House

Used drive : HL-DT-STDVDRAM GH22NS40 Adapter: 4 ID: 0

Read mode : Secure
Utilize accurate stream : Yes
Defeat audio cache : Yes
Make use of C2 pointers : No

Read offset correction : 667
Overread into Lead-In and Lead-Out : No
Fill up missing offset samples with silence : Yes
Delete leading and trailing silent blocks : No
Null samples used in CRC calculations : Yes
Used interface : Native Win32 interface for Win NT & 2000

Used output format : User Defined Encoder
Selected bitrate : 1024 kBit/s
Quality : High
Add ID3 tag : Yes
Command line compressor : C:\Program Files\FLAC\flac.exe
Additional command line options : -V -8 -T "Date=%year%" -T "Genre=%genre%" %source%


TOC of the extracted CD

Track | Start | Length | Start sector | End sector
––––––––––––––––––––––––––––-
1 | 0:00.00 | 2:53.46 | 0 | 13020
2 | 2:53.46 | 3:44.28 | 13021 | 29848
3 | 6:37.74 | 3:30.32 | 29849 | 45630
4 | 10:08.31 | 4:00.70 | 45631 | 63700
5 | 14:09.26 | 3:18.57 | 63701 | 78607
6 | 17:28.08 | 3:51.29 | 78608 | 95961
7 | 21:19.37 | 3:08.46 | 95962 | 110107
8 | 24:28.08 | 2:48.22 | 110108 | 122729
9 | 27:16.30 | 3:56.52 | 122730 | 140481
10 | 31:13.07 | 3:16.00 | 140482 | 155181
11 | 34:29.07 | 3:17.48 | 155182 | 170004
12 | 37:46.55 | 3:54.57 | 170005 | 187611
13 | 41:41.37 | 3:29.13 | 187612 | 203299
14 | 45:10.50 | 3:08.72 | 203300 | 217471
15 | 48:19.47 | 4:26.07 | 217472 | 237428
16 | 52:45.54 | 5:39.48 | 237429 | 262901
17 | 58:25.27 | 4:10.06 | 262902 | 281657
18 | 62:35.33 | 3:42.00 | 281658 | 298307
19 | 66:17.33 | 5:10.40 | 298308 | 321597


Range status and errors

Selected range

Filename I:\Rips\Crowded House - The Very Very Best Of Crowded House.wav

Peak level 100.0 %
Extraction speed 2.0 X
Range quality 99.9 %
Test CRC 422F94B7
Copy CRC 422F94B7
Copy OK

No errors occurred


AccurateRip summary

Track 1 accurately ripped (confidence 30) [F1109A7B] (AR v2)
Track 2 accurately ripped (confidence 30) [EF5205F8] (AR v2)
Track 3 accurately ripped (confidence 30) [26DA5AF1] (AR v2)
Track 4 accurately ripped (confidence 30) [595CB24A] (AR v2)
Track 5 accurately ripped (confidence 30) [DBFF32BB] (AR v2)
Track 6 accurately ripped (confidence 30) [61253AE5] (AR v2)
Track 7 accurately ripped (confidence 30) [3AEA18C7] (AR v2)
Track 8 accurately ripped (confidence 30) [CF02C8EA] (AR v2)
Track 9 accurately ripped (confidence 30) [656C376F] (AR v2)
Track 10 accurately ripped (confidence 30) [539ABBF7] (AR v2)
Track 11 accurately ripped (confidence 30) [CDDC1F46] (AR v2)
Track 12 accurately ripped (confidence 30) [593C67C5] (AR v2)
Track 13 accurately ripped (confidence 30) [91E37757] (AR v2)
Track 14 accurately ripped (confidence 30) [74E4A142] (AR v2)
Track 15 accurately ripped (confidence 30) [2E84C6BF] (AR v2)
Track 16 accurately ripped (confidence 30) [96522967] (AR v2)
Track 17 accurately ripped (confidence 30) [1B1E223D] (AR v2)
Track 18 accurately ripped (confidence 30) [D4670EE5] (AR v2)
Track 19 accurately ripped (confidence 30) [C3FC2293] (AR v2)

All tracks accurately ripped

End of status report

==== Log checksum B9ED5D677AF20A6564975AC553DF123450E90CE62CC14497AF8DC09E307FE0F9 ====

foobar2000 1.2 / Dynamic Range Meter 1.1.1
log date: 2015-04-21 23:03:40

––––––––––––––––––––––––––––––––––––––––
Analyzed: Crowded House / The Very Very Best Of Crowded House
––––––––––––––––––––––––––––––––––––––––

DR Peak RMS Duration Track
––––––––––––––––––––––––––––––––––––––––
DR8 -0.10 dB -9.30 dB 2:54 01-Something So Strong
DR7 -1.48 dB -10.21 dB 3:44 02-Weather With You
DR8 -0.10 dB -10.30 dB 3:30 03-It's Only Natural
DR8 -0.10 dB -10.62 dB 4:01 04-Chocolate Cake
DR9 -0.10 dB -10.13 dB 3:19 05-Fall At Your Feet
DR8 -0.10 dB -9.79 dB 3:51 06-Distant Sun
DR9 -0.10 dB -11.67 dB 3:09 07-Better Be Home Soon
DR8 -0.56 dB -11.66 dB 2:48 08-Four Seasons In One Day
DR8 -0.10 dB -9.54 dB 3:57 09-Don't Dream It's Over
DR7 -0.10 dB -9.24 dB 3:16 10-Mean To Me
DR6 -0.10 dB -7.14 dB 3:18 11-Locked Out
DR6 -0.10 dB -7.82 dB 3:55 12-Don't Stop Now
DR6 -0.10 dB -7.65 dB 3:29 13-Pineapple Head
DR6 -0.10 dB -7.79 dB 3:09 14-Instinct
DR8 -0.10 dB -10.04 dB 4:26 15-Fingers Of Love
DR9 0.00 dB -10.74 dB 5:40 16-Private Universe
DR8 -0.10 dB -9.93 dB 4:10 17-Not The Girl You Think You Are
DR8 -0.10 dB -9.88 dB 3:42 18-Nails In My Feet
DR6 -0.10 dB -8.27 dB 5:11 19-Pour Le Monde
––––––––––––––––––––––––––––––––––––––––

Number of tracks: 19
Official DR value: DR8

Samplerate: 44100 Hz
Channels: 2
Bits per sample: 16
Bitrate: 902 kbps
Codec: FLAC
================================================================================

Crowded House - The Very Very Best Of Crowded House (2010) [Re-Up]

Crowded House - The Very Very Best Of Crowded House (2010) [Re-Up]

All thanks to original releaser - powermet

More interesting music in My Blog