Subcategories

The Crusaders - Those Southern Knights (1976) {MCA}

Posted By: tiburon
The Crusaders - Those Southern Knights (1976) {MCA}

The Crusaders - Those Southern Knights (1976) {MCA}
EAC 0.99pb4 | FLAC tracks level 8 | Cue+Log+M3U | Full Scans 300dpi | 234MB + 5% Recovery
MP3 CBR 320 Kbps | 100MB + 5% Recovery
Genre: Jazz-Funk

Deep in their prime period, the Crusaders reaffirm their affinity with the groove and rely entirely upon all six of their funky selves for their material. "My Mama Told Me So" and "Feeling Funky" contain the most infectious outcropping of the groove, while "Spiral" is OK, yet just a bit too frantic for the groove to thrive. "And Then There Was the Blues" is a laid-back, mildly funky jog at quite some length, where everyone gets a chance to solo extensively; essentially this is the old Jazz Crusaders frontline sound with a funky underbelly. "Til the Sun Shines" is an urbane Larry Carlton ballad with synthesized strings, quite different and to the point, but "Serenity" is a bore, a nothing idea stretched out for too long. The Crusaders' groove machine is still very much in gear, but the fuel is occasionally diluted.
Track List
01. Spiral 6:13
02. Keep That Same Old Feeling 5:38
03. My Mama Told Me So 4:51
04. Til' The Sun Shines 2:48
05. And Then There Was The Blues 9:43
06. Serenity 7:13
07. Feeling Funky 3:02


Exact Audio Copy V0.99 prebeta 4 from 23. January 2008

EAC extraction logfile from 22. January 2009, 12:09

The Crusaders / Those Southern Knights

Used drive : ATAPI DVD A DH20A4H Adapter: 1 ID: 1

Read mode : Secure
Utilize accurate stream : Yes
Defeat audio cache : Yes
Make use of C2 pointers : No

Read offset correction : 6
Overread into Lead-In and Lead-Out : No
Fill up missing offset samples with silence : Yes
Delete leading and trailing silent blocks : No
Null samples used in CRC calculations : Yes
Used interface : Native Win32 interface for Win NT & 2000
Gap handling : Appended to previous track

Used output format : User Defined Encoder
Selected bitrate : 128 kBit/s
Quality : High
Add ID3 tag : No
Command line compressor : C:\Program Files\Exact Audio Copy\Flac\flac.exe
Additional command line options : -8 -V -T "ARTIST=%a" -T "TITLE=%t" -T "ALBUM=%g" -T "DATE=%y" -T "TRACKNUMBER=%n" -T "GENRE=%m" -T "COMMENT=EAC FLAC -8" %s


TOC of the extracted CD

Track | Start | Length | Start sector | End sector
––––––––––––––––––––––––––––-
1 | 0:00.00 | 6:13.07 | 0 | 27981
2 | 6:13.07 | 5:38.03 | 27982 | 53334
3 | 11:51.10 | 4:51.52 | 53335 | 75211
4 | 16:42.62 | 2:48.58 | 75212 | 87869
5 | 19:31.45 | 9:43.12 | 87870 | 131606
6 | 29:14.57 | 7:13.30 | 131607 | 164111
7 | 36:28.12 | 3:02.23 | 164112 | 177784


Track 1

Filename D:\Uploads\The Crusaders - Those Southern Knights\01 - Spiral.wav

Pre-gap length 0:00:02.00

Peak level 80.4 %
Track quality 100.0 %
Test CRC E8864C54
Copy CRC E8864C54
Track not present in AccurateRip database
Copy OK

Track 2

Filename D:\Uploads\The Crusaders - Those Southern Knights\02 - Keep That Same Old Feeling.wav

Peak level 75.4 %
Track quality 99.9 %
Test CRC A4164FC7
Copy CRC A4164FC7
Track not present in AccurateRip database
Copy OK

Track 3

Filename D:\Uploads\The Crusaders - Those Southern Knights\03 - My Mama Told Me So.wav

Peak level 86.3 %
Track quality 100.0 %
Test CRC 88EA854C
Copy CRC 88EA854C
Track not present in AccurateRip database
Copy OK

Track 4

Filename D:\Uploads\The Crusaders - Those Southern Knights\04 - Til' The Sun Shines.wav

Pre-gap length 0:00:01.60

Peak level 60.0 %
Track quality 100.0 %
Test CRC C9936285
Copy CRC C9936285
Track not present in AccurateRip database
Copy OK

Track 5

Filename D:\Uploads\The Crusaders - Those Southern Knights\05 - And Then There Was The Blues.wav

Pre-gap length 0:00:05.06

Peak level 81.3 %
Track quality 100.0 %
Test CRC CA0B209D
Copy CRC CA0B209D
Track not present in AccurateRip database
Copy OK

Track 6

Filename D:\Uploads\The Crusaders - Those Southern Knights\06 - Serenity.wav

Peak level 77.7 %
Track quality 100.0 %
Test CRC 6CA59B6E
Copy CRC 6CA59B6E
Track not present in AccurateRip database
Copy OK

Track 7

Filename D:\Uploads\The Crusaders - Those Southern Knights\07 - Feeling Funky.wav

Peak level 85.3 %
Track quality 99.9 %
Test CRC 8E546698
Copy CRC 8E546698
Track not present in AccurateRip database
Copy OK


None of the tracks are present in the AccurateRip database

No errors occurred

End of status report


foobar2000 1.3.13 / Dynamic Range Meter 1.1.1
log date: 2019-11-19 14:28:55

––––––––––––––––––––––––––––––––––––––––
Analyzed: The Crusaders / Those Southern Knights
––––––––––––––––––––––––––––––––––––––––

DR Peak RMS Duration Track
––––––––––––––––––––––––––––––––––––––––
DR13 -1.89 dB -17.15 dB 6:13 01-Spiral
DR12 -2.45 dB -18.17 dB 5:38 02-Keep That Same Old Feeling
DR15 -1.28 dB -18.20 dB 4:52 03-My Mama Told Me So
DR12 -4.43 dB -20.44 dB 2:49 04-Til' The Sun Shines
DR14 -1.79 dB -17.80 dB 9:43 05-And Then There Was The Blues
DR13 -2.19 dB -21.09 dB 7:13 06-Serenity
DR15 -1.37 dB -18.21 dB 3:02 07-Feeling Funky
––––––––––––––––––––––––––––––––––––––––

Number of tracks: 7
Official DR value: DR14

Samplerate: 44100 Hz
Channels: 2
Bits per sample: 16
Bitrate: 802 kbps
Codec: FLAC
================================================================================

The Crusaders - Those Southern Knights (1976) {MCA}
The Crusaders - Those Southern Knights (1976) {MCA}


Thanks to the original ripper