Subcategories

The Cryan' Shames - A Scratch In The Sky (1967) [Special Ed. 2002] Re-up

Posted By: Andi_Deris
The Cryan' Shames - A Scratch In The Sky (1967) [Special Ed. 2002] Re-up

The Cryan' Shames - A Scratch In The Sky (1967) [Special Ed. 2002]
EAC Rip | FLAC: Image+Cue+Log | 372 Mb | MP3 CBR 320 kbps | 158 Mb | Scans | Time: 57:52
Sundazed Music, Inc. | SC 6187
Rock, Garage Rock, Psychedelic Pop

"A Scratch in the Sky" is the second album by The Cryan' Shames. For this album, new members Isaac Guillory and Lenny Kerley join the lineup. Dave Purple and Jerry Stone are no longer listed on the credits. On their second album, the Cryan' Shames shifted from the heavy British Invasion and Byrds influences of their debut into a more California sunshine pop-flavored sound, without abandoning their debts to the Beatles and the Byrds altogether. On this second album, all but 2 songs are original compositions by Jim Fairs and Lenny Kerley.

The Cryan' Shames - A Scratch In The Sky (1967) [Special Ed. 2002] Re-up




The Cryan' Shames - A Scratch In The Sky (1967) [Special Ed. 2002] Re-up


Track Listing

01. A Carol For Lorelei (4:05)
02. The Sailing Ship (3:36)
03. In The Cafe (3:12)
04. Mr. Unreliable (2:52)
05. The Town I'd Like To Go Back To (4:30)
06. Up On The Roof (3:23)
07. It Could Be We're In Love (2:35)
08. Sunshine Psalm (2:17)
09. I Was Lonely When (4:03)
10. Cobblestone Road (She's Been Walkin') (2:51)
11. Dennis Dupree From Danville (3:12)

BONUS TRACKS
12. It Could Be We're In Love [single version] (2:34)
13. I Was Lonely When [single version] (3:27)
14. Young Birds Fly (2:25)
15. Sunshine Psalm [single version] (2:09)
16. Up On The Roof [single version] (3:28)
17. The Sailing Ship [single version] (2:55)
18. The Warm (4:18)

Produced by Jim Golden and Bob Monaco

The Band

• Lenny Kerley - Bass, Guitar, Tamboura, Vocals
• Jim Fairs - Bagpipes, Bass, Flute, Guitar, Mandolin, Vocals
• Isaac Guillory - Accordion, Bass, Cello, Guitar, Keyboards, Vocals
• Jim Pilster «J.C. Hooke» - Tambourine, Cowbell, French Horn, Vocals
• Tom Doody «Toad» - Vocals, Autoharp, Bells
• Dennis Conroy - Drums, Other Percussion

Exact Audio Copy V1.0 beta 3 from 29. August 2011

EAC extraction logfile from 23. June 2013, 23:18

The Cryin' Shames / A Scratch In The Sky (Special Edition)

Used drive : PLDS DVD-RW DH16AESH Adapter: 0 ID: 0

Read mode : Secure
Utilize accurate stream : Yes
Defeat audio cache : Yes
Make use of C2 pointers : No

Read offset correction : 6
Overread into Lead-In and Lead-Out : No
Fill up missing offset samples with silence : Yes
Delete leading and trailing silent blocks : No
Null samples used in CRC calculations : Yes
Used interface : Installed external ASPI interface

Used output format : User Defined Encoder
Selected bitrate : 768 kBit/s
Quality : High
Add ID3 tag : Yes
Command line compressor : C:\Program Files (x86)\Exact Audio Copy\Flac\flac.exe
Additional command line options : -V -8 -T "Date=%year%" -T "Genre=%genre%" %source%


TOC of the extracted CD

Track | Start | Length | Start sector | End sector
––––––––––––––––––––––––––––-
1 | 0:00.00 | 4:05.55 | 0 | 18429
2 | 4:05.55 | 3:36.55 | 18430 | 34684
3 | 7:42.35 | 3:12.35 | 34685 | 49119
4 | 10:54.70 | 2:52.55 | 49120 | 62074
5 | 13:47.50 | 4:30.67 | 62075 | 82391
6 | 18:18.42 | 3:23.40 | 82392 | 97656
7 | 21:42.07 | 2:35.65 | 97657 | 109346
8 | 24:17.72 | 2:17.58 | 109347 | 119679
9 | 26:35.55 | 4:03.15 | 119680 | 137919
10 | 30:38.70 | 2:51.07 | 137920 | 150751
11 | 33:30.02 | 3:12.08 | 150752 | 165159
12 | 36:42.10 | 2:34.00 | 165160 | 176709
13 | 39:16.10 | 3:27.25 | 176710 | 192259
14 | 42:43.35 | 2:25.42 | 192260 | 203176
15 | 45:09.02 | 2:09.03 | 203177 | 212854
16 | 47:18.05 | 3:28.02 | 212855 | 228456
17 | 50:46.07 | 2:55.48 | 228457 | 241629
18 | 53:41.55 | 4:18.37 | 241630 | 261016


Range status and errors

Selected range

Filename D:\Cryin' Shames - A Scratch In The Sky (2002, SE).wav

Peak level 98.8 %
Extraction speed 6.4 X
Range quality 100.0 %
Test CRC 3CF51C9E
Copy CRC 3CF51C9E
Copy OK

No errors occurred


AccurateRip summary

Track 1 cannot be verified as accurate (confidence 1) [A2AE561C], AccurateRip returned [7F4B9C8E] (AR v2)
Track 2 cannot be verified as accurate (confidence 1) [7BEF73BC], AccurateRip returned [81CB3084] (AR v2)
Track 3 cannot be verified as accurate (confidence 1) [D2DA4C0E], AccurateRip returned [4F2B9A82] (AR v2)
Track 4 cannot be verified as accurate (confidence 1) [8DA113FE], AccurateRip returned [D894ED80] (AR v2)
Track 5 cannot be verified as accurate (confidence 1) [E5A12E24], AccurateRip returned [0C4C9D1A] (AR v2)
Track 6 cannot be verified as accurate (confidence 1) [1C983D99], AccurateRip returned [9F2D549C] (AR v2)
Track 7 cannot be verified as accurate (confidence 1) [AF3D397A], AccurateRip returned [166AFE5F] (AR v2)
Track 8 cannot be verified as accurate (confidence 1) [5ADC8FE2], AccurateRip returned [2FCD609C] (AR v2)
Track 9 cannot be verified as accurate (confidence 1) [E82BE56F], AccurateRip returned [555F28E8] (AR v2)
Track 10 cannot be verified as accurate (confidence 1) [E041860D], AccurateRip returned [11B97307] (AR v2)
Track 11 cannot be verified as accurate (confidence 1) [46BB300A], AccurateRip returned [55A6105B] (AR v2)
Track 12 cannot be verified as accurate (confidence 1) [43663A6D], AccurateRip returned [4E39C874] (AR v2)
Track 13 cannot be verified as accurate (confidence 1) [237C0938], AccurateRip returned [6F51EB31] (AR v2)
Track 14 cannot be verified as accurate (confidence 1) [2B8F5E86], AccurateRip returned [E721C457] (AR v2)
Track 15 cannot be verified as accurate (confidence 1) [AE17D157], AccurateRip returned [C1E4751A] (AR v2)
Track 16 cannot be verified as accurate (confidence 1) [9901BD9D], AccurateRip returned [F5A92DB2] (AR v2)
Track 17 cannot be verified as accurate (confidence 1) [73513810], AccurateRip returned [AD0B28F6] (AR v2)
Track 18 cannot be verified as accurate (confidence 1) [10B0E40D], AccurateRip returned [3F661FC1] (AR v2)

No tracks could be verified as accurate
You may have a different pressing from the one(s) in the database

End of status report

==== Log checksum 5FF7EA1B223F9B44373053FCA7CA90CA14BA252BEA6486F2ACFE7E93DB08EB87 ====


Many thanks to the original uploader: dmcHQ_70

SEE also:
The Cryan' Shames 1966 Sugar & Spice [Special Ed. 2002]
The Cryan' Shames 1968 Synthesis [Special Ed. 2002]
The Cryan' Shames 2003 The Very Best Of The Cryan' Shames: More Sugar & Spice