Tags
Language
Tags

VA - Curses Presents Next Wave Acid Punx (2021)

Posted By: Rtax
VA - Curses Presents Next Wave Acid Punx (2021)

VA - Curses Presents Next Wave Acid Punx (2021)
XLD Rip | FLAC (tracks, cue, log) - 1.3 GB | MP3 CBR 320 kbps - 504 MB
3:39:50 | New Wave, EBM, House, Nu-Disco, Leftfield, Synthwave, New Beat, Freestyle, Italo-Disco
Label: Eskimo Recordings

‘Next Wave Acid Punx’ is a 38 track journey across nearly 40 years of dark club music compiled and curated by Berlin-based Musician and DJ, Luca Venezia aka Curses. Inviting friends with a like-minded affection for an 80s rooted sound, and diving deep into his record collection, Curses has put together a three CD/double vinyl set that takes us from music by Colourbox and Suicide to EBM pioneers, Front 242 through to recent club hits from Zombies in Miami, and 12 brand new, totally exclusive tracks from the likes of Shubostar, Chinaski, and Curses himself.

Exploring the darker side of club music, ‘Next Wave Acid Punx’ traces decades of a musical passion and joins the dots between the EBM, New Beat, Italo and Acid House tracks of the 1980s to present music of today.

"Putting together a compilation like this is a strange experience. I’ve never been one to stay still too long. Whether as a musician, DJ, or producer I’d never wanted to tie myself down to one scene or one sound, always looking to move on before I’d maybe run a project completely dry. With an album you create a snapshot of who you are during that time in life, with a DJ set maybe just that night, but this felt more like trying to sum up a lifetime of musical experiences. A bit daunting! But in putting this comp together I did find a path that led from listening to FRONT 242 and Ministry cassettes in my bedroom when I was just 11, through to the music I make and play today.

What links these tracks together, is an attitude. It’s one I’ve been drawn to since I was a teenager, playing in punk bands, skateboarding in NYC, hanging out at CBGBs, and following Sonic Youth around, to eventually raving every weekend at underground drum & bass and electro nights.

As a teenager I’d dig through the bargain bins at shops like Vinyl Mania and Bleecker Bob’s where you’d find all these Freestyle, Italo and New Beat records. Straight away I zoned in on the “Dub” and “Extended Dance Mix” versions where the focus was on the drums and I could hear a link to bands I’d loved years before.

The first chapter takes early tracks from bands who came directly out of the punk and new wave scenes, that played a major role in forming my musical taste. The second chapter celebrates current music influenced by these early pioneers, while the third chapter comprises exclusive new music made for this compilation, with the passion for these genres in mind.

Some of these songs may have been written decades apart, but they all share an energy, a raw spirit, it’s those massive drums and gated snares that you hear on both Demolition Group’s ‘You Better Stay Alive’ from 1988, and Shubostar’s brand new track, ‘Aya’. This mix of electric and electronic sounds have been part of my make up ever since I learned to play guitar accompanied by a DR550 drum machine.

After leaving New York, I found a scene that helped me realize I could combine all my own past influences into my productions, song-writing and DJ sets. Discovering underground parties like Wrong Era, Cocktail d’Amore in Berlin, La dame Noir in Marseille, and of course A Love From Outer Space, made the pieces fall into place for me. This is the sound of a community I love, a passion without sacrifice, that I now want to share with you."

CD1 - Chapter 1: Origins
1. Borghesia - Z.M.R. (3:51)
2. Gina X Performance - Kaddish (4:17)
3. Suicide - Wild in Blue (2005 Remaster) (4:34)
4. Demolition Group - You Better Stay Alive (5:11)
5. A Split Second - Flesh (4:51)
6. BPM AM - Come to Me (Vocal Version) (6:22)
7. Ted Milton - Love is Like a Violence (5:37)
8. Front 242 - Funkahdafi (3:18)
9. Colourbox - Fast Dump (5:44)
10. Yello - Lost Again (Extended Dance Version) (7:13)
11. Mystery - Mystery Girl (Club Mix - Remastered) (4:29)
12. In-D - Virgin In-D Sky's (4:05)
13. Judy Torres - No Reason to Cry (Instrumental) (4:51)
14. Hard Corps - Porte Bonheur (Lucky Charm) 2021 (5:43)

CD2 - Chapter 2: Break a Sweat
1. Moderna & Theus Mago - Francesca (Wild At Heart) (6:12)
2. Middle Sky Boom feat. Eliezer - Slow With The Run (Il Est Vilaine Remix) (6:02)
3. Tiempo De Maldad - Maxico (Alvee Remix) (6:16)
4. Zombies In Miami - El Wild (6:28)
5. Moscoman - Fernandez (5:26)
6. Juan Maclean feat. Fantastic Twins - She's Breaking Up (7:25)
7. Damon Jee & Darlyn Vlys - Kronos (Wild Mix) (7:30)
8. Zakmina - Viral News (6:33)
9. Radial Gaze - Totem Echoes (You Man Remix) (4:29)
10. Paresse - Temple (6:15)
11. Rina x Benji x Megaphonim - Ani Cham (6:15)
12. Modular Project - Electronic Disco (Curses Remix) (8:01)

CD3 - Chapter 3: Maximum Heat
1. Curses - Discipline (8:03)
2. Chinaski - Hart und Kalt (4:55)
3. Shubostar - AYA (7:47)
4. Cornelius Doctor - Life in Chains (4:57)
5. Mufti - Restrained (5:57)
6. Amarcord - Spleen (5:53)
7. Franz Scala - Shortwave Memories (6:55)
8. Tronik Youth - Spirit Dancer (5:43)
9. Cardopusher - Escape From Reality (5:16)
10. Kendal & David Carretta - Pastaga (6:06)
11. Local Suicide & Skelesys - Faster Faster (4:57)
12. Pablo Bozzi - Storm in Dallas (6:23)
X Lossless Decoder version 20211018 (154.0)

XLD extraction logfile from 2022-02-07 14:36:14 -0800

Various Artists / Curses Presents Next Wave Acid Punx [Disc 1 - Chapter 1: Origins]

Used drive : MATSHITA DVD-R UJ-8A8 (revision HB14)
Media type : Pressed CD

Ripper mode : XLD Secure Ripper
Disable audio cache : OK for the drive with a cache less than 1375KiB
Make use of C2 pointers : NO
Read offset correction : 102
Max retry count : 20
Gap status : Analyzed, Appended (except HTOA)

TOC of the extracted CD
Track | Start | Length | Start sector | End sector
––––––––––––––––––––––––––––-
1 | 00:00:00 | 03:51:08 | 0 | 17332
2 | 03:51:08 | 04:16:39 | 17333 | 36571
3 | 08:07:47 | 04:34:27 | 36572 | 57148
4 | 12:41:74 | 05:11:04 | 57149 | 80477
5 | 17:53:03 | 04:50:72 | 80478 | 102299
6 | 22:44:00 | 06:22:19 | 102300 | 130968
7 | 29:06:19 | 05:37:06 | 130969 | 156249
8 | 34:43:25 | 03:17:55 | 156250 | 171079
9 | 38:01:05 | 05:43:42 | 171080 | 196846
10 | 43:44:47 | 07:13:02 | 196847 | 229323
11 | 50:57:49 | 04:29:27 | 229324 | 249525
12 | 55:27:01 | 04:05:12 | 249526 | 267912
13 | 59:32:13 | 04:51:24 | 267913 | 289761
14 | 64:23:37 | 05:43:02 | 289762 | 315488

AccurateRip Summary (DiscID: 00231c40-017b399a-d9106e0e)
Track 01 : OK (v2, confidence 2/2)
Track 02 : OK (v2, confidence 2/2)
Track 03 : OK (v2, confidence 2/2)
Track 04 : OK (v2, confidence 2/2)
Track 05 : OK (v2, confidence 2/2)
Track 06 : OK (v2, confidence 2/2)
Track 07 : OK (v2, confidence 2/2)
Track 08 : OK (v2, confidence 2/2)
Track 09 : OK (v2, confidence 2/2)
Track 10 : OK (v2, confidence 2/2)
Track 11 : OK (v2, confidence 2/2)
Track 12 : OK (v2, confidence 2/2)
Track 13 : OK (v2, confidence 2/2)
Track 14 : OK (v2, confidence 2/2)
->All tracks accurately ripped.

All Tracks
Album gain : -6.94 dB
Peak : 0.989349
Statistics
Read error : 0
Jitter error (maybe fixed) : 0
Retry sector count : 0
Damaged sector count : 0

Track 01
Filename : /Users/Music Files/Compilations - Curses Presents Next Wave Acid Punx [Disc 1 - Chapter 1- Origins] (2021) [FLAC]/01 Z.M.R..flac
Pre-gap length : 00:02:00

Track gain : -8.73 dB
Peak : 0.923584
CRC32 hash (test run) : 3143EA02
CRC32 hash : 3143EA02
CRC32 hash (skip zero) : 186BB156
AccurateRip v1 signature : 03668870
AccurateRip v2 signature : 19C1734B
->Accurately ripped (v2, confidence 2/2)
Statistics
Read error : 0
Jitter error (maybe fixed) : 0
Retry sector count : 0
Damaged sector count : 0

Track 02
Filename : /Users/Music Files/Compilations - Curses Presents Next Wave Acid Punx [Disc 1 - Chapter 1- Origins] (2021) [FLAC]/02 Kaddish.flac

Track gain : -7.01 dB
Peak : 0.965973
CRC32 hash (test run) : 204A3C4F
CRC32 hash : 204A3C4F
CRC32 hash (skip zero) : 9FAA2926
AccurateRip v1 signature : FEAFE417
AccurateRip v2 signature : CE120C5B
->Accurately ripped (v2, confidence 2/2)
Statistics
Read error : 0
Jitter error (maybe fixed) : 0
Retry sector count : 0
Damaged sector count : 0

Track 03
Filename : /Users/Music Files/Compilations - Curses Presents Next Wave Acid Punx [Disc 1 - Chapter 1- Origins] (2021) [FLAC]/03 Wild in Blue (2005 Remaster).flac

Track gain : -8.29 dB
Peak : 0.965820
CRC32 hash (test run) : 5AE2E01C
CRC32 hash : 5AE2E01C
CRC32 hash (skip zero) : C9CFEE8E
AccurateRip v1 signature : 2292F8ED
AccurateRip v2 signature : 7DB04899
->Accurately ripped (v2, confidence 2/2)
Statistics
Read error : 0
Jitter error (maybe fixed) : 0
Retry sector count : 0
Damaged sector count : 0

Track 04
Filename : /Users/Music Files/Compilations - Curses Presents Next Wave Acid Punx [Disc 1 - Chapter 1- Origins] (2021) [FLAC]/04 You Better Stay Alive.flac

Track gain : -6.33 dB
Peak : 0.965942
CRC32 hash (test run) : 430D251F
CRC32 hash : 430D251F
CRC32 hash (skip zero) : 271B29B9
AccurateRip v1 signature : 73C0A3F7
AccurateRip v2 signature : E76F91F9
->Accurately ripped (v2, confidence 2/2)
Statistics
Read error : 0
Jitter error (maybe fixed) : 0
Retry sector count : 0
Damaged sector count : 0

Track 05
Filename : /Users/Music Files/Compilations - Curses Presents Next Wave Acid Punx [Disc 1 - Chapter 1- Origins] (2021) [FLAC]/05 Flesh.flac

Track gain : -4.83 dB
Peak : 0.982910
CRC32 hash (test run) : 93D58CD7
CRC32 hash : 93D58CD7
CRC32 hash (skip zero) : DC276B1E
AccurateRip v1 signature : 07C8CEFA
AccurateRip v2 signature : 55C9028C
->Accurately ripped (v2, confidence 2/2)
Statistics
Read error : 0
Jitter error (maybe fixed) : 0
Retry sector count : 0
Damaged sector count : 0

Track 06
Filename : /Users/Music Files/Compilations - Curses Presents Next Wave Acid Punx [Disc 1 - Chapter 1- Origins] (2021) [FLAC]/06 Come to Me (Vocal Version).flac

Track gain : -6.07 dB
Peak : 0.966095
CRC32 hash (test run) : 5BDE3327
CRC32 hash : 5BDE3327
CRC32 hash (skip zero) : 956EEA57
AccurateRip v1 signature : 00B134AF
AccurateRip v2 signature : 346C4369
->Accurately ripped (v2, confidence 2/2)
Statistics
Read error : 0
Jitter error (maybe fixed) : 0
Retry sector count : 0
Damaged sector count : 0

Track 07
Filename : /Users/Music Files/Compilations - Curses Presents Next Wave Acid Punx [Disc 1 - Chapter 1- Origins] (2021) [FLAC]/07 Love is Like a Violence.flac

Track gain : -5.76 dB
Peak : 0.989349
CRC32 hash (test run) : 15F6CC1C
CRC32 hash : 15F6CC1C
CRC32 hash (skip zero) : 4E34A34E
AccurateRip v1 signature : 7FAA8441
AccurateRip v2 signature : F9A86501
->Accurately ripped (v2, confidence 2/2)
Statistics
Read error : 0
Jitter error (maybe fixed) : 0
Retry sector count : 0
Damaged sector count : 0

Track 08
Filename : /Users/Music Files/Compilations - Curses Presents Next Wave Acid Punx [Disc 1 - Chapter 1- Origins] (2021) [FLAC]/08 Funkahdafi.flac
Pre-gap length : 00:01:30

Track gain : -8.64 dB
Peak : 0.958405
CRC32 hash (test run) : 834EBD8B
CRC32 hash : 834EBD8B
CRC32 hash (skip zero) : 5ECD25A3
AccurateRip v1 signature : F3B3A56E
AccurateRip v2 signature : EBBE27FB
->Accurately ripped (v2, confidence 2/2)
Statistics
Read error : 0
Jitter error (maybe fixed) : 0
Retry sector count : 0
Damaged sector count : 0

Track 09
Filename : /Users/Music Files/Compilations - Curses Presents Next Wave Acid Punx [Disc 1 - Chapter 1- Origins] (2021) [FLAC]/09 Fast Dump.flac
Pre-gap length : 00:01:35

Track gain : -7.21 dB
Peak : 0.966034
CRC32 hash (test run) : 8FE21247
CRC32 hash : 8FE21247
CRC32 hash (skip zero) : B5CA1537
AccurateRip v1 signature : 044E3668
AccurateRip v2 signature : FD8C186D
->Accurately ripped (v2, confidence 2/2)
Statistics
Read error : 0
Jitter error (maybe fixed) : 0
Retry sector count : 0
Damaged sector count : 0

Track 10
Filename : /Users/Music Files/Compilations - Curses Presents Next Wave Acid Punx [Disc 1 - Chapter 1- Origins] (2021) [FLAC]/10 Lost Again (Extended Dance Version).flac
Pre-gap length : 00:01:50

Track gain : -6.19 dB
Peak : 0.967133
CRC32 hash (test run) : BA6B882C
CRC32 hash : BA6B882C
CRC32 hash (skip zero) : B467E6DD
AccurateRip v1 signature : 82A5C822
AccurateRip v2 signature : 082A76A2
->Accurately ripped (v2, confidence 2/2)
Statistics
Read error : 0
Jitter error (maybe fixed) : 0
Retry sector count : 0
Damaged sector count : 0

Track 11
Filename : /Users/Music Files/Compilations - Curses Presents Next Wave Acid Punx [Disc 1 - Chapter 1- Origins] (2021) [FLAC]/11 Mystery Girl (Club Mix - Remastered).flac

Track gain : -6.68 dB
Peak : 0.989319
CRC32 hash (test run) : 017A5EA9
CRC32 hash : 017A5EA9
CRC32 hash (skip zero) : 396FC25F
AccurateRip v1 signature : EAD63AAB
AccurateRip v2 signature : B61D1396
->Accurately ripped (v2, confidence 2/2)
Statistics
Read error : 0
Jitter error (maybe fixed) : 0
Retry sector count : 0
Damaged sector count : 0

Track 12
Filename : /Users/Music Files/Compilations - Curses Presents Next Wave Acid Punx [Disc 1 - Chapter 1- Origins] (2021) [FLAC]/12 Virgin In-D Sky's.flac

Track gain : -7.06 dB
Peak : 0.937531
CRC32 hash (test run) : C3D52790
CRC32 hash : C3D52790
CRC32 hash (skip zero) : D2A518A5
AccurateRip v1 signature : A7C7A374
AccurateRip v2 signature : 7DF50971
->Accurately ripped (v2, confidence 2/2)
Statistics
Read error : 0
Jitter error (maybe fixed) : 0
Retry sector count : 0
Damaged sector count : 0

Track 13
Filename : /Users/Music Files/Compilations - Curses Presents Next Wave Acid Punx [Disc 1 - Chapter 1- Origins] (2021) [FLAC]/13 No Reason to Cry (Instrumental).flac

Track gain : -6.47 dB
Peak : 0.902618
CRC32 hash (test run) : C5068340
CRC32 hash : C5068340
CRC32 hash (skip zero) : AF8FCA1B
AccurateRip v1 signature : 5B655D09
AccurateRip v2 signature : 1901C4F0
->Accurately ripped (v2, confidence 2/2)
Statistics
Read error : 0
Jitter error (maybe fixed) : 0
Retry sector count : 0
Damaged sector count : 0

Track 14
Filename : /Users/Music Files/Compilations - Curses Presents Next Wave Acid Punx [Disc 1 - Chapter 1- Origins] (2021) [FLAC]/14 Porte Bonheur (Lucky Charm) 2021.flac

Track gain : -7.61 dB
Peak : 0.933990
CRC32 hash (test run) : 489E73F7
CRC32 hash : 489E73F7
CRC32 hash (skip zero) : 8E9BB13D
AccurateRip v1 signature : 19F0FD11
AccurateRip v2 signature : E8CCBBD9
->Accurately ripped (v2, confidence 2/2)
Statistics
Read error : 0
Jitter error (maybe fixed) : 0
Retry sector count : 0
Damaged sector count : 0

No errors occurred

End of status report

––-BEGIN XLD SIGNATURE––-
zf0pGvNZWBZ8HuwThC7NwHYjAf_3Zg5yVoZIBReBP_ayO4PDpXTT0BYbUvtH_fl8oXogjFqoRH0j3keUiHGVOSSlWG4z5mt14EJVea8
––-END XLD SIGNATURE––-


X Lossless Decoder version 20211018 (154.0)

XLD extraction logfile from 2022-02-07 14:58:28 -0800

Various Artists / Curses Presents Next Wave Acid Punx [Disc 2 - Chapter 2: Break a Sweat]

Used drive : MATSHITA DVD-R UJ-8A8 (revision HB14)
Media type : Pressed CD

Ripper mode : XLD Secure Ripper
Disable audio cache : OK for the drive with a cache less than 1375KiB
Make use of C2 pointers : NO
Read offset correction : 102
Max retry count : 20
Gap status : Analyzed, Appended (except HTOA)

TOC of the extracted CD
Track | Start | Length | Start sector | End sector
––––––––––––––––––––––––––––-
1 | 00:00:00 | 06:12:23 | 0 | 27922
2 | 06:12:23 | 06:02:06 | 27923 | 55078
3 | 12:14:29 | 06:16:29 | 55079 | 83307
4 | 18:30:58 | 06:28:03 | 83308 | 112410
5 | 24:58:61 | 05:25:52 | 112411 | 136837
6 | 30:24:38 | 07:25:18 | 136838 | 170230
7 | 37:49:56 | 07:30:36 | 170231 | 204016
8 | 45:20:17 | 06:32:63 | 204017 | 233479
9 | 51:53:05 | 04:29:15 | 233480 | 253669
10 | 56:22:20 | 06:14:38 | 253670 | 281757
11 | 62:36:58 | 06:14:46 | 281758 | 309853
12 | 68:51:29 | 08:01:34 | 309854 | 345962

AccurateRip Summary (DiscID: 0021ca84-013c1325-9312040c)
Track 01 : OK (v2, confidence 2/2)
Track 02 : OK (v2, confidence 2/2)
Track 03 : OK (v2, confidence 2/2)
Track 04 : OK (v2, confidence 2/2)
Track 05 : OK (v2, confidence 2/2)
Track 06 : OK (v2, confidence 2/2)
Track 07 : OK (v2, confidence 2/2)
Track 08 : OK (v2, confidence 2/2)
Track 09 : OK (v2, confidence 2/2)
Track 10 : OK (v2, confidence 2/2)
Track 11 : OK (v2, confidence 2/2)
Track 12 : OK (v2, confidence 2/2)
->All tracks accurately ripped.

All Tracks
Album gain : -7.31 dB
Peak : 0.989410
Statistics
Read error : 0
Jitter error (maybe fixed) : 0
Retry sector count : 0
Damaged sector count : 0

Track 01
Filename : /Users/Music Files/Various Artists - Curses Presents Next Wave Acid Punx [Disc 2 - Chapter 2- Break a Sweat] (2021) [FLAC]/01 Francesca (Wild At Heart).flac
Pre-gap length : 00:02:00

Track gain : -7.57 dB
Peak : 0.832703
CRC32 hash (test run) : D03B3ABD
CRC32 hash : D03B3ABD
CRC32 hash (skip zero) : 67C03018
AccurateRip v1 signature : 855446DD
AccurateRip v2 signature : AF47BDD1
->Accurately ripped (v2, confidence 2/2)
Statistics
Read error : 0
Jitter error (maybe fixed) : 0
Retry sector count : 0
Damaged sector count : 0

Track 02
Filename : /Users/Music Files/Various Artists - Curses Presents Next Wave Acid Punx [Disc 2 - Chapter 2- Break a Sweat] (2021) [FLAC]/02 Slow With The Run (Il Est Vilaine Remix).flac

Track gain : -7.36 dB
Peak : 0.989380
CRC32 hash (test run) : 86A7FBA7
CRC32 hash : 86A7FBA7
CRC32 hash (skip zero) : 9024E6E0
AccurateRip v1 signature : 69BE9FFC
AccurateRip v2 signature : D937BA86
->Accurately ripped (v2, confidence 2/2)
Statistics
Read error : 0
Jitter error (maybe fixed) : 0
Retry sector count : 0
Damaged sector count : 0

Track 03
Filename : /Users/Music Files/Various Artists - Curses Presents Next Wave Acid Punx [Disc 2 - Chapter 2- Break a Sweat] (2021) [FLAC]/03 Maxico (Alvee Remix).flac

Track gain : -7.57 dB
Peak : 0.882080
CRC32 hash (test run) : 9132C5DE
CRC32 hash : 9132C5DE
CRC32 hash (skip zero) : 1F5DD9CD
AccurateRip v1 signature : EB89DDBA
AccurateRip v2 signature : DC13D74B
->Accurately ripped (v2, confidence 2/2)
Statistics
Read error : 0
Jitter error (maybe fixed) : 0
Retry sector count : 0
Damaged sector count : 0

Track 04
Filename : /Users/Music Files/Various Artists - Curses Presents Next Wave Acid Punx [Disc 2 - Chapter 2- Break a Sweat] (2021) [FLAC]/04 El Wild.flac

Track gain : -7.42 dB
Peak : 0.989410
CRC32 hash (test run) : 31FF71BE
CRC32 hash : 31FF71BE
CRC32 hash (skip zero) : 3B95BC7D
AccurateRip v1 signature : 65D7E52A
AccurateRip v2 signature : 3810AC38
->Accurately ripped (v2, confidence 2/2)
Statistics
Read error : 0
Jitter error (maybe fixed) : 0
Retry sector count : 0
Damaged sector count : 0

Track 05
Filename : /Users/Music Files/Various Artists - Curses Presents Next Wave Acid Punx [Disc 2 - Chapter 2- Break a Sweat] (2021) [FLAC]/05 Fernandez.flac

Track gain : -6.03 dB
Peak : 0.980408
CRC32 hash (test run) : 47D03D91
CRC32 hash : 47D03D91
CRC32 hash (skip zero) : 5FE28AAC
AccurateRip v1 signature : 41B8046F
AccurateRip v2 signature : 246573F7
->Accurately ripped (v2, confidence 2/2)
Statistics
Read error : 0
Jitter error (maybe fixed) : 0
Retry sector count : 0
Damaged sector count : 0

Track 06
Filename : /Users/Music Files/Various Artists - Curses Presents Next Wave Acid Punx [Disc 2 - Chapter 2- Break a Sweat] (2021) [FLAC]/06 She's Breaking Up.flac

Track gain : -7.07 dB
Peak : 0.911530
CRC32 hash (test run) : 2A4B0022
CRC32 hash : 2A4B0022
CRC32 hash (skip zero) : 703A7F9E
AccurateRip v1 signature : 62B4427E
AccurateRip v2 signature : 6AFEEFB0
->Accurately ripped (v2, confidence 2/2)
Statistics
Read error : 0
Jitter error (maybe fixed) : 0
Retry sector count : 0
Damaged sector count : 0

Track 07
Filename : /Users/Music Files/Various Artists - Curses Presents Next Wave Acid Punx [Disc 2 - Chapter 2- Break a Sweat] (2021) [FLAC]/07 Kronos (Wild Mix).flac

Track gain : -8.24 dB
Peak : 0.944550
CRC32 hash (test run) : 872E1B96
CRC32 hash : 872E1B96
CRC32 hash (skip zero) : 7D57A911
AccurateRip v1 signature : 4E7F316A
AccurateRip v2 signature : 0F2FAF7F
->Accurately ripped (v2, confidence 2/2)
Statistics
Read error : 0
Jitter error (maybe fixed) : 0
Retry sector count : 0
Damaged sector count : 0

Track 08
Filename : /Users/Music Files/Various Artists - Curses Presents Next Wave Acid Punx [Disc 2 - Chapter 2- Break a Sweat] (2021) [FLAC]/08 Viral News.flac

Track gain : -6.58 dB
Peak : 0.855743
CRC32 hash (test run) : BCEFBD89
CRC32 hash : BCEFBD89
CRC32 hash (skip zero) : C983DF0E
AccurateRip v1 signature : F7CD45BF
AccurateRip v2 signature : E63D8C7F
->Accurately ripped (v2, confidence 2/2)
Statistics
Read error : 0
Jitter error (maybe fixed) : 0
Retry sector count : 0
Damaged sector count : 0

Track 09
Filename : /Users/Music Files/Various Artists - Curses Presents Next Wave Acid Punx [Disc 2 - Chapter 2- Break a Sweat] (2021) [FLAC]/09 Totem Echoes (You Man Remix).flac
Pre-gap length : 00:01:50

Track gain : -6.91 dB
Peak : 0.940674
CRC32 hash (test run) : 6B375CBE
CRC32 hash : 6B375CBE
CRC32 hash (skip zero) : 69EDC4AA
AccurateRip v1 signature : 11369D85
AccurateRip v2 signature : 58DEE1E8
->Accurately ripped (v2, confidence 2/2)
Statistics
Read error : 0
Jitter error (maybe fixed) : 0
Retry sector count : 0
Damaged sector count : 0

Track 10
Filename : /Users/Music Files/Various Artists - Curses Presents Next Wave Acid Punx [Disc 2 - Chapter 2- Break a Sweat] (2021) [FLAC]/10 Temple.flac
Pre-gap length : 00:01:07

Track gain : -6.96 dB
Peak : 0.893280
CRC32 hash (test run) : A18FDB94
CRC32 hash : A18FDB94
CRC32 hash (skip zero) : 19954ED0
AccurateRip v1 signature : DB3BD57E
AccurateRip v2 signature : 17E2AE5B
->Accurately ripped (v2, confidence 2/2)
Statistics
Read error : 0
Jitter error (maybe fixed) : 0
Retry sector count : 0
Damaged sector count : 0

Track 11
Filename : /Users/Music Files/Various Artists - Curses Presents Next Wave Acid Punx [Disc 2 - Chapter 2- Break a Sweat] (2021) [FLAC]/11 Ani Cham.flac

Track gain : -7.89 dB
Peak : 0.932648
CRC32 hash (test run) : 66C39B5D
CRC32 hash : 66C39B5D
CRC32 hash (skip zero) : CECBC7CE
AccurateRip v1 signature : 90A5EEDF
AccurateRip v2 signature : B41C8F02
->Accurately ripped (v2, confidence 2/2)
Statistics
Read error : 0
Jitter error (maybe fixed) : 0
Retry sector count : 0
Damaged sector count : 0

Track 12
Filename : /Users/Music Files/Various Artists - Curses Presents Next Wave Acid Punx [Disc 2 - Chapter 2- Break a Sweat] (2021) [FLAC]/12 Electronic Disco (Curses Remix).flac

Track gain : -7.32 dB
Peak : 0.950043
CRC32 hash (test run) : E02536C9
CRC32 hash : E02536C9
CRC32 hash (skip zero) : 7B19862B
AccurateRip v1 signature : 3B214CAB
AccurateRip v2 signature : A3B05B78
->Accurately ripped (v2, confidence 2/2)
Statistics
Read error : 0
Jitter error (maybe fixed) : 0
Retry sector count : 0
Damaged sector count : 0

No errors occurred

End of status report

––-BEGIN XLD SIGNATURE––-
4bErDNBRWcRzohppaWkhFE_3tqYTgcFiVHKsFIQxThf8Fi0CZYsVWNp06nlbU7HNh0N5.X4V1LM6qV_sgMp9U1N4AioEswvrzp2tde8
––-END XLD SIGNATURE––-