Subcategories

The Dead Tones - Deader Than You (2006)

Posted By: TestTickles
The Dead Tones - Deader Than You (2006)

The Dead Tones - Deader Than You (2006)
EAC Rip | FLAC with CUE and log | scans | 204 mb
MP3 CBR 320kbps | RAR | 84 mb
Genre: indie rock, psychobilly

Deader Than You is the 2006 debut album by psychobilly freaks The Dead Tones. The album is a self-released piece.
The Dead Tones are a group of ghouls who play raucous rot'n'roll to the beat of a different drum (voodoo drums to be exact)! Like a rocket ship from Mars, heading towards the sun, the Dead Tones are inspired by all things weird and creepy. Some have said that after a Dead Tones performance, they can no longer feel their limbs and their minds have been dissolved into a zombie-like GHOUL-ash. I predict that this phenomenon wont stop until the Dead Tones are finally sent back to where they came from. Where did they come from? Well, that is a different terror tale all together.

The Dead Tones - Deader Than You (2006)

01. Scream Queen
02. Deader Than You
03. Psycho A Go-Go
04. Sweet Death
05. Teenage Bride Of Frankenstein
06. Haunted
07. Homicide
08. Scarlet Street
09. Rot And Roll
10. Twilight Hour

Andrew See-vocals & upright bass
Jason-guitar and lap steel
Tabitha Adams-organs
J-drums

recorded by Jason Testasecca & Sash House Studios

Exact Audio Copy V0.99 prebeta 4 from 23. January 2008

EAC extraction logfile from 24. August 2009, 6:00

The Dead Tones / Deader Than You

Used drive : TSSTcorpDVD+-RW TS-H653B Adapter: 2 ID: 0

Read mode : Secure
Utilize accurate stream : Yes
Defeat audio cache : Yes
Make use of C2 pointers : No

Read offset correction : 6
Overread into Lead-In and Lead-Out : No
Fill up missing offset samples with silence : Yes
Delete leading and trailing silent blocks : No
Null samples used in CRC calculations : Yes
Used interface : Native Win32 interface for Win NT & 2000
Gap handling : Appended to previous track

Used output format : Internal WAV Routines
Sample format : 44.100 Hz; 16 Bit; Stereo


TOC of the extracted CD

Track | Start | Length | Start sector | End sector
––––––––––––––––––––––––––––-
1 | 0:00.00 | 2:21.69 | 0 | 10643
2 | 2:21.69 | 2:39.13 | 10644 | 22581
3 | 5:01.07 | 2:22.48 | 22582 | 33279
4 | 7:23.55 | 2:32.69 | 33280 | 44748
5 | 9:56.49 | 3:31.36 | 44749 | 60609
6 | 13:28.10 | 2:09.39 | 60610 | 70323
7 | 15:37.49 | 3:03.08 | 70324 | 84056
8 | 18:40.57 | 3:35.46 | 84057 | 100227
9 | 22:16.28 | 2:24.42 | 100228 | 111069
10 | 24:40.70 | 3:09.28 | 111070 | 125272


Track 1

Filename C:\FLAC\The Dead Tones - Deader Than You (2006) [FLAC]\01 - Scream Queen.wav

Pre-gap length 0:00:02.00

Peak level 100.0 %
Track quality 100.0 %
Test CRC 7379F537
Copy CRC 7379F537
Track not present in AccurateRip database
Copy OK

Track 2

Filename C:\FLAC\The Dead Tones - Deader Than You (2006) [FLAC]\02 - Deader Than You.wav

Pre-gap length 0:00:02.00

Peak level 100.0 %
Track quality 100.0 %
Test CRC E0075BAD
Copy CRC E0075BAD
Track not present in AccurateRip database
Copy OK

Track 3

Filename C:\FLAC\The Dead Tones - Deader Than You (2006) [FLAC]\03 - Psycho A Go-Go.wav

Pre-gap length 0:00:02.00

Peak level 99.3 %
Track quality 100.0 %
Test CRC C3BDC066
Copy CRC C3BDC066
Track not present in AccurateRip database
Copy OK

Track 4

Filename C:\FLAC\The Dead Tones - Deader Than You (2006) [FLAC]\04 - Sweet Death.wav

Pre-gap length 0:00:02.00

Peak level 100.0 %
Track quality 100.0 %
Test CRC C3B8581E
Copy CRC C3B8581E
Track not present in AccurateRip database
Copy OK

Track 5

Filename C:\FLAC\The Dead Tones - Deader Than You (2006) [FLAC]\05 - Teenage Bride Of Frankenstein.wav

Pre-gap length 0:00:02.00

Peak level 100.0 %
Track quality 100.0 %
Test CRC A66FF469
Copy CRC A66FF469
Track not present in AccurateRip database
Copy OK

Track 6

Filename C:\FLAC\The Dead Tones - Deader Than You (2006) [FLAC]\06 - Haunted.wav

Pre-gap length 0:00:02.00

Peak level 100.0 %
Track quality 99.9 %
Test CRC 3A350FDD
Copy CRC 3A350FDD
Track not present in AccurateRip database
Copy OK

Track 7

Filename C:\FLAC\The Dead Tones - Deader Than You (2006) [FLAC]\07 - Homicide.wav

Pre-gap length 0:00:02.00

Peak level 100.0 %
Track quality 100.0 %
Test CRC D1DE8443
Copy CRC D1DE8443
Track not present in AccurateRip database
Copy OK

Track 8

Filename C:\FLAC\The Dead Tones - Deader Than You (2006) [FLAC]\08 - Scarlet Street.wav

Pre-gap length 0:00:02.00

Peak level 100.0 %
Track quality 100.0 %
Test CRC 4D7BEBAA
Copy CRC 4D7BEBAA
Track not present in AccurateRip database
Copy OK

Track 9

Filename C:\FLAC\The Dead Tones - Deader Than You (2006) [FLAC]\09 - Rot And Roll.wav

Pre-gap length 0:00:02.00

Peak level 100.0 %
Track quality 100.0 %
Test CRC 80D946D6
Copy CRC 80D946D6
Track not present in AccurateRip database
Copy OK

Track 10

Filename C:\FLAC\The Dead Tones - Deader Than You (2006) [FLAC]\10 - Twilight Hour.wav

Pre-gap length 0:00:02.00

Peak level 100.0 %
Track quality 100.0 %
Test CRC 712704F6
Copy CRC 712704F6
Track not present in AccurateRip database
Copy OK


None of the tracks are present in the AccurateRip database

No errors occurred

End of status report


The Dead Tones - Deader Than You (2006)