Subcategories

Derek & Clive - Ad Nauseam (1978) {1999 Virgin/EMI} **[RE-UP]**

Posted By: TestTickles
Derek & Clive - Ad Nauseam (1978) {1999 Virgin/EMI} **[RE-UP]**

Derek & Clive - Ad Nauseam (1978) {1999 Virgin/EMI}
EAC Rip | FLAC with CUE and log | scans | 241 mb
MP3 CBR 320kbps | RAR | 137 mb
Genre: comedy

Ad Nauseam is the 1978 album by the team of Derek & Clive, better known as British comedic actors Peter Cook and Dudley Moore. This is taken from an Australian CD released in 1999 through Virgin/EMI.

Derek & Clive - Ad Nauseam (1978) {1999 Virgin/EMI} **[RE-UP]**

1. Endangered Species (5:18)
2. Racing (2:43)
3. T.V. (1:23)
4. Bruce (0:42)
5. Records (4:56)
6. Soul Time (1:40)
7. Russia (1:43)
8. Sir (3:02)
9. Celebrity Suicide (2:52)
10. Politics (1:24)
11. Labels (3:07)
12. Street Music (0:36)
13. The Horn (23:15)
14. Mona (3:26)
15. The Critics (3:26)

All tracks written and produced by Peter Cook and Dudley Moore
Engineered by Hugh Padgham

Derek & Clive - Ad Nauseam (1978) {1999 Virgin/EMI} **[RE-UP]**


Exact Audio Copy V1.1 from 23. June 2015

EAC extraction logfile from 18. September 2016, 8:05

Derek & Clive / Ad Nauseam

Used drive : TEAC DVD-ROM DV-28SW Adapter: 1 ID: 0

Read mode : Secure
Utilize accurate stream : Yes
Defeat audio cache : Yes
Make use of C2 pointers : No

Read offset correction : 6
Overread into Lead-In and Lead-Out : No
Fill up missing offset samples with silence : Yes
Delete leading and trailing silent blocks : No
Null samples used in CRC calculations : Yes
Used interface : Native Win32 interface for Win NT & 2000
Gap handling : Appended to previous track

Used output format : Internal WAV Routines
Sample format : 44.100 Hz; 16 Bit; Stereo


TOC of the extracted CD

Track | Start | Length | Start sector | End sector
––––––––––––––––––––––––––––-
1 | 0:00.00 | 5:23.00 | 0 | 24224
2 | 5:23.00 | 2:47.50 | 24225 | 36799
3 | 8:10.50 | 1:27.00 | 36800 | 43324
4 | 9:37.50 | 0:43.55 | 43325 | 46604
5 | 10:21.30 | 5:01.20 | 46605 | 69199
6 | 15:22.50 | 1:44.25 | 69200 | 77024
7 | 17:07.00 | 1:47.12 | 77025 | 85061
8 | 18:54.12 | 3:07.00 | 85062 | 99086
9 | 22:01.12 | 2:58.00 | 99087 | 112436
10 | 24:59.12 | 1:27.63 | 112437 | 119024
11 | 26:27.00 | 3:10.12 | 119025 | 133286
12 | 29:37.12 | 0:37.38 | 133287 | 136099
13 | 30:14.50 | 23:17.37 | 136100 | 240911
14 | 53:32.12 | 3:29.25 | 240912 | 256611
15 | 57:01.37 | 3:30.38 | 256612 | 272399


Track 1

Filename C:\My Documents\My FLAC\Derek & Clive - Ad Nauseam (1978) [FLAC] {1999 Virgin, EMI}\01 - Endangered Species.wav

Pre-gap length 0:00:02.00

Peak level 97.8 %
Extraction speed 2.6 X
Track quality 99.9 %
Test CRC A5D11878
Copy CRC A5D11878
Accurately ripped (confidence 2) [A57D9694] (AR v2)
Copy OK

Track 2

Filename C:\My Documents\My FLAC\Derek & Clive - Ad Nauseam (1978) [FLAC] {1999 Virgin, EMI}\02 - Racing.wav

Pre-gap length 0:00:02.25

Peak level 93.3 %
Extraction speed 2.4 X
Track quality 99.9 %
Test CRC 2A1F2729
Copy CRC 2A1F2729
Accurately ripped (confidence 2) [F4B86245] (AR v2)
Copy OK

Track 3

Filename C:\My Documents\My FLAC\Derek & Clive - Ad Nauseam (1978) [FLAC] {1999 Virgin, EMI}\03 - T.V..wav

Pre-gap length 0:00:02.25

Peak level 86.2 %
Extraction speed 2.6 X
Track quality 100.0 %
Test CRC 43340312
Copy CRC 43340312
Accurately ripped (confidence 2) [184A4646] (AR v2)
Copy OK

Track 4

Filename C:\My Documents\My FLAC\Derek & Clive - Ad Nauseam (1978) [FLAC] {1999 Virgin, EMI}\04 - Bruce.wav

Peak level 63.9 %
Extraction speed 2.1 X
Track quality 100.0 %
Test CRC 4F22E844
Copy CRC 4F22E844
Accurately ripped (confidence 2) [0FAA3D85] (AR v2)
Copy OK

Track 5

Filename C:\My Documents\My FLAC\Derek & Clive - Ad Nauseam (1978) [FLAC] {1999 Virgin, EMI}\05 - Records.wav

Peak level 91.2 %
Extraction speed 3.6 X
Track quality 100.0 %
Test CRC 357E8B29
Copy CRC 357E8B29
Accurately ripped (confidence 2) [D9EF60EC] (AR v2)
Copy OK

Track 6

Filename C:\My Documents\My FLAC\Derek & Clive - Ad Nauseam (1978) [FLAC] {1999 Virgin, EMI}\06 - Soul Time.wav

Pre-gap length 0:00:02.25

Peak level 91.2 %
Extraction speed 3.2 X
Track quality 100.0 %
Test CRC 4F78D56F
Copy CRC 4F78D56F
Accurately ripped (confidence 2) [C689B619] (AR v2)
Copy OK

Track 7

Filename C:\My Documents\My FLAC\Derek & Clive - Ad Nauseam (1978) [FLAC] {1999 Virgin, EMI}\07 - Russia.wav

Pre-gap length 0:00:02.25

Peak level 91.2 %
Extraction speed 3.2 X
Track quality 100.0 %
Test CRC B95E0151
Copy CRC B95E0151
Accurately ripped (confidence 2) [9E5E6652] (AR v2)
Copy OK

Track 8

Filename C:\My Documents\My FLAC\Derek & Clive - Ad Nauseam (1978) [FLAC] {1999 Virgin, EMI}\08 - Sir.wav

Pre-gap length 0:00:02.25

Peak level 91.2 %
Extraction speed 3.8 X
Track quality 100.0 %
Test CRC 1C0E5877
Copy CRC 1C0E5877
Accurately ripped (confidence 2) [071F5789] (AR v2)
Copy OK

Track 9

Filename C:\My Documents\My FLAC\Derek & Clive - Ad Nauseam (1978) [FLAC] {1999 Virgin, EMI}\09 - Celebrity Suicide.wav

Pre-gap length 0:00:02.25

Peak level 87.0 %
Extraction speed 3.9 X
Track quality 100.0 %
Test CRC F3304D8D
Copy CRC F3304D8D
Accurately ripped (confidence 2) [532DD0DB] (AR v2)
Copy OK

Track 10

Filename C:\My Documents\My FLAC\Derek & Clive - Ad Nauseam (1978) [FLAC] {1999 Virgin, EMI}\10 - Politics.wav

Peak level 87.0 %
Extraction speed 3.4 X
Track quality 100.0 %
Test CRC DC515CF3
Copy CRC DC515CF3
Accurately ripped (confidence 2) [C5F0FE96] (AR v2)
Copy OK

Track 11

Filename C:\My Documents\My FLAC\Derek & Clive - Ad Nauseam (1978) [FLAC] {1999 Virgin, EMI}\11 - Labels.wav

Pre-gap length 0:00:02.25

Peak level 83.3 %
Extraction speed 4.1 X
Track quality 100.0 %
Test CRC D5AAB848
Copy CRC D5AAB848
Accurately ripped (confidence 2) [88E56C80] (AR v2)
Copy OK

Track 12

Filename C:\My Documents\My FLAC\Derek & Clive - Ad Nauseam (1978) [FLAC] {1999 Virgin, EMI}\12 - Street Music.wav

Pre-gap length 0:00:01.25

Peak level 39.7 %
Extraction speed 1.4 X
Track quality 99.7 %
Test CRC 845707A6
Copy CRC 845707A6
Accurately ripped (confidence 2) [50A0A0D9] (AR v2)
Copy OK

Track 13

Filename C:\My Documents\My FLAC\Derek & Clive - Ad Nauseam (1978) [FLAC] {1999 Virgin, EMI}\13 - The Horn.wav

Peak level 91.2 %
Extraction speed 4.7 X
Track quality 100.0 %
Test CRC E8D0768E
Copy CRC E8D0768E
Accurately ripped (confidence 2) [AEB140CF] (AR v2)
Copy OK

Track 14

Filename C:\My Documents\My FLAC\Derek & Clive - Ad Nauseam (1978) [FLAC] {1999 Virgin, EMI}\14 - Mona.wav

Pre-gap length 0:00:03.25

Peak level 91.1 %
Extraction speed 0.6 X
Track quality 100.0 %
Test CRC FB718E57
Copy CRC FB718E57
Accurately ripped (confidence 2) [512E87AA] (AR v2)
Copy OK

Track 15

Filename C:\My Documents\My FLAC\Derek & Clive - Ad Nauseam (1978) [FLAC] {1999 Virgin, EMI}\15 - The Critics.wav

Peak level 87.7 %
Extraction speed 4.1 X
Track quality 99.9 %
Test CRC 966C0B0B
Copy CRC 966C0B0B
Accurately ripped (confidence 2) [C0724739] (AR v2)
Copy OK


All tracks accurately ripped

No errors occurred

End of status report

–– CUETools DB Plugin V2.1.6

[CTDB TOCID: GGQYfRK7dPKMO2ix6vbqScmZqNo-] found
Submit result: GGQYfRK7dPKMO2ix6vbqScmZqNo- has been confirmed
Track | CTDB Status
1 | (6/6) Accurately ripped
2 | (6/6) Accurately ripped
3 | (6/6) Accurately ripped
4 | (6/6) Accurately ripped
5 | (6/6) Accurately ripped
6 | (6/6) Accurately ripped
7 | (6/6) Accurately ripped
8 | (6/6) Accurately ripped
9 | (6/6) Accurately ripped
10 | (6/6) Accurately ripped
11 | (6/6) Accurately ripped
12 | (6/6) Accurately ripped
13 | (6/6) Accurately ripped
14 | (6/6) Accurately ripped
15 | (6/6) Accurately ripped


==== Log checksum CE78AB347D98B563A36AE52A5B94475ABEC7B46607769FECAFAC369090DD7381 ====


Derek & Clive - Ad Nauseam (1978) {1999 Virgin/EMI} **[RE-UP]**