Subcategories

The David Finck Quartet - Future Day (2008) {Soundbrush}

Posted By: TestTickles
The David Finck Quartet - Future Day (2008) {Soundbrush}

The David Finck Quartet - Future Day (2008) {Soundbrush}
EAC Rip | FLAC with CUE and log | scans | 386 mb
MP3 CBR 320kbps | RAR | 155 mb
Genre: jazz

Future Day is the 2008 album by The David Finck Quartet. Powerful music on this one, which comes through via Soundbrush Records.

The David Finck Quartet - Future Day (2008) {Soundbrush}

01. I Know
02. New Valley
03. Nature Boy
04. Four Flags
05. Ballad For A Future Day
06. Black Eyes
07. Look At You
08. For All We Know
09. If Not For You
10. Appointment In Orvieto
11. Transparency
12. Firm Roots

David Finck-bass
Joe Locke-vibes
Tom Ranier-piano
Joe La Barbera-drums

Jeremy Pelt-trumpet
Bob Sheppard-tenor saxophone

Produced by David Finck
Recording engineer: Darwin Best
Mastered by Leon Zervos

The David Finck Quartet - Future Day (2008) {Soundbrush}


Exact Audio Copy V1.0 beta 6 from 9. April 2015

EAC extraction logfile from 21. November 2017, 14:45

The David Finck Quartet / Future Day

Used drive : TSSTcorpDVD+-RW TS-L633C Adapter: 1 ID: 0

Read mode : Burst

Read offset correction : 6
Overread into Lead-In and Lead-Out : No
Fill up missing offset samples with silence : Yes
Delete leading and trailing silent blocks : No
Null samples used in CRC calculations : Yes
Used interface : Native Win32 interface for Win NT & 2000
Gap handling : Appended to previous track

Used output format : Internal WAV Routines
Sample format : 44.100 Hz; 16 Bit; Stereo


TOC of the extracted CD

Track | Start | Length | Start sector | End sector
––––––––––––––––––––––––––––-
1 | 0:00.00 | 4:47.45 | 0 | 21569
2 | 4:47.45 | 4:28.67 | 21570 | 41736
3 | 9:16.37 | 4:24.55 | 41737 | 61591
4 | 13:41.17 | 2:34.67 | 61592 | 73208
5 | 16:16.09 | 4:23.56 | 73209 | 92989
6 | 20:39.65 | 5:44.13 | 92990 | 118802
7 | 26:24.03 | 4:14.08 | 118803 | 137860
8 | 30:38.11 | 6:05.48 | 137861 | 165283
9 | 36:43.59 | 4:52.46 | 165284 | 187229
10 | 41:36.30 | 5:30.49 | 187230 | 212028
11 | 47:07.04 | 4:31.05 | 212029 | 232358
12 | 51:38.09 | 4:51.10 | 232359 | 254193


Track 1

Filename C:\My Documents\My FLAC\The David Finck Quartet - Future Day (2008) [FLAC] {Soundbrush}\01 - I Know.wav

Pre-gap length 0:00:02.00

Peak level 99.3 %
Extraction speed 10.4 X
Test CRC F1D15409
Copy CRC F1D15409
Accurately ripped (confidence 2) [FBE89078] (AR v1)
Copy OK

Track 2

Filename C:\My Documents\My FLAC\The David Finck Quartet - Future Day (2008) [FLAC] {Soundbrush}\02 - New Valley.wav

Pre-gap length 0:00:04.62

Timing problem 0:03:26
Timing problem 0:04:24

Peak level 88.7 %
Extraction speed 11.7 X
Test CRC 84202B5B
Copy CRC 84202B5B
Accurately ripped (confidence 2) [20CC94A7] (AR v1)
Copy finished

Track 3

Filename C:\My Documents\My FLAC\The David Finck Quartet - Future Day (2008) [FLAC] {Soundbrush}\03 - Nature Boy.wav

Pre-gap length 0:00:03.74

Timing problem 0:00:07

Peak level 97.1 %
Extraction speed 12.8 X
Test CRC B3323AD3
Copy CRC B3323AD3
Accurately ripped (confidence 2) [73762C2E] (AR v1)
Copy finished

Track 4

Filename C:\My Documents\My FLAC\The David Finck Quartet - Future Day (2008) [FLAC] {Soundbrush}\04 - Four Flags.wav

Pre-gap length 0:00:05.01

Peak level 93.0 %
Extraction speed 13.5 X
Test CRC BA67DF5B
Copy CRC BA67DF5B
Accurately ripped (confidence 2) [C414C050] (AR v1)
Copy OK

Track 5

Filename C:\My Documents\My FLAC\The David Finck Quartet - Future Day (2008) [FLAC] {Soundbrush}\05 - Ballad For A Future Day.wav

Pre-gap length 0:00:04.58

Peak level 89.4 %
Extraction speed 14.3 X
Test CRC B6253D2F
Copy CRC B6253D2F
Accurately ripped (confidence 2) [76FBD512] (AR v1)
Copy OK

Track 6

Filename C:\My Documents\My FLAC\The David Finck Quartet - Future Day (2008) [FLAC] {Soundbrush}\06 - Black Eyes.wav

Pre-gap length 0:00:03.74

Peak level 95.8 %
Extraction speed 15.4 X
Test CRC 86D34BB7
Copy CRC 86D34BB7
Accurately ripped (confidence 2) [35CC415E] (AR v1)
Copy OK

Track 7

Filename C:\My Documents\My FLAC\The David Finck Quartet - Future Day (2008) [FLAC] {Soundbrush}\07 - Look At You.wav

Pre-gap length 0:00:03.74

Peak level 98.6 %
Extraction speed 16.3 X
Test CRC A7658999
Copy CRC A7658999
Accurately ripped (confidence 2) [C31FCF9B] (AR v1)
Copy OK

Track 8

Filename C:\My Documents\My FLAC\The David Finck Quartet - Future Day (2008) [FLAC] {Soundbrush}\08 - For All We Know.wav

Pre-gap length 0:00:03.59

Peak level 89.6 %
Extraction speed 17.2 X
Test CRC CD093D97
Copy CRC CD093D97
Accurately ripped (confidence 2) [04E1920E] (AR v1)
Copy OK

Track 9

Filename C:\My Documents\My FLAC\The David Finck Quartet - Future Day (2008) [FLAC] {Soundbrush}\09 - If Not For You.wav

Pre-gap length 0:00:03.12

Timing problem 0:02:35

Peak level 94.1 %
Extraction speed 16.6 X
Test CRC CC5CDA38
Copy CRC CC5CDA38
Accurately ripped (confidence 2) [6D18EAA4] (AR v1)
Copy finished

Track 10

Filename C:\My Documents\My FLAC\The David Finck Quartet - Future Day (2008) [FLAC] {Soundbrush}\10 - Appointment In Orvieto.wav

Pre-gap length 0:00:05.23

Peak level 95.4 %
Extraction speed 18.9 X
Test CRC 9303C6E9
Copy CRC 9303C6E9
Accurately ripped (confidence 2) [5BB556AD] (AR v1)
Copy OK

Track 11

Filename C:\My Documents\My FLAC\The David Finck Quartet - Future Day (2008) [FLAC] {Soundbrush}\11 - Transparency.wav

Pre-gap length 0:00:04.69

Timing problem 0:03:35
Timing problem 0:04:06

Peak level 94.7 %
Extraction speed 19.0 X
Test CRC 95678CDE
Copy CRC 95678CDE
Accurately ripped (confidence 2) [DF6A06F7] (AR v1)
Copy finished

Track 12

Filename C:\My Documents\My FLAC\The David Finck Quartet - Future Day (2008) [FLAC] {Soundbrush}\12 - Firm Roots.wav

Pre-gap length 0:00:04.54

Peak level 92.7 %
Extraction speed 20.5 X
Test CRC 0B053831
Copy CRC 0B053831
Accurately ripped (confidence 2) [1953B0C4] (AR v1)
Copy OK


All tracks accurately ripped

No errors occurred

End of status report

–– CUETools DB Plugin V2.1.6

[CTDB TOCID: L7h7XkqqCySeLIMWxLD9112qA2o-] found
Submit result: L7h7XkqqCySeLIMWxLD9112qA2o- has been confirmed
Track | CTDB Status
1 | (2/2) Accurately ripped
2 | (2/2) Accurately ripped
3 | (2/2) Accurately ripped
4 | (2/2) Accurately ripped
5 | (2/2) Accurately ripped
6 | (2/2) Accurately ripped
7 | (2/2) Accurately ripped
8 | (2/2) Accurately ripped
9 | (2/2) Accurately ripped
10 | (2/2) Accurately ripped
11 | (2/2) Accurately ripped
12 | (2/2) Accurately ripped


==== Log checksum 7DF1DF1E243BD4A6DA27F069447BFE55EEEE891BFAF34ED4521162A848DCB79E ====


The David Finck Quartet - Future Day (2008) {Soundbrush}