Subcategories

David Rosenboom - Brainwave Music (1975) {2006 EM}

Posted By: TestTickles
David Rosenboom - Brainwave Music (1975) {2006 EM}

David Rosenboom - Brainwave Music (1975) {2006 EM}
EAC Rip | FLAC with CUE and LOG | scans | 286 mb
MP3 CBR 320 kbps | RAR | 129 mb
Genre: experimental

Brainwave Music is a 1975 album by David Rosenboom. This was remastered and reissued in 2006 by the EM label in Japan.

1. Portable Gold And Philosophers' Stones (18:36)
2. Chilean Drought (8:02)
3. Piano Etude I (Alpha) (13:45)
4. Four Lines (Two High) (17:15)

Tracks 1 to 3 originally released on LP by A.R.C. Records as #ST1002.
Track 4 is a previously unreleased bonus track from 2001

Recorded at The Roundhouse
Recorded at York University Electronic Media Studios
Recorded at Warehouse Recording Studios
Recorded at Engine 27

Remastered by Koichi Hara, assisted by Koki Emura

X Lossless Decoder version 20080926 (93.3)

XLD extraction logfile from 2009-01-04 23:50:10 -0800

David Rosenboom / Brainwave Music

Used drive : MATSHITA DVD-R UJ-846 (revision FAAG)

Use cdparanoia mode : YES (CDParanoia III 10.2 engine)
Disable audio cache : OK for the drive with cache less than 2750KB
Make use of C2 pointers : YES
Read offset correction : 102
Max retry count : 100

TOC of the extracted CD
Track | Start | Length | Start sector | End sector
––––––––––––––––––––––––––––-
1 | 00:00:00 | 18:43:12 | 0 | 84236
2 | 18:43:12 | 08:05:14 | 84237 | 120625
3 | 26:48:26 | 13:49:11 | 120626 | 182811
4 | 40:37:37 | 17:16:49 | 182812 | 260560

All Tracks
Album gain : -6.07 dB
Peak : 0.988647
Track 01
Filename : C:/cuntfist/wav/David Rosenboom - Brainwave Music (1975) [wav] {2006 EM}/01 - Portable Gold and Philosophers' Stones (Music from Brains in Fours).wav

Track gain : -4.89 dB
Peak : 0.988647
CRC32 hash (test run) : BE774596
CRC32 hash : BE774596
CRC32 hash (skip zero) : 72E024FE
AccurateRip signature : FA0CBC1F
->Track not present in AccurateRip database.
Statistics
Read error : 0
Skipped (treated as error) : 0
Edge jitter error (maybe fixed) : 0
Atom jitter error (maybe fixed) : 0
Drift error (maybe fixed) : 0
Dropped bytes error (maybe fixed) : 0
Duplicated bytes error (maybe fixed) : 0
Inconsistency in error sectors : 0

Track 02
Filename : C:/cuntfist/wav/David Rosenboom - Brainwave Music (1975) [wav] {2006 EM}/02 - Chilean Drought.wav

Track gain : -3.09 dB
Peak : 0.965881
CRC32 hash (test run) : 062967E0
CRC32 hash : 062967E0
CRC32 hash (skip zero) : CFB3F271
AccurateRip signature : 35EF5E2B
->Track not present in AccurateRip database.
Statistics
Read error : 0
Skipped (treated as error) : 0
Edge jitter error (maybe fixed) : 0
Atom jitter error (maybe fixed) : 0
Drift error (maybe fixed) : 0
Dropped bytes error (maybe fixed) : 0
Duplicated bytes error (maybe fixed) : 0
Inconsistency in error sectors : 0

Track 03
Filename : C:/cuntfist/wav/David Rosenboom - Brainwave Music (1975) [wav] {2006 EM}/03 - Piano Etude I (Alpha).wav

Track gain : -6.00 dB
Peak : 0.988586
CRC32 hash (test run) : 22E9C880
CRC32 hash : 22E9C880
CRC32 hash (skip zero) : 05E016AA
AccurateRip signature : 04468C03
->Track not present in AccurateRip database.
Statistics
Read error : 0
Skipped (treated as error) : 0
Edge jitter error (maybe fixed) : 0
Atom jitter error (maybe fixed) : 0
Drift error (maybe fixed) : 0
Dropped bytes error (maybe fixed) : 0
Duplicated bytes error (maybe fixed) : 0
Inconsistency in error sectors : 0

Track 04
Filename : C:/cuntfist/wav/David Rosenboom - Brainwave Music (1975) [wav] {2006 EM}/04 - Four Lines (Two High).wav

Track gain : -7.51 dB
Peak : 0.510193
CRC32 hash (test run) : 1F5A458F
CRC32 hash : 1F5A458F
CRC32 hash (skip zero) : CA3CE2F2
AccurateRip signature : 62C8445E
->Track not present in AccurateRip database.
Statistics
Read error : 0
Skipped (treated as error) : 0
Edge jitter error (maybe fixed) : 0
Atom jitter error (maybe fixed) : 0
Drift error (maybe fixed) : 0
Dropped bytes error (maybe fixed) : 0
Duplicated bytes error (maybe fixed) : 0
Inconsistency in error sectors : 0

No errors occurred

End of status report


David Rosenboom - Brainwave Music (1975) {2006 EM}


Thank you to the original uploader.