Subcategories

Duke Ellington - Festival Session (1959) {2004 Legacy Edition} **[RE-UP]**

Posted By: TestTickles
Duke Ellington - Festival Session (1959) {2004 Legacy Edition} **[RE-UP]**

Duke Ellington - Festival Session (1959) {2004 Legacy Edition}
EAC Rip | FLAC with CUE and log | scans | 389 mb
MP3 CBR 320kbps | RAR | 164 mb
Genre: jazz

Festival Session is the 1959 album by Duke Ellington. This is taken from the 2004 Legacy Edition released on 17 February, 2004.
Festival Session is the third in a trio of remastered and reconfigured Columbia releases to the Legacy imprint. The other two are Ellington Uptown and Masterpieces by Ellington, both worthy of purchase considering the amount of reconstruction and updating the releases have undergone since the 1950s. All three recordings are comprised of old and new songs. Festival Session was recorded following a successful series of festivals the Ellington Band had performed in the summer of 1959. In addition to the tried and true ("Perdido" and "Things Ain't What They Used to Be"), Ellington offers some experimental suites in "Duael Fuel," which was composed to 1959's concert season, highlights two Ellington drummers, Sam Woodyard and Jimmy Johnson. The suite "Idiom '59" spotlights the clarinets, Russell Procope and Jimmy Hamilton.

"Copout Extension" allows Paul Gonsalves room to stretch out in comfort. The recently restored "V.I.P.s Boogie" features Harry Carney?s warm baritone and the Jimmy Hamilton?s clarinet again. "Things?" features Johnny Hodges. All performances are essential Ellington and make you realize that in jazz, giants did walk the earth.

Duke Ellington - Festival Session (1959) {2004 Legacy Edition} **[RE-UP]**

01. Perdido
02. Copout Extension
03. Duael Fuel - Part I
04. Duael Fuel - Part II
05. Duael Fuel - Part III
06. Idiom '59 - Part I
07. Idiom '59 - Part II
08. Idiom '59 - Part III
09. Things Ain't What They Used To Be
10. Launching Pad

BONUS TRACKS
11. V.I.P.'s Boogie
12. Jam With Sam

Duke Ellington (arranger, piano)
Russell Procope (alto saxophone, clarinet)
Johnny Hodges (alto saxophone)
Jimmy Hamilton (tenor saxophone, clarinet)
Paul Gonsalves (tenor saxophone)
Harry Carney (baritone saxophone, bass clarinet)
Cat Anderson, Harold "Shorty" Baker, Willie Cook, Andres Merenghito, Ray Nance, Clark Terry (trumpet)
Quentin Jackson (trombone, bass)
Britt Woodman, John Sanders (trombone)
Jimmy Woode, Joe Benjamin (bass)
Sam Woodyard, Jimmy Johnson (drums)

Recorded at Columbia's 30th St. Studio, New York, New York on September 8, 1959

EAC extraction logfile from 18. April 2006, 15:41 for CD
Duke Ellington & His Orchestra / Festival Session

Used drive : LITE-ON DVDRW SOHW-1633S Adapter: 0 ID: 0
Read mode : Secure with NO C2, accurate stream, disable cache
Read offset correction : 12
Overread into Lead-In and Lead-Out : No

Used output format : Internal WAV Routines
44.100 Hz; 16 Bit; Stereo

Other options :
Fill up missing offset samples with silence : Yes
Delete leading and trailing silent blocks : No
Installed external ASPI interface


Track 1
Filename D:\FLAC\Duke Ellington - Festival Session (1959) [FLAC]\01 - Perdido.wav

Pre-gap length 0:00:02.00

Peak level 96.3 %
Track quality 99.9 %
Test CRC 0E7AB4B2
Copy CRC 0E7AB4B2
Copy OK

Track 2
Filename D:\FLAC\Duke Ellington - Festival Session (1959) [FLAC]\02 - Copout Extension.wav

Pre-gap length 0:00:01.70

Peak level 99.9 %
Track quality 100.0 %
Test CRC 720B28F1
Copy CRC 720B28F1
Copy OK

Track 3
Filename D:\FLAC\Duke Ellington - Festival Session (1959) [FLAC]\03 - Duael Fuel - Part I.wav

Pre-gap length 0:00:02.60

Peak level 99.8 %
Track quality 99.9 %
Test CRC F2B70A2A
Copy CRC F2B70A2A
Copy OK

Track 4
Filename D:\FLAC\Duke Ellington - Festival Session (1959) [FLAC]\04 - Duael Fuel - Part II.wav

Peak level 100.0 %
Track quality 100.0 %
Test CRC D7FD39A7
Copy CRC D7FD39A7
Copy OK

Track 5
Filename D:\FLAC\Duke Ellington - Festival Session (1959) [FLAC]\05 - Duael Fuel - Part III.wav

Peak level 100.0 %
Track quality 100.0 %
Test CRC 866ACEB4
Copy CRC 866ACEB4
Copy OK

Track 6
Filename D:\FLAC\Duke Ellington - Festival Session (1959) [FLAC]\06 - Idiom '59 - Part I.wav

Pre-gap length 0:00:01.57

Peak level 66.8 %
Track quality 100.0 %
Test CRC 028A1172
Copy CRC 028A1172
Copy OK

Track 7
Filename D:\FLAC\Duke Ellington - Festival Session (1959) [FLAC]\07 - Idiom '59 - Part II.wav

Peak level 81.0 %
Track quality 100.0 %
Test CRC FEAE4D1C
Copy CRC FEAE4D1C
Copy OK

Track 8
Filename D:\FLAC\Duke Ellington - Festival Session (1959) [FLAC]\08 - Idiom '59 - Part III.wav

Peak level 99.9 %
Track quality 99.9 %
Test CRC E6B8922B
Copy CRC E6B8922B
Copy OK

Track 9
Filename D:\FLAC\Duke Ellington - Festival Session (1959) [FLAC]\09 - Things Ain't What They Used To Be.wav

Pre-gap length 0:00:02.86

Peak level 97.7 %
Track quality 100.0 %
Test CRC 027BA85E
Copy CRC 027BA85E
Copy OK

Track 10
Filename D:\FLAC\Duke Ellington - Festival Session (1959) [FLAC]\10 - Launching Pad.wav

Pre-gap length 0:00:03.00

Peak level 99.9 %
Track quality 100.0 %
Test CRC 1FE96AFE
Copy CRC 1FE96AFE
Copy OK

Track 11
Filename D:\FLAC\Duke Ellington - Festival Session (1959) [FLAC]\11 - V.I.P.'s Boogie.wav

Pre-gap length 0:00:01.09

Peak level 89.1 %
Track quality 100.0 %
Test CRC 2EBCD7D2
Copy CRC 2EBCD7D2
Copy OK

Track 12
Filename D:\FLAC\Duke Ellington - Festival Session (1959) [FLAC]\12 - Jam With Sam.wav

Pre-gap length 0:00:01.00

Peak level 89.1 %
Track quality 100.0 %
Test CRC F84413DB
Copy CRC F84413DB
Copy OK

No errors occured


End of status report



Duke Ellington - Festival Session (1959) {2004 Legacy Edition} **[RE-UP]**