Subcategories

Daal - Decalogue of Darkness (2018)

Posted By: gribovar
Daal - Decalogue of Darkness (2018)

Daal - Decalogue of Darkness (2018)
EAC Rip | FLAC (image+.cue+log) - 385 MB | MP3 CBR 320 kbps (LAME 3.93) - 167 MB | Covers - 337 MB
Genre: Instrumental Progressive Rock | RAR 3% Rec. | Label: Agla Records (Agla CD 010)

After 4 years of silence, the dynamic duo of Davide Guidoni and Alfio Costa , known as Daal have reappeared with a couple of albums, "Decalogue of Darkness" and the "Navels Falling into a Living Origami", two more monuments of modern progressive experimentation that stretches the sonic boundaries once again. This is not neo, symphonic, or RPI but a rather strange brew of synthesized electronics, percussive propulsion and dreamy configurations that surely define, after a lengthy and high quality discography, their own place in the progressive music universe. Davide is one of the premier drummers in the world, a masterful craftsman who has adorned many significant Italian prog albums, while Alfio has made his name with Prowlers and Tilion.
"Decalogue of Darkness" offers up quite a panorama of mind-music compositions, laced with imagination and substance, the dynamic duo adding guitarist extraordinaire Ettore Salati (RedZen, Soulengine, The Watch among many others) and Prowlers alumnus Bobo Aiolfi on bass to the mix. The entirely instrumental work has strong melancholic tendencies , at times eerie and spectral, yet always on the verge of experimentation. There are some definite King Crimson moments everywhere, with vast mellotron swaths that breathe dense clouds into the forlorn piano musings, deft cymbal work that rekindles images of vintage Bruford and the guitars often Fripping amazing as on the blistering track Chapter 8.

Tracklist:
01. Chapter I
02. Chapter II
03. Chapter III
04. Chapter IV
05. Chapter V
06. Chapter VI
07. Chapter VII
08. Chapter VIII
09. Chapter IX
10. Chapter X

Total time: 01:10:55

Exact Audio Copy V1.3 from 2. September 2016

Отчёт EAC об извлечении, выполненном 6. декабря 2018, 17:40

Daal / Decalogue of Darkness

Дисковод: HL-DT-STDVDRAM GT70N Adapter: 1 ID: 0

Режим чтения : Достоверность
Использование точного потока : Да
Отключение кэша аудио : Да
Использование указателей C2 : Нет

Коррекция смещения при чтении : 103
Способность читать области Lead-in и Lead-out : Нет
Заполнение пропущенных сэмплов тишиной : Да
Удаление блоков с тишиной в начале и конце : Нет
При вычислениях CRC использовались нулевые сэмплы : Да
Интерфейс : Встроенный Win32-интерфейс для Win NT/2000

Выходной формат : Пользовательский кодировщик
Выбранный битрейт : 768 kBit/s
Качество : Высокий
Добавление ID3-тега : Нет
Утилита сжатия : C:\Program Files (x86)\Exact Audio Copy\Flac\flac.exe
Дополнительные параметры : -V -8 -T "Date=%year%" -T "Genre=%genre%" %source%


TOC извлечённого CD

Трек | Старт | Длительность | Начальный сектор | Конечный сектор
––––––––––––––––––––––––––––––––––-
1 | 0:00.00 | 6:20.15 | 0 | 28514
2 | 6:20.15 | 16:24.42 | 28515 | 102356
3 | 22:44.57 | 4:34.30 | 102357 | 122936
4 | 27:19.12 | 6:06.45 | 122937 | 150431
5 | 33:25.57 | 4:48.43 | 150432 | 172074
6 | 38:14.25 | 5:04.07 | 172075 | 194881
7 | 43:18.32 | 4:23.40 | 194882 | 214646
8 | 47:41.72 | 8:34.49 | 214647 | 253245
9 | 56:16.46 | 4:18.00 | 253246 | 272595
10 | 60:34.46 | 10:20.39 | 272596 | 319134


Характеристики диапазона извлечения и сообщения об ошибках

Выбранный диапазон

Имя файла C:\Users\Oleg1\Desktop\Daal - Decalogue of Darkness.wav

Пиковый уровень 96.6 %
Скорость извлечения 5.2 X
Качество диапазона 100.0 %
CRC теста 564E7F0F
CRC копии 564E7F0F
Копирование… OK

Ошибок не произошло


AccurateRip: сводка

Трек 1 отсутствует в базе данных
Трек 2 отсутствует в базе данных
Трек 3 отсутствует в базе данных
Трек 4 отсутствует в базе данных
Трек 5 отсутствует в базе данных
Трек 6 отсутствует в базе данных
Трек 7 отсутствует в базе данных
Трек 8 отсутствует в базе данных
Трек 9 отсутствует в базе данных
Трек 10 отсутствует в базе данных

Ни одного трека нет в базе AccurateRip

Конец отчёта

==== Контрольная сумма отчёта AD1B00F5A1BE71E60435242F6F195393D77AF4786415BB2EF7233D1B529EBC8C ====

[CUETools log; Date: 06.12.2018 20:41:52; Version: 2.1.4]
[CTDB TOCID: ryzxz_Ksep_rjmF.Wz3ZrYm8fcw-] found.
Track | CTDB Status
1 | (1/1) Accurately ripped
2 | (1/1) Accurately ripped
3 | (1/1) Accurately ripped
4 | (1/1) Accurately ripped
5 | (1/1) Accurately ripped
6 | (1/1) Accurately ripped
7 | (1/1) Accurately ripped
8 | (1/1) Accurately ripped
9 | (1/1) Accurately ripped
10 | (1/1) Accurately ripped
[AccurateRip ID: 001befa6-00d93f1d-89109f0a] disk not present in database.

Track Peak [ CRC32 ] [W/O NULL] [ LOG ]
– 96,6 [564E7F0F] [E61ECEF0] CRC32
01 91,5 [8D14456D] [62067879]
02 96,6 [F18F35EC] [32989447]
03 83,2 [5F5948B6] [414F0A09]
04 96,6 [F2180B95] [8F0EEEA5]
05 86,0 [E0FF9C85] [A1AE2866]
06 88,5 [6B8C8F42] [12F63449]
07 75,9 [582C38CC] [E4051826]
08 89,5 [01B5FA91] [47743F6D]
09 40,4 [B31C4613] [11611440]
10 87,0 [1C8D6B0C] [432408A2]

Thanks to verbiya

See also:
Daal - 3 Studio Albums (2009-2012)
Daal - Echoes [EP] (2012)
Daal - The Call of the Witches [EP] (2012)
Daal - Dances of the Drastic Navels (2014)
Daal - Navels Falling into a Living Origami (2018)