Subcategories

Daddy Mack Blues Band - Pay The Piper (2012)

Posted By: jclane
Daddy Mack Blues Band - Pay The Piper (2012)

Daddy Mack Blues Band - Pay The Piper (2012)
EAC Rip | FLAC Image + Cue + Log | Complete Scans Included | 339 MB
MP3 CBR @320 kbps (LAME 3.99) | Joint Stereo | 130 MB
Inside Sounds | ISC-0539 | Blues | RAR 3% Recovery

Pay The Piper is Daddy Mack Blues Band's fifth CD and features the charismatic Daddy Mack Orr in fine form. Opening with "Showtime," he confidently introduces the band, asking the listener to "sing along" while a soulful horn section jabs and swells throughout the track. "Best In Town" continues the light mood and includes a searing harmonica solo by special guest Billy Gibson. The band slows it down for track three, "Como," a song referencing Daddy Mack's childhood home in Mississippi. The CD takes on a more serious tone on the title track. The band is super tight and funky while Daddy Mack sings and plays lead guitar like a man who's seen it all. On tracks like "Workin' Man" and "Black & Blue," the theme of struggle continues. While "Woman Do Right" is the quintessential blues song about a misguided woman, "Let's Get Together" is an unusual, slow blues with Billy Gibson on chromatic harp. "Sugar Daddy" is co-penned by Mack and is absolute, unadulterated fun! "Of Blues I Sing," co-written by rhythm guitarist James Bonner, features an inspiring performance by Daddy Mack on vocals and guitar. Bonner is heard as lead vocalist for the first time on CD on "Trickle Down Blues," an entertaining song with a keen economic/political perspective. The CD closes with "If We Never Meet Again," a beautiful soul ballad, simple and honest.

Amazon

Track Listing:

01. Showtime - 4:05
02. Best In Town - 3:30
03. Como - 5:09
04. Pay The Piper - 4:59
05. Workin' Man - 2:58
06. Let's Get Together - 4:59
07. Sugar Daddy - 4:50
08. Black & Blue - 3:10
09. Trickle Down Blues - 3:25
10. Woman Do Right - 4:14
11. Of Blues I Sing - 6:24
12. If We Never Meet Again - 2:35


Exact Audio Copy V0.99 prebeta 4 from 23. January 2008

Отчёт EAC об извлечении, выполненном 21. марта 2012, 22:34

Daddy Mack Blues Band / Pay The Piper

Дисковод: PLEXTOR DVDR PX-880SA Adapter: 1 ID: 1

Режим чтения : Достоверность
Использование точного потока : Да
Отключение кэша аудио : Да
Использование указателей C2 : Нет

Коррекция смещения при чтении : 6
Способность читать области Lead-in и Lead-out : Нет
Заполнение пропущенных сэмплов тишиной : Да
Удаление блоков с тишиной в начале и конце : Нет
При вычислениях CRC использовались нулевые сэмплы : Да
Интерфейс : Встроенный Win32-интерфейс для Win NT/2000

Выходной формат : Пользовательский кодировщик
Выбранный битрейт : 1024 kBit/s
Качество : Высокий
Добавление ID3-тэга : Нет
Утилита сжатия : C:\Program Files\Exact Audio Copy\FLAC\FLAC.EXE
Дополнительные параметры : -6 -V -T "ARTIST=%a" -T "TITLE=%t" -T "ALBUM=%g" -T "DATE=%y" -T "TRACKNUMBER=%n" -T "GENRE=%m" -T "COMMENT=%e" %s -o %d

TOC извлечённого CD

Трек | Старт | Длительность | Начальный сектор | Конечный сектор
––––––––––––––––––––––––––––––––––-
1 | 0:00.00 | 4:05.17 | 0 | 18391
2 | 4:05.17 | 3:30.18 | 18392 | 34159
3 | 7:35.35 | 5:09.47 | 34160 | 57381
4 | 12:45.07 | 4:59.43 | 57382 | 79849
5 | 17:44.50 | 2:58.17 | 79850 | 93216
6 | 20:42.67 | 4:59.03 | 93217 | 115644
7 | 25:41.70 | 4:50.27 | 115645 | 137421
8 | 30:32.22 | 3:10.13 | 137422 | 151684
9 | 33:42.35 | 3:25.17 | 151685 | 167076
10 | 37:07.52 | 4:14.03 | 167077 | 186129
11 | 41:21.55 | 6:24.30 | 186130 | 214959
12 | 47:46.10 | 2:35.67 | 214960 | 226651

Характеристики диапазона извлечения и сообщения об ошибках

Выбранный диапазон

Имя файла J:\BitComet\Daddy Mack Blues Band(flac)\2012 - Pay The Piper\Daddy Mack Blues Band - Pay The Piper.wav

Пиковый уровень 100.0 %
Качество диапазона 100.0 %
CRC теста 49A97D65
CRC копии 49A97D65
Копирование… OK

Ошибок не произошло

AccurateRip: сводка

Трек 1 нет в базе данных
Трек 2 нет в базе данных
Трек 3 нет в базе данных
Трек 4 нет в базе данных
Трек 5 нет в базе данных
Трек 6 нет в базе данных
Трек 7 нет в базе данных
Трек 8 нет в базе данных
Трек 9 нет в базе данных
Трек 10 нет в базе данных
Трек 11 нет в базе данных
Трек 12 нет в базе данных

Ни одного трека нет в базе AccurateRip

Конец отчёта


[CUETools log; Date: 4/20/2012 10:04:35 PM; Version: 2.1.2a]
[CTDB TOCID: 9FshbIzQw8B48E6iFc32cOWv_K0-] disk not present in database.
[AccurateRip ID: 00169f4c-00d3445d-a80bce0c] found.
Track [ CRC ] Status
01 [3155ca78] (1/1) Accurately ripped
02 [3bcdd34b] (1/1) Accurately ripped
03 [11147c97] (1/1) Accurately ripped
04 [195e496b] (1/1) Accurately ripped
05 [d7b6ec00] (1/1) Accurately ripped
06 [c6752579] (1/1) Accurately ripped
07 [5f83853b] (1/1) Accurately ripped
08 [ee785c5c] (1/1) Accurately ripped
09 [86e6d9ee] (1/1) Accurately ripped
10 [c5557a6d] (1/1) Accurately ripped
11 [37b54bee] (1/1) Accurately ripped
12 [bdf7869c] (1/1) Accurately ripped

Track Peak [ CRC32 ] [W/O NULL]
– 100.0 [49A97D65] [D77E4AD8]
01 99.3 [D77556A9] [C4FCD67D]
02 98.8 [41E0D5F7] [04833D46]
03 99.2 [77F3B465] [1AAB1BBE]
04 99.0 [206B0738] [0A4B38AD]
05 99.0 [85417D42] [027AD2A9]
06 88.2 [A64E995C] [57D851DD]
07 98.7 [B70324FB] [D130AB74]
08 98.7 [BC36E344] [18737CDE]
09 100.0 [8890C245] [F445B9D7]
10 99.0 [4E491356] [66B7CE02]
11 98.5 [16C4B758] [2CDB9A9C]
12 98.9 [F60A1135] [125C3EB8]


–––––––––––-

DON'T MODIFY THIS FILE

–––––––––––-

PERFORMER: auCDtect Task Manager, ver. 1.5.1RC6 build 1.5.1.7
Copyright © 2008-2010 y-soft. All rights reserved
http://y-soft.org

ANALYZER: auCDtect: CD records authenticity detector, version 0.8.2
Copyright © 2004 Oleg Berngardt. All rights reserved.
Copyright © 2004 Alexander Djourik. All rights reserved.


FILE: Daddy Mack Blues Band - Pay The Piper.flac
Size: 334352697 Hash: FF46A6351831071C055D18647D63D3FB Accuracy: -m0
Conclusion: CDDA 100%
Signature: 61AD0C60D52A4B06FF3C872FAB116D4FF54B6F90

Daddy Mack Blues Band - Pay The Piper (2012)


Personnel:

• Daddy Mack Orr: vocals, lead guitar
• James Bonner: rhythm guitar, backup vocals, lead vocals on " Trickle Down Blues"
• Harold Bonner: bass guitar
• Brian Wells: drums
• Carl Wolfe: saxophone on 1 & 2, clarinet on 9
• E.J Duce: trumpet on 1 & 2, trombone/trumpet on 9
• Joe Boggie: Hammond B3 organ
• Billy Gibson: harmonica
• Vicki Loveland: backup vocals 3,4,7,9 & 12
• Matt Isbell: rhythm guitar 6,9 & 12: backup vocals 2,3,5 & 9
• Gary Rosenberg, Sandy Carroll, Eddie Dattel: additional vocals on "Trickle Downs Blues"

Released: February 15, 2012
Format: CD, Album
Length: 50:22


––––––––––––––––––––––––––––––––––––––––


CD Rip by izia1956

The files are interchangeable!… No Mirrors Please!!!