Subcategories

Dagda - Celtic Trance (1999)

Posted By: popsakov
Dagda - Celtic Trance (1999)

Dagda - Celtic Trance (1999)
EAC Rip | FLAC (Img) + Cue + Log ~ 304 Mb | MP3 CBR320 ~ 155 Mb
Full Scans | RAR 5% Recovery
Electronic / Tribal / Ambient / New Age / Downtempo / Celtic
PARAS Recording Company #PRC 1100-2

Celtic Trance presents a warm, fuzzy mixture of Celtic musical streams with trance and ambient, meaning a lot of swirling synth pads, soft drums, Irish whistles, and sampled instruments with some vocals thrown in for good measure. This particular production is likely to remind some listeners of Enigma, while others may think of Jean-Michel Jarre, though it does carve out its own identity along the way, heavy breathing effects and all. It's also highly functional as a tool for relaxation – not an album recommended for playing on long road journeys, certainly.

~ Steven McDonald, All Music

***************

Dagda - Celtic Trance (1999)

Track List:

01. (Introduction) I Am Celt [1:04]
02. Oroshay [3:00]
03. The Primal Gods [2:27]
04. Celtic Trance [3:56]
05. Druids in the Glen [3:53]
06. The Gifted People [3:32]
07. Morrigna [2:38]
08. Shades of the Otherworld [3:05]
09. The Sacred Kings [2:10]
10. Harp of Dagda [3:51]
11. The Silver Branch [1:54]
12. Lament for a Hero [3:18]
13. The Turning Years [2:02]
14. Barbarian [4:07]

Exact Audio Copy V1.0 beta 3 from 29. August 2011

EAC extraction logfile from 30. August 2019, 19:04

Dagda / Celtic Trance

Used drive : PIONEER BD-RW BDR-TD03 Adapter: 0 ID: 1

Read mode : Secure
Utilize accurate stream : Yes
Defeat audio cache : Yes
Make use of C2 pointers : No

Read offset correction : 667
Overread into Lead-In and Lead-Out : No
Fill up missing offset samples with silence : Yes
Delete leading and trailing silent blocks : No
Null samples used in CRC calculations : Yes
Used interface : Native Win32 interface for Win NT & 2000

Used output format : User Defined Encoder
Selected bitrate : 768 kBit/s
Quality : High
Add ID3 tag : No
Command line compressor : C:\Program Files (x86)\Exact Audio Copy\FLAC\FLAC.EXE
Additional command line options : -V -8 -T "Date=%year%" -T "Genre=%genre%" %source%


TOC of the extracted CD

Track | Start | Length | Start sector | End sector
––––––––––––––––––––––––––––-
1 | 0:00.00 | 1:03.59 | 0 | 4783
2 | 1:03.59 | 3:00.02 | 4784 | 18285
3 | 4:03.61 | 2:26.55 | 18286 | 29290
4 | 6:30.41 | 3:55.59 | 29291 | 46974
5 | 10:26.25 | 3:53.19 | 46975 | 64468
6 | 14:19.44 | 3:31.63 | 64469 | 80356
7 | 17:51.32 | 2:38.15 | 80357 | 92221
8 | 20:29.47 | 3:05.34 | 92222 | 106130
9 | 23:35.06 | 2:09.44 | 106131 | 115849
10 | 25:44.50 | 3:50.61 | 115850 | 133160
11 | 29:35.36 | 1:54.24 | 133161 | 141734
12 | 31:29.60 | 3:17.43 | 141735 | 156552
13 | 34:47.28 | 2:01.39 | 156553 | 165666
14 | 36:48.67 | 4:07.36 | 165667 | 184227


Range status and errors

Selected range

Filename C:\Users\Deris\Desktop\dagda99\Dagda - Celtic Trance.wav

Peak level 88.7 %
Extraction speed 4.5 X
Range quality 100.0 %
Test CRC 1D6A1B5B
Copy CRC 1D6A1B5B
Copy OK

No errors occurred


AccurateRip summary

Track 1 accurately ripped (confidence 12) [0D608FA4] (AR v2)
Track 2 accurately ripped (confidence 12) [75DCBED0] (AR v2)
Track 3 accurately ripped (confidence 12) [3F5F2B71] (AR v2)
Track 4 accurately ripped (confidence 12) [26A45E0E] (AR v2)
Track 5 accurately ripped (confidence 12) [7731B82D] (AR v2)
Track 6 accurately ripped (confidence 12) [61960C3E] (AR v2)
Track 7 accurately ripped (confidence 12) [9A6E132D] (AR v2)
Track 8 accurately ripped (confidence 12) [81DBCCC8] (AR v2)
Track 9 accurately ripped (confidence 12) [435A5DCF] (AR v2)
Track 10 accurately ripped (confidence 12) [F5D60CBE] (AR v2)
Track 11 accurately ripped (confidence 12) [F667EA0B] (AR v2)
Track 12 accurately ripped (confidence 12) [96686B37] (AR v2)
Track 13 accurately ripped (confidence 12) [4754B7BD] (AR v2)
Track 14 accurately ripped (confidence 12) [C1AFDE9B] (AR v2)

All tracks accurately ripped

End of status report

–– CUETools DB Plugin V2.1.3

[CTDB TOCID: 0kHXjAwBRoIYKCABtXQWEUqp87k-] found
[8d3de773] (01/38) No match
[0a66e4f8] (08/38) No match
[e61bc5ed] (28/38) Accurately ripped
[1f12b090] (01/38) Accurately ripped


==== Log checksum 4E39A05E4276D3D0AD801D38446B560B837AFD037FA46D08611F39FB3138C6E4 ====

[CUETools log; Date: 04.09.2019 18:04:16; Version: 2.1.6]
[CTDB TOCID: 0kHXjAwBRoIYKCABtXQWEUqp87k-] found.
Track | CTDB Status
1 | (29/38) Accurately ripped, or (8/38) differs in 10277 samples @00:02:50-00:02:58
2 | (37/38) Accurately ripped
3 | (37/38) Accurately ripped
4 | (37/38) Accurately ripped
5 | (37/38) Accurately ripped
6 | (37/38) Accurately ripped
7 | (37/38) Accurately ripped
8 | (37/38) Accurately ripped
9 | (37/38) Accurately ripped
10 | (37/38) Accurately ripped
11 | (37/38) Accurately ripped
12 | (37/38) Accurately ripped
13 | (37/38) Accurately ripped
14 | (36/38) Accurately ripped
[AccurateRip ID: 0014713d-00dd43a4-b509980e] found.
Track [ CRC | V2 ] Status
01 [2d21f865|0d608fa4] (12+12/24) Accurately ripped
02 [8fa794e0|75dcbed0] (12+12/24) Accurately ripped
03 [0d04e571|3f5f2b71] (12+12/24) Accurately ripped
04 [c62c6e4f|26a45e0e] (12+12/24) Accurately ripped
05 [9b9065bf|7731b82d] (12+12/24) Accurately ripped
06 [6e52913a|61960c3e] (12+12/24) Accurately ripped
07 [11d33df1|9a6e132d] (12+12/24) Accurately ripped
08 [fc8115ff|81dbccc8] (11+12/23) Accurately ripped
09 [ca15bb96|435a5dcf] (11+12/23) Accurately ripped
10 [de9643fa|f5d60cbe] (11+12/23) Accurately ripped
11 [42a96c96|f667ea0b] (12+12/24) Accurately ripped
12 [061d5717|96686b37] (12+12/24) Accurately ripped
13 [f0a0ae21|4754b7bd] (12+12/24) Accurately ripped
14 [91ad5b7f|c1afde9b] (12+12/24) Accurately ripped

Track Peak [ CRC32 ] [W/O NULL] [ LOG ]
– 88,7 [1D6A1B5B] [8F9BA7D3] CRC32
01 85,6 [39FA20A4] [01DA0DC0]
02 83,7 [4EA24DFE] [BDE5A6B4]
03 85,6 [D6B6BB7A] [26A75899]
04 86,4 [95DE6746] [D0051E19]
05 85,4 [2B910824] [51EB54AC]
06 87,4 [78014D32] [1D165136]
07 86,4 [B18703E2] [236B2D82]
08 84,6 [28EC49BB] [9B78CBF2]
09 79,4 [19E02AFB] [C4D50285]
10 85,2 [0698F073] [B2FA274C]
11 79,8 [B3F8ABC6] [A44F858D]
12 82,5 [96CB83A9] [A4846F18]
13 88,7 [236AC52E] [D29F231A]
14 85,4 [351AF5D1] [2C07E8ED]

Dagda - Celtic Trance (1999)

All thanks go to Boris1

>>> My Blog <<<

DOWNLOAD: