Subcategories

Daryl Hall & John Oates - Rock 'N Soul Part 1 (1983) [MFSL UDSACD 2157]

Posted By: v3122
Daryl Hall & John Oates - Rock 'N Soul Part 1 (1983) [MFSL UDSACD 2157]

Daryl Hall & John Oates - Rock 'N Soul Part 1 (1983)
EAC | Flac(Image) + Cue + Log & MP3 CBR 320Kbps
2015 | MFSL UDSACD 2157 | ~ 313 or 115 Mb | Scans(png) -> 180 Mb
Soft Rock / Pop Rock / Soul

Released at the peak of Hall & Oates' popularity in the early '80s, 1983's Rock 'n Soul, Pt. 1: Greatest Hits effectively chronicles the time when the duo could do no wrong – namely, the period between 1980's Voices and 1982's H2O, which includes only one other album, 1981's excellent Private Eyes. While this reaches back to their early-'70s work for Atlantic for "She's Gone," the only big hit they had at the label, and also has their two other big hits from that decade, "Sara Smile" and "Rich Girl," the bulk of Rock 'n Soul, Pt. 1 derives from those three albums: "Kiss on My List," "You Make My Dreams," "Private Eyes," "I Can't Go for That (No Can Do)," "Maneater," and "One on One." That's a long list of singles, but it still misses some terrific singles from this era, including "How Does It Feel to Be Back," "Did It in a Minute," "Family Man," and "You've Lost That Lovin' Feeling" (the latter two were included as bonus tracks on RCA/Legacy's 2006 reissue). As good as those songs may be, Rock 'n Soul, Pt. 1 doesn't necessarily miss them: with the exception of a live version of "Wait for Me" (good, but not essential), this is the cream of the crop of Hall & Oates' best period, and it makes for a tight, excellent listen, and it's bolstered by the sublime "Say It Isn't So" and the good rocker "Adult Education." Latter-day compilations like 2001's Very Best of Daryl Hall & John Oates and 2004's Ultimate (which was reissued a year later under the title Essential) may cover their entire career in more detail – and the duo certainly made great music before and after this era – but as a snapshot of Hall & Oates at their finest, Rock 'n Soul, Pt. 1: Greatest Hits can't be beat.

by Stephen Thomas Erlewine, AMG
Daryl Hall & John Oates - Rock 'N Soul Part 1 (1983) [MFSL UDSACD 2157]


Daryl Hall & John Oates - Rock 'N Soul Part 1 (1983):

Daryl Hall & John Oates - Rock 'N Soul Part 1 (1983) [MFSL UDSACD 2157]

Tracklist:

01. Say It Isn't So (Hall) 04:22
02. Sara Smile (Hall, Oates) 03:09
03. She's Gone (Hall, Oates) 03:27
04. Rich Girl (Hall) 02:27
05. Kiss On My List (Hall, Janna Allen) 03:54
06. You Make My Dreams (Hall, Oates, Sara Allen) 03:13
07. Private Eyes (Hall, S.Allen, J.Allen, Warren Pash) 03:41
08. Adult Education (Hall, Oates, S.Allen) 05:26
09. I Can't Go For That (No Can Do) (Hall, Oates, S.Allen, J.Allen) 03:44
10. Maneater (Hall, Oates, S.Allen) 04:34
11. One On One (Hall) 04:19
12. Wait For Me (Live Version) (Hall) 06:12

Exact Audio Copy V1.1 from 23. June 2015

EAC extraction logfile from 18. April 2016, 16:26

Daryl Hall & John Oates / Rock 'N Soul Part 1 MFSL

Used drive : PLEXTOR BD-R PX-B950SA Adapter: 1 ID: 1

Read mode : Secure
Utilize accurate stream : Yes
Defeat audio cache : Yes
Make use of C2 pointers : No

Read offset correction : 6
Overread into Lead-In and Lead-Out : No
Fill up missing offset samples with silence : Yes
Delete leading and trailing silent blocks : No
Null samples used in CRC calculations : Yes
Used interface : Native Win32 interface for Win NT & 2000

Used output format : Internal WAV Routines
Sample format : 44.100 Hz; 16 Bit; Stereo


TOC of the extracted CD

Track | Start | Length | Start sector | End sector
––––––––––––––––––––––––––––-
1 | 0:00.00 | 4:22.63 | 0 | 19712
2 | 4:22.63 | 3:09.62 | 19713 | 33949
3 | 7:32.50 | 3:27.36 | 33950 | 49510
4 | 11:00.11 | 2:27.52 | 49511 | 60587
5 | 13:27.63 | 3:54.16 | 60588 | 78153
6 | 17:22.04 | 3:13.27 | 78154 | 92655
7 | 20:35.31 | 3:41.50 | 92656 | 109280
8 | 24:17.06 | 5:26.73 | 109281 | 133803
9 | 29:44.04 | 3:44.31 | 133804 | 150634
10 | 33:28.35 | 4:34.48 | 150635 | 171232
11 | 38:03.08 | 4:19.70 | 171233 | 190727
12 | 42:23.03 | 6:12.70 | 190728 | 218697


Range status and errors

Selected range

Filename C:\Users\Meijin\Desktop\ALLexxess\Daryl Hall & John Oates\1983 Rock 'N Soul Part 1 (Hybrid SACD MFSL 2015)\Daryl Hall & John Oates - Rock 'N Soul Part 1 MFSL.wav

Peak level 97.5 %
Extraction speed 3.5 X
Range quality 99.9 %
Test CRC 5F6AFC07
Copy CRC 5F6AFC07
Copy OK

No errors occurred


AccurateRip summary

Track 1 accurately ripped (confidence 4) [21960361] (AR v2)
Track 2 accurately ripped (confidence 4) [11E8427C] (AR v2)
Track 3 accurately ripped (confidence 4) [A6BA032D] (AR v2)
Track 4 accurately ripped (confidence 4) [C08FFC24] (AR v2)
Track 5 accurately ripped (confidence 4) [46460C6C] (AR v2)
Track 6 accurately ripped (confidence 4) [6BF49030] (AR v2)
Track 7 accurately ripped (confidence 4) [58187DAE] (AR v2)
Track 8 accurately ripped (confidence 4) [EE61FC52] (AR v2)
Track 9 accurately ripped (confidence 4) [842E7DF7] (AR v2)
Track 10 accurately ripped (confidence 4) [5B652EA0] (AR v2)
Track 11 accurately ripped (confidence 4) [9B363ED3] (AR v2)
Track 12 accurately ripped (confidence 4) [F559BF3B] (AR v2)

All tracks accurately ripped

End of status report

–– CUETools DB Plugin V2.1.6

[CTDB TOCID: w1otHQ.4dpuNYAwxyU1JomqBjuA-] found
Submit result: w1otHQ.4dpuNYAwxyU1JomqBjuA- has been confirmed
Track | CTDB Status
1 | (5/5) Accurately ripped
2 | (5/5) Accurately ripped
3 | (5/5) Accurately ripped
4 | (5/5) Accurately ripped
5 | (5/5) Accurately ripped
6 | (5/5) Accurately ripped
7 | (5/5) Accurately ripped
8 | (5/5) Accurately ripped
9 | (5/5) Accurately ripped
10 | (5/5) Accurately ripped
11 | (5/5) Accurately ripped
12 | (5/5) Accurately ripped


==== Log checksum 2CF0177B73F1CF7BC85B3A9B6318A5B0E957CE90A29A4F1894ABA0A1FD96ACF4 ====

foobar2000 1.2.9 / Dynamic Range Meter 1.1.1
log date: 2016-04-24 18:24:39

––––––––––––––––––––––––––––––––––––––––
Analyzed: Daryl Hall & John Oates / Rock 'N Soul Part 1 MFSL
––––––––––––––––––––––––––––––––––––––––

DR Peak RMS Duration Track
––––––––––––––––––––––––––––––––––––––––
DR11 -0.22 dB -13.24 dB 4:23 01-Say It Isn't So
DR17 -0.34 dB -20.07 dB 3:10 02-Sara Smile
DR11 -0.38 dB -15.00 dB 3:27 03-She's Gone
DR11 -0.34 dB -14.17 dB 2:28 04-Rich Girl
DR13 -0.23 dB -15.28 dB 3:54 05-Kiss On My List
DR14 -0.30 dB -16.31 dB 3:13 06-You Make My Dreams
DR11 -0.32 dB -14.08 dB 3:42 07-Private Eyes
DR12 -0.30 dB -14.96 dB 5:27 08-Adult Education
DR12 -0.89 dB -15.00 dB 3:44 09-I Can't Go For That (No Can Do)
DR14 -0.44 dB -15.62 dB 4:35 10-Maneater
DR12 -0.32 dB -14.42 dB 4:20 11-One On One
DR12 -0.23 dB -15.37 dB 6:13 12-Wait For Me (Live Version)
––––––––––––––––––––––––––––––––––––––––

Number of tracks: 12
Official DR value: DR13

Samplerate: 44100 Hz
Channels: 2
Bits per sample: 16
Bitrate: 855 kbps
Codec: FLAC

[CUETools log; Date: 23.04.2016 22:47:56; Version: 2.1.4]
[CTDB TOCID: w1otHQ.4dpuNYAwxyU1JomqBjuA-] found.
Track | CTDB Status
1 | (6/6) Accurately ripped
2 | (6/6) Accurately ripped
3 | (6/6) Accurately ripped
4 | (6/6) Accurately ripped
5 | (6/6) Accurately ripped
6 | (6/6) Accurately ripped
7 | (6/6) Accurately ripped
8 | (6/6) Accurately ripped
9 | (6/6) Accurately ripped
10 | (6/6) Accurately ripped
11 | (6/6) Accurately ripped
12 | (6/6) Accurately ripped
[AccurateRip ID: 0013f917-00bc9930-9d0b630c] found.
Track [ CRC | V2 ] Status
01 [026dc01a|21960361] (0+4/4) Accurately ripped
02 [f27d3c51|11e8427c] (0+4/4) Accurately ripped
03 [503f7409|a6ba032d] (0+4/4) Accurately ripped
04 [ea7f5023|c08ffc24] (0+4/4) Accurately ripped
05 [6e90144d|46460c6c] (0+4/4) Accurately ripped
06 [f768e542|6bf49030] (0+4/4) Accurately ripped
07 [ac96a17f|58187dae] (0+4/4) Accurately ripped
08 [deded093|ee61fc52] (0+4/4) Accurately ripped
09 [6b23695e|842e7df7] (0+4/4) Accurately ripped
10 [7133b90e|5b652ea0] (0+4/4) Accurately ripped
11 [6149c6ae|9b363ed3] (0+4/4) Accurately ripped
12 [b9fc5334|f559bf3b] (0+4/4) Accurately ripped

Track Peak [ CRC32 ] [W/O NULL] [ LOG ]
– 97,5 [5F6AFC07] [49F9C285] CRC32
01 97,5 [5B0602C2] [F85F3154]
02 96,1 [E36963DD] [34202B59]
03 95,6 [E7C0871D] [39C5E282]
04 96,1 [B2031955] [0142BEDA]
05 97,3 [F46BCF2C] [52B0C64D]
06 96,5 [27CD38C8] [F9A60B57]
07 96,4 [866575C2] [AD95B59C]
08 96,6 [C83E545C] [679B9518]
09 90,2 [5921D50B] [28E893A3]
10 95,0 [90C39DD1] [07C9526C]
11 96,3 [9F54CC44] [A7CAE00C]
12 97,3 [5513DC00] [45F3F180]

Daryl Hall & John Oates - Rock 'N Soul Part 1 (1983) [MFSL UDSACD 2157]

All thanks go to ALLexxess

Download Daryl Hall & John Oates - Rock 'N Soul Part 1 (1983):