Subcategories

Dave Brubeck - All The Things We Are (1976) Remastered 2013 [Re-Up]

Posted By: Designol
Dave Brubeck - All The Things We Are (1976) Remastered 2013 [Re-Up]

Dave Brubeck - All The Things We Are (1976) Remastered 2013
EAC | FLAC | Image (Cue&Log) ~ 271 Mb | Mp3 (CBR320) ~ 119 Mb | Scans included | 00:45:05
Mainstream Jazz, Post-Bop | Label: Atlantic/Warner Bros. | # 8122-79641-1/WPCR-27216

All the Things We Are is a bit unusual in the Dave Brubeck discography. The pianist is heard in a quartet with altoist Lee Konitz on "Like Someone in Love" and a brief "Don't Get Around Much Anymore," with avant-garde giant Anthony Braxton (also on alto) featured on "In Your Own Sweet Way," while both Konitz and Braxton team up for "All the Things You Are." In addition, the Brubeck Trio (with bassist Jack Six and drummer Alan Dawson) plays an exquisite and frequently exciting 21-minute, five-song "Jimmy Van Heusen Medley." A total success, this "experimental" Brubeck set is highly recommended.

Review by Scott Yanow, Allmusic.com

Dave Brubeck - All The Things We Are (1976) Remastered 2013 [Re-Up]



Performers:

Piano – Dave Brubeck
Alto Saxophone – Anthony Braxton (tracks: 2, 3 (right channel)),
Lee Konitz (tracks: 1, 3 (left channel), 5)
Bass – Jack Six (tracks: 1 to 3, 4a to 4e)
Drums – Alan Dawson (tracks: 4a to 4e), Roy Haynes (tracks: 1 to 3)

Recorded at C.I. Studios, New York, NYC.
Tracks 4a-4e recorded on July 17, 1973.
All other tracks recorded on October 3, 1974.

Tracklist:

01. Like Someone In Love (6:21)
02. In Your Own Sweet Way (7:39)
03. All The Things You Are (7:29)
04. Jimmy Van Heusen medley (20:48)
05. Don't Get Around Much Anymore (2:49)


Exact Audio Copy V1.1 from 23. June 2015

EAC extraction logfile from 10. November 2015, 20:59

Dave Brubeck / All the Things We Are

Used drive : HL-DT-STDVDRAM GH22NS50 Adapter: 1 ID: 0

Read mode : Secure
Utilize accurate stream : Yes
Defeat audio cache : Yes
Make use of C2 pointers : No

Read offset correction : 667
Overread into Lead-In and Lead-Out : No
Fill up missing offset samples with silence : Yes
Delete leading and trailing silent blocks : No
Null samples used in CRC calculations : Yes
Used interface : Native Win32 interface for Win NT & 2000

Used output format : User Defined Encoder
Selected bitrate : 896 kBit/s
Quality : High
Add ID3 tag : No
Command line compressor : C:\Program Files (x86)\Exact Audio Copy\FLAC\FLAC.EXE
Additional command line options : -6 -V %source%


TOC of the extracted CD

Track | Start | Length | Start sector | End sector
––––––––––––––––––––––––––––-
1 | 0:00.00 | 6:20.41 | 0 | 28540
2 | 6:20.41 | 7:38.40 | 28541 | 62930
3 | 13:59.06 | 7:28.40 | 62931 | 96570
4 | 21:27.46 | 20:48.35 | 96571 | 190205
5 | 42:16.06 | 2:49.01 | 190206 | 202881


Range status and errors

Selected range

Filename C:\Users\Enach\Documents\rip\Dave Brubeck - All the Things We Are.wav

Peak level 99.8 %
Extraction speed 6.9 X
Range quality 100.0 %
Test CRC A2646C35
Copy CRC A2646C35
Copy OK

No errors occurred


AccurateRip summary

Track 1 accurately ripped (confidence 1) [E7B74895] (AR v2)
Track 2 accurately ripped (confidence 1) [AD42C9BE] (AR v2)
Track 3 accurately ripped (confidence 1) [6C9E93EB] (AR v2)
Track 4 accurately ripped (confidence 1) [D15DDAA9] (AR v2)
Track 5 accurately ripped (confidence 1) [9D3FA49D] (AR v2)

All tracks accurately ripped

End of status report

–– CUETools DB Plugin V2.1.6

[CTDB TOCID: QsvWoUELBC5DHYI6QNcZrP_5g4w-] found
Submit result: QsvWoUELBC5DHYI6QNcZrP_5g4w- has been confirmed
Track | CTDB Status
1 | (9/9) Accurately ripped
2 | (9/9) Accurately ripped
3 | (9/9) Accurately ripped
4 | (9/9) Accurately ripped
5 | (9/9) Accurately ripped


==== Log checksum 7D0EB259244A5D09B8D52B9D5C0E781D573B7A545D1DC1E75D3A442810351A2C ====

foobar2000 1.2 / Dynamic Range Meter 1.1.1
log date: 2016-02-08 17:00:07

––––––––––––––––––––––––––––––––––––––––
Analyzed: Dave Brubeck / All The Things We Are
––––––––––––––––––––––––––––––––––––––––

DR Peak RMS Duration Track
––––––––––––––––––––––––––––––––––––––––
DR12 -0.02 dB -14.23 dB 6:21 01-Like Someone In Love
DR12 -0.02 dB -15.27 dB 7:39 02-In Your Own Sweet Way
DR11 -0.01 dB -13.04 dB 7:29 03-All The Things You Are
DR12 -0.02 dB -15.33 dB 20:48 04-Jimmy Van Heusen medley
DR14 -0.02 dB -16.74 dB 2:49 05-Don't Get Around Much Anymore
––––––––––––––––––––––––––––––––––––––––

Number of tracks: 5
Official DR value: DR12

Samplerate: 44100 Hz
Channels: 2
Bits per sample: 16
Bitrate: 791 kbps
Codec: FLAC
================================================================================

Dave Brubeck - All The Things We Are (1976) Remastered 2013 [Re-Up]

Dave Brubeck - All The Things We Are (1976) Remastered 2013 [Re-Up]

All thanks to original releaser - rmaucigasha

More interesting music in My Blog

More Dave Brubeck Albums