Tags
Language
Tags

Dave Gahan - Hourglass (2007) [Deluxe Edition CD+DVD]

Posted By: gribovar
Dave Gahan - Hourglass (2007) [Deluxe Edition CD+DVD]

Dave Gahan - Hourglass (2007) [Deluxe Edition CD+DVD]
EAC Rip | FLAC (tracks+.cue+log) - 335 MB | MP3 CBR 320 kbps (LAME 3.93) - 117 MB | Covers - 224 MB
DVD5 | Video: MPEG 2, 720x576 (4:3), 25.000 fps | Audio: PCM, 48.0 KHz, 2 ch, 1536 Kbps | 3,83 GB
Genre: Electronic, Synth-pop, Alternative Rock | RAR 3% Rec. | Label: Mute (XLCDSTUMM288)

Dave Gahan is an English singer-songwriter, best known as the lead singer of the electronic band Depeche Mode since their debut in 1980.
After Dave Gahan released his debut solo album, Paper Monsters, in 2003, he landed three of his songs on Depeche Mode's 2005 album Playing the Angel, meaning Martin Gore was no longer the band's sole songwriter. Two years later and he's on a roll with Hourglass, a more electronic, better built, and altogether better deal than Monsters, thanks mostly to the singer and-don't-you-forget-to-mention songwriter's better sense of self. At least that's the way it feels because unlike Monsters, Hourglass doesn't have any overly urgent need to shake off Depeche Mode comparisons. Instead, it surrounds Gahan's serviceable writing skills with the dark electronic soundscapes he's obviously comfortable with. Just like his tracks on Angel, his co-conspirators here are Christian Eigner and Andrew Phillpot, two musicians that are great at creating crunchy, expansive, and cold music. Even if leadoff single "Kingdom" is Depeche's "Never Let Me Down Again" without the keyboard hook, its groove is the same slithery kind of inescapable, and if it could conjure a smell it would be a mix of leather pants, sweat, and cigarettes. The swaggering macho goth stance Gahan perfected right around "Personal Jesus" is also in effect for the highlights "Use You" and "Deeper and Deeper" which is especially helpful for the latter since the lyrics could have come from any given Fergie song ("You can't tell me/That you don't want it" and so on). Cringe-worthy couplets like "Miracle"'s "I don't believe in Jesus/But I'm praying anyway." find Gahan writing in the style of Gore and coming up short, but you've got to admit his vocal delivery is moving, and that goes double for the opening "Saw Something." At the very least the album displays how much Gahan brings to Depeche Mode, and should go a long way in getting the Gore-favoring fan base to admit it.
Tracklist:
01. Saw Something
02. Kingdom
03. Deeper + Deeper
04. 21 Days
05. Miracles
06. Use You
07. Insoluble
08. Endless
09. A Little Lie
10. Down

Total time: 48:38

DVD:
01. Hourglass: A Short Film (17:59)
02. Kingdom (Promotional Video) (4:35)

Hourglass: The Studio Sessions:
03. Saw Something (5:25)
04. Miracles (4:12)
05. Kingdom (5:27)
06. A Little Lie (5:12)
07. Endless (Video Montage) (3:34)

Easter Eggs:
08. Untitled (4:09)
09. Untitled (1:32)
10. Untitled (0:31)

Exact Audio Copy V1.3 from 2. September 2016

EAC extraction logfile from 22. January 2020, 22:59

Dave Gahan / Hourglass

Used drive : PIONEER DVD-RW DVR-221L Adapter: 1 ID: 0

Read mode : Secure
Utilize accurate stream : Yes
Defeat audio cache : Yes
Make use of C2 pointers : No

Read offset correction : 6
Overread into Lead-In and Lead-Out : No
Fill up missing offset samples with silence : Yes
Delete leading and trailing silent blocks : No
Null samples used in CRC calculations : Yes
Used interface : Native Win32 interface for Win NT & 2000
Gap handling : Appended to previous track

Used output format : User Defined Encoder
Selected bitrate : 1024 kBit/s
Quality : High
Add ID3 tag : No
Command line compressor : C:\Program Files (x86)\Exact Audio Copy\FLAC\FLAC.EXE
Additional command line options : -6 -V -T "COMMENT=ripped by RRC" -T "ARTIST=%artist%" -T "TITLE=%title%" -T "ALBUM=%albumtitle%" -T "DATE=%year%" -T "TRACKNUMBER=%tracknr%" -T "GENRE=%genre%" %source%


TOC of the extracted CD

Track | Start | Length | Start sector | End sector
––––––––––––––––––––––––––––-
1 | 0:00.00 | 5:14.37 | 0 | 23586
2 | 5:14.37 | 4:34.13 | 23587 | 44149
3 | 9:48.50 | 4:34.60 | 44150 | 64759
4 | 14:23.35 | 4:35.05 | 64760 | 85389
5 | 18:58.40 | 4:38.70 | 85390 | 106309
6 | 23:37.35 | 4:48.32 | 106310 | 127941
7 | 28:25.67 | 4:57.08 | 127942 | 150224
8 | 33:23.00 | 5:47.07 | 150225 | 176256
9 | 39:10.07 | 4:53.13 | 176257 | 198244
10 | 44:03.20 | 4:34.60 | 198245 | 218854


Track 1

Filename E:\RRCLtd Rip\01 - Saw Something.wav

Pre-gap length 0:00:02.00

Peak level 98.7 %
Extraction speed 4.6 X
Track quality 100.0 %
Test CRC 5673A68D
Copy CRC 5673A68D
Accurately ripped (confidence 200) [F7E0DA50] (AR v2)
Copy OK

Track 2

Filename E:\RRCLtd Rip\02 - Kingdom.wav

Peak level 99.8 %
Extraction speed 5.0 X
Track quality 100.0 %
Test CRC 2B3E45A7
Copy CRC 2B3E45A7
Accurately ripped (confidence 200) [8F3C5379] (AR v2)
Copy OK

Track 3

Filename E:\RRCLtd Rip\03 - Deeper + Deeper.wav

Pre-gap length 0:00:01.43

Peak level 98.7 %
Extraction speed 5.5 X
Track quality 100.0 %
Test CRC 2A20E6C7
Copy CRC 2A20E6C7
Accurately ripped (confidence 200) [769CCC93] (AR v2)
Copy OK

Track 4

Filename E:\RRCLtd Rip\04 - 21 Days.wav

Pre-gap length 0:00:01.23

Peak level 98.7 %
Extraction speed 5.9 X
Track quality 100.0 %
Test CRC D003B295
Copy CRC D003B295
Accurately ripped (confidence 200) [7903EDD4] (AR v2)
Copy OK

Track 5

Filename E:\RRCLtd Rip\05 - Miracles.wav

Peak level 98.7 %
Extraction speed 6.5 X
Track quality 100.0 %
Test CRC 0BFFC3EE
Copy CRC 0BFFC3EE
Accurately ripped (confidence 200) [E6BEF046] (AR v2)
Copy OK

Track 6

Filename E:\RRCLtd Rip\06 - Use You.wav

Pre-gap length 0:00:01.33

Peak level 98.7 %
Extraction speed 6.6 X
Track quality 100.0 %
Test CRC CC198946
Copy CRC CC198946
Accurately ripped (confidence 200) [F9ED0425] (AR v2)
Copy OK

Track 7

Filename E:\RRCLtd Rip\07 - Insoluble.wav

Pre-gap length 0:00:02.07

Peak level 98.7 %
Extraction speed 6.2 X
Track quality 99.9 %
Test CRC 736AFAA0
Copy CRC 736AFAA0
Accurately ripped (confidence 200) [12CD7423] (AR v2)
Copy OK

Track 8

Filename E:\RRCLtd Rip\08 - Endless.wav

Peak level 99.8 %
Extraction speed 7.6 X
Track quality 100.0 %
Test CRC 8DA4B7EC
Copy CRC 8DA4B7EC
Accurately ripped (confidence 200) [7021E030] (AR v2)
Copy OK

Track 9

Filename E:\RRCLtd Rip\09 - A Little Lie.wav

Pre-gap length 0:00:01.52

Peak level 99.8 %
Extraction speed 7.5 X
Track quality 100.0 %
Test CRC 87BF224D
Copy CRC 87BF224D
Accurately ripped (confidence 200) [5D3C9EE1] (AR v2)
Copy OK

Track 10

Filename E:\RRCLtd Rip\10 - Down.wav

Peak level 99.8 %
Extraction speed 8.2 X
Track quality 100.0 %
Test CRC 745DC249
Copy CRC 745DC249
Accurately ripped (confidence 200) [C14BD6CE] (AR v2)
Copy OK


All tracks accurately ripped

No errors occurred

End of status report

–– CUETools DB Plugin V2.1.6

[CTDB TOCID: cdrGE8ixiXgusJ76KnMUagWP51Y-] found
Submit result: cdrGE8ixiXgusJ76KnMUagWP51Y- has been confirmed
Track | CTDB Status
1 | (504/508) Accurately ripped
2 | (504/508) Accurately ripped
3 | (504/508) Accurately ripped
4 | (503/508) Accurately ripped
5 | (505/508) Accurately ripped
6 | (501/508) Accurately ripped
7 | (503/508) Accurately ripped
8 | (503/508) Accurately ripped
9 | (505/508) Accurately ripped
10 | (503/508) Accurately ripped


==== Log checksum 15A257441F291A814B67442CDBCFF876D526FDC73153E7B0A474E58A7E26A817 ====

[CUETools log; Date: 08.08.2021 15:03:18; Version: 2.1.4]
[CTDB TOCID: cdrGE8ixiXgusJ76KnMUagWP51Y-] found.
Track | CTDB Status
1 | (623/627) Accurately ripped
2 | (623/627) Accurately ripped
3 | (623/627) Accurately ripped
4 | (622/627) Accurately ripped
5 | (624/627) Accurately ripped
6 | (620/627) Accurately ripped
7 | (622/627) Accurately ripped
8 | (622/627) Accurately ripped
9 | (624/627) Accurately ripped
10 | (622/627) Accurately ripped
[AccurateRip ID: 00123ec9-0092224d-750b660a] found.
Track [ CRC | V2 ] Status
01 [99009bf5|f7e0da50] (200+200/434) Accurately ripped
02 [df35d7c1|8f3c5379] (200+200/434) Accurately ripped
03 [47780aa0|769ccc93] (200+200/433) Accurately ripped
04 [c9d659d5|7903edd4] (200+200/433) Accurately ripped
05 [71aef5fd|e6bef046] (200+200/433) Accurately ripped
06 [3aaab11d|f9ed0425] (200+200/433) Accurately ripped
07 [8d62675b|12cd7423] (200+200/433) Accurately ripped
08 [c8af585c|7021e030] (200+200/433) Accurately ripped
09 [d409604a|5d3c9ee1] (200+200/433) Accurately ripped
10 [96bf3b13|c14bd6ce] (200+200/433) Accurately ripped
Offsetted by -676:
01 [a1eeb690] (005/434) Accurately ripped
02 [97fa74d4] (005/434) Accurately ripped
03 [2e9f7924] (004/433) Accurately ripped
04 [61feb2ef] (004/433) Accurately ripped
05 [3b64ef0e] (004/433) Accurately ripped
06 [4b47b92d] (005/433) Accurately ripped
07 [7899d2d1] (004/433) Accurately ripped
08 [116c7537] (004/433) Accurately ripped
09 [268f6fe5] (004/433) Accurately ripped
10 [9913a783] (004/433) Accurately ripped
Offsetted by -664:
01 [82f39b2c] (008/434) Accurately ripped
02 [a9a7e2cb] (008/434) Accurately ripped
03 [5c6e4c13] (008/433) Accurately ripped
04 [24df4e4d] (008/433) Accurately ripped
05 [a9614909] (008/433) Accurately ripped
06 [f87488ca] (007/433) Accurately ripped
07 [cdfd8382] (008/433) Accurately ripped
08 [81254283] (008/433) Accurately ripped
09 [64e05fe9] (008/433) Accurately ripped
10 [f875b568] (008/433) Accurately ripped
Offsetted by -12:
01 [5887aa8f] (003/434) Accurately ripped
02 [ced16902] (003/434) Accurately ripped
03 [1a622236] (003/433) Accurately ripped
04 [9c8e0e90] (003/433) Accurately ripped
05 [f4069e84] (003/433) Accurately ripped
06 [8cbbcb7f] (003/433) Accurately ripped
07 [b30e810b] (003/433) Accurately ripped
08 [febd5f50] (003/433) Accurately ripped
09 [4d4e466e] (003/433) Accurately ripped
10 [39ae4f28] (003/433) Accurately ripped
Offsetted by -1355:
01 [056e5b75] (000/434) No match (V2 was not tested)
02 [638dbb32] (000/434) No match (V2 was not tested)
03 [c5a13c4d] (000/433) No match (V2 was not tested)
04 [358fd5f2] (000/433) No match (V2 was not tested)
05 [2ec6df64] (000/433) No match (V2 was not tested)
06 [a9f74439] (000/433) No match (V2 was not tested)
07 [22d966ec] (000/433) No match (V2 was not tested)
08 [96cd978f] (000/433) No match (V2 was not tested)
09 [5c3bdb0d] (000/433) No match (V2 was not tested)
10 [c173aab6] (000/433) No match (V2 was not tested)
Offsetted by -685:
01 [91d7fccd] (000/434) No match (V2 was not tested)
02 [8b72e0e9] (000/434) No match (V2 was not tested)
03 [4be7e5a1] (000/433) No match (V2 was not tested)
04 [eaaa0df7] (000/433) No match (V2 was not tested)
05 [70231cbf] (000/433) No match (V2 was not tested)
06 [49359804] (000/433) No match (V2 was not tested)
07 [cb2859a6] (000/433) No match (V2 was not tested)
08 [bbf8b9b9] (000/433) No match (V2 was not tested)
09 [25e6b6c0] (000/433) No match (V2 was not tested)
10 [11766559] (000/433) No match (V2 was not tested)
Offsetted by -667:
01 [f2cc705d] (000/434) No match (V2 was not tested)
02 [a53b8750] (000/434) No match (V2 was not tested)
03 [11570ca2] (000/433) No match (V2 was not tested)
04 [056048e1] (000/433) No match (V2 was not tested)
05 [de5c109b] (000/433) No match (V2 was not tested)
06 [4c97c462] (000/433) No match (V2 was not tested)
07 [9b0e2802] (000/433) No match (V2 was not tested)
08 [7e0e438d] (000/433) No match (V2 was not tested)
09 [0b6f47c7] (000/433) No match (V2 was not tested)
10 [20cee9ae] (000/433) No match (V2 was not tested)
Offsetted by -66:
01 [2e2356a1] (000/434) No match (V2 was not tested)
02 [850d7659] (000/434) No match (V2 was not tested)
03 [cc3f6cd5] (000/433) No match (V2 was not tested)
04 [7d78ee89] (000/433) No match (V2 was not tested)
05 [08c18dd5] (000/433) No match (V2 was not tested)
06 [7b006a5b] (000/433) No match (V2 was not tested)
07 [d9bb9fc2] (000/433) No match (V2 was not tested)
08 [82ba26e3] (000/433) No match (V2 was not tested)
09 [4dede053] (000/433) No match (V2 was not tested)
10 [16512b3b] (000/433) No match (V2 was not tested)
Offsetted by -30:
01 [f483b378] (000/434) No match (V2 was not tested)
02 [b4c9c573] (000/434) No match (V2 was not tested)
03 [54f2fb2a] (000/433) No match (V2 was not tested)
04 [dc13f549] (000/433) No match (V2 was not tested)
05 [69165724] (000/433) No match (V2 was not tested)
06 [8651471b] (000/433) No match (V2 was not tested)
07 [402cc7f5] (000/433) No match (V2 was not tested)
08 [179b6ede] (000/433) No match (V2 was not tested)
09 [c82b24ad] (000/433) No match (V2 was not tested)
10 [2f8eabae] (000/433) No match (V2 was not tested)

Track Peak [ CRC32 ] [W/O NULL] [ LOG ]
– 99,8 [867CAC9C] [CE150686]
01 98,7 [5673A68D] [CD2FB32F] CRC32
02 99,8 [2B3E45A7] [0FF24E90] CRC32
03 98,7 [2A20E6C7] [09BDC814] CRC32
04 98,7 [D003B295] [81487192] CRC32
05 98,7 [0BFFC3EE] [33C10F18] CRC32
06 98,7 [CC198946] [F527D9B7] CRC32
07 98,7 [736AFAA0] [AFD00491] CRC32
08 99,8 [8DA4B7EC] [1CF86A30] CRC32
09 99,8 [87BF224D] [4CCC41CF] CRC32
10 99,8 [745DC249] [834544FE] CRC32

Dave Gahan - Hourglass (2007) [Deluxe Edition CD+DVD]

Dave Gahan - Hourglass (2007) [Deluxe Edition CD+DVD]

Dave Gahan - Hourglass (2007) [Deluxe Edition CD+DVD]

Dave Gahan - Hourglass (2007) [Deluxe Edition CD+DVD]

Dave Gahan - Hourglass (2007) [Deluxe Edition CD+DVD]

Dave Gahan - Hourglass (2007) [Deluxe Edition CD+DVD]

Dave Gahan - Hourglass (2007) [Deluxe Edition CD+DVD]

Thanks to RRC

See also: