Subcategories

Dave Brubeck - Brubeck Plays Brubeck (1956) [Reissue 2009] (Repost)

Posted By: gribovar
Dave Brubeck - Brubeck Plays Brubeck (1956) [Reissue 2009] (Repost)

Dave Brubeck - Brubeck Plays Brubeck (1956) [Reissue 2009]
EAC Rip | FLAC (image+.cue+log) - 105 MB | MP3 CBR 320 kbps (LAME 3.93) - 85 MB | Covers - 84 MB
Genre: Jazz, Piano | RAR 3% Rec. | Label: Columbia/Legacy (88697491942)

Recorded late at night in his Oakland, California, home, it was Brubeck's first full solo-piano recording and also his first all-original record, and it illustrates his marvelously elegant fusion of classical and cocktail conceptions. Brubeck understands blues and swing, but he uses these elements as tools for effect, not as default settings. Brubeck instead offers a fuller palette of emotions and ideas–playful, sober, stern, happy, pensive, cerebral. While "In Your Own Sweet Way" and "The Duke" have become standards, the album includes obscure gems such as the minisuite "Two-Part Contention," with its many tempo, mood, and stylistic turns, and the discreetly swinging "Walkin' Line," although he lapses into melodrama with "Weep No More." Still, on "The Duke" (originally titled "The Duke Meets Darius Milhaud"), it's fascinating to hear how easily and smoothly he fits all 12 scale notes into his opening bass figure. As he himself points out in the brilliant original notes (reprinted here), the marriage of European music and American music dates back to New Orleans jazzmen such as King Oliver. And to dismiss any notions of intellectualism in jazz would be a great insult to everyone from Oliver to Charlie Parker to John Lewis to Bill Evans to Sun Ra. This is the jazz of Brubeck's own experience, and while it may sound too poised and polished for some tastes, it is honestly his and must be viewed as such.
Tracklist:
01. Swing Bells
02. Walkin' Line
03. In Your Own Sweet Way
04. Two-Part Contention
05. Weep No More
06. The Duke
07. When I Was Young
08. One Moment Worth Years
09. The Waltz

Total time: 36:06

Exact Audio Copy V0.99 prebeta 5 from 4. May 2009

EAC extraction logfile from 2. October 2010, 19:11

Dave Brubeck / Brubeck Plays Brubeck

Used drive : TSSTcorpCDDVDW SH-S223F Adapter: 3 ID: 0

Read mode : Secure
Utilize accurate stream : Yes
Defeat audio cache : Yes
Make use of C2 pointers : No

Read offset correction : 6
Overread into Lead-In and Lead-Out : No
Fill up missing offset samples with silence : Yes
Delete leading and trailing silent blocks : No
Null samples used in CRC calculations : Yes
Used interface : Native Win32 interface for Win NT & 2000

Used output format : Internal WAV Routines
Sample format : 44.100 Hz; 16 Bit; Stereo


TOC of the extracted CD

Track | Start | Length | Start sector | End sector
––––––––––––––––––––––––––––-
1 | 0:00.00 | 3:39.40 | 0 | 16464
2 | 3:39.40 | 2:47.37 | 16465 | 29026
3 | 6:27.02 | 5:01.03 | 29027 | 51604
4 | 11:28.05 | 5:39.10 | 51605 | 77039
5 | 17:07.15 | 3:59.02 | 77040 | 94966
6 | 21:06.17 | 2:54.58 | 94967 | 108074
7 | 24:01.00 | 3:19.22 | 108075 | 123021
8 | 27:20.22 | 4:55.50 | 123022 | 145196
9 | 32:15.72 | 3:49.58 | 145197 | 162429


Range status and errors

Selected range

Filename E:\temp\Misic\изи\Dave Brubeck - Brubeck Plays Brubeck.wav

Peak level 97.1 %
Range quality 99.9 %
Test CRC 881167EF
Copy CRC 881167EF
Copy OK

No errors occurred


AccurateRip summary

Track 1 accurately ripped (confidence 3) [2445292F]
Track 2 accurately ripped (confidence 3) [4A1FC7FF]
Track 3 accurately ripped (confidence 3) [B615287E]
Track 4 accurately ripped (confidence 3) [ACC35BB1]
Track 5 accurately ripped (confidence 3) [98C333CE]
Track 6 accurately ripped (confidence 3) [451B3F4D]
Track 7 accurately ripped (confidence 3) [D72125E8]
Track 8 accurately ripped (confidence 3) [88EBD506]
Track 9 accurately ripped (confidence 3) [DFBC7F07]

All tracks accurately ripped

End of status report

[CUETools log; Date: 23.10.2017 13:51:47; Version: 2.1.4]
[CTDB TOCID: gl741pR4XZusIYxWKF82hUyM8w4-] found.
Track | CTDB Status
1 | (37/38) Accurately ripped
2 | (37/38) Accurately ripped
3 | (37/38) Accurately ripped
4 | (37/38) Accurately ripped
5 | (37/38) Accurately ripped
6 | (37/38) Accurately ripped
7 | (37/38) Accurately ripped
8 | (37/38) Accurately ripped
9 | (37/38) Accurately ripped
[AccurateRip ID: 000c5394-005ad6b8-74087509] found.
Track [ CRC | V2 ] Status
01 [2445292f|09493911] (07+09/49) Accurately ripped
02 [4a1fc7ff|2a6529ca] (07+09/51) Accurately ripped
03 [b615287e|1c3c1530] (07+09/51) Accurately ripped
04 [acc35bb1|f239c927] (07+09/51) Accurately ripped
05 [98c333ce|3e108273] (07+09/49) Accurately ripped
06 [451b3f4d|f3b99963] (07+09/49) Accurately ripped
07 [d72125e8|83aa16eb] (07+09/49) Accurately ripped
08 [88ebd506|ebcf2fbe] (07+09/49) Accurately ripped
09 [dfbc7f07|752011f4] (07+09/51) Accurately ripped
Offsetted by 628:
01 [aaad8e7f] (20/49) Accurately ripped
02 [3ee8057b] (20/51) Accurately ripped
03 [8f01d2da] (20/51) Accurately ripped
04 [47d3f47d] (20/51) Accurately ripped
05 [36b7d846] (20/49) Accurately ripped
06 [22cdfae5] (20/49) Accurately ripped
07 [eb79fb04] (20/49) Accurately ripped
08 [b1ee14a6] (20/49) Accurately ripped
09 [e8681c3f] (20/51) Accurately ripped
Offsetted by -48:
01 [706ad66f] (00/49) No match (V2 was not tested)
02 [0d050fef] (00/51) No match (V2 was not tested)
03 [1e2a33ee] (00/51) No match (V2 was not tested)
04 [d9fb28e1] (00/51) No match (V2 was not tested)
05 [7e03a9ae] (00/49) No match (V2 was not tested)
06 [c06401ad] (00/49) No match (V2 was not tested)
07 [b4f67c58] (00/49) No match (V2 was not tested)
08 [b02e8386] (00/49) No match (V2 was not tested)
09 [afc977e7] (00/51) No match (V2 was not tested)
Offsetted by -36:
01 [9d616b1f] (00/49) No match (V2 was not tested)
02 [9c4bbdf3] (02/51) Accurately ripped
03 [8424f112] (02/51) Accurately ripped
04 [8ead3595] (02/51) Accurately ripped
05 [44b38c36] (00/49) No match (V2 was not tested)
06 [2191d115] (00/49) No match (V2 was not tested)
07 [bd8126bc] (00/49) No match (V2 was not tested)
08 [265dd7e6] (00/49) No match (V2 was not tested)
09 [7bc639af] (02/51) Accurately ripped

Track Peak [ CRC32 ] [W/O NULL] [ LOG ]
– 97,1 [881167EF] [CE449CFE] CRC32
01 94,5 [351A0238] [D41B9199]
02 82,6 [90EEAD6C] [0A4EED96]
03 95,0 [3C835CC8] [30847A66]
04 96,2 [65E9B41E] [2B7EB025]
05 95,3 [55C8B9B0] [DB1AC9D4]
06 95,1 [714A3D98] [AE708481]
07 81,8 [CE37AC2C] [D622EBFF]
08 97,1 [B801C940] [C370C1E1]
09 83,4 [49F1F5D1] [D7F867F7]

Thanks to shatterhand

See also:
Dave Brubeck Quartet - Brubeck Time (1955) [Reissue 2009]
Dave Brubeck Quartet Featuring Paul Desmond - Stardust (1983)