Subcategories

Dave Brubeck Quartet Featuring Paul Desmond - Stardust (1983)

Posted By: gribovar
Dave Brubeck Quartet Featuring Paul Desmond - Stardust (1983)

Dave Brubeck Quartet Featuring Paul Desmond - Stardust (1983)
EAC Rip | WavPack (image+.cue+log) - 294 MB | MP3 CBR 320 kbps (LAME 3.93) - 161 MB | Covers - 67 MB
Genre: Jazz | RAR 3% Rec. | Label: Fantasy Records (00025218242820)

The 17 selections on this disc represent the earliest recordings by one of the most important and definitive jazz combos in history. These are interesting because Dave Brubeck and Paul Desmond on alto sax had established the basic sound long before bassist Gene Wright and drummer Joe Morello would join them for the 'classic quartet' era. One other thing that is interesting is even though recording technology was relatively crude in the very early 1950s the sound quality on this album is more than acceptable.
Tracklist:
01. Mam'selle
02. Stardust
03. Frenesi
04. Me And My Shadow
05. At A Perfume Counter
06. Crazy Chris
07. A Foggy Day
08. Somebody Loves Me
09. Lyons Busy
10. Look For The Silver Lining
11. Stardust
12. At A Perfume Counter
13. Alice In Wonderland
14. All The Things You Are
15. Lulu's Back In Town
16. My Romance
17. Just One Of Those Things

Total time: 01:08:16

Exact Audio Copy V0.99 prebeta 5 from 4. May 2009

EAC extraction logfile from 2. November 2010, 0:00

Dave Brubeck Quartet Featuring Paul Desmond / Stardust

Used drive : TSSTcorpCDDVDW SH-S223F Adapter: 3 ID: 0

Read mode : Secure
Utilize accurate stream : Yes
Defeat audio cache : Yes
Make use of C2 pointers : No

Read offset correction : 6
Overread into Lead-In and Lead-Out : No
Fill up missing offset samples with silence : Yes
Delete leading and trailing silent blocks : No
Null samples used in CRC calculations : Yes
Used interface : Native Win32 interface for Win NT & 2000

Used output format : User Defined Encoder
Selected bitrate : 1024 kBit/s
Quality : High
Add ID3 tag : No
Command line compressor : C:\Program Files\Exact Audio Copy\wavpack.exe
Additional command line options : -hlm %s


TOC of the extracted CD

Track | Start | Length | Start sector | End sector
––––––––––––––––––––––––––––-
1 | 0:00.00 | 2:53.30 | 0 | 13004
2 | 2:53.30 | 7:00.57 | 13005 | 44561
3 | 9:54.12 | 2:37.00 | 44562 | 56336
4 | 12:31.12 | 2:30.15 | 56337 | 67601
5 | 15:01.27 | 2:54.73 | 67602 | 80724
6 | 17:56.25 | 3:23.65 | 80725 | 96014
7 | 21:20.15 | 3:10.42 | 96015 | 110306
8 | 24:30.57 | 3:22.05 | 110307 | 125461
9 | 27:52.62 | 3:16.08 | 125462 | 140169
10 | 31:08.70 | 3:44.40 | 140170 | 157009
11 | 34:53.35 | 3:05.05 | 157010 | 170889
12 | 37:58.40 | 15:03.50 | 170890 | 238664
13 | 53:02.15 | 3:36.45 | 238665 | 254909
14 | 56:38.60 | 3:21.17 | 254910 | 270001
15 | 60:00.02 | 2:23.48 | 270002 | 280774
16 | 62:23.50 | 2:39.55 | 280775 | 292754
17 | 65:03.30 | 3:12.67 | 292755 | 307221


Range status and errors

Selected range

Filename E:\temp\Misic\brubdesm\Dave Brubeck Quartet Featuring Paul Desmond - Stardust.wav

Peak level 88.5 %
Range quality 100.0 %
Test CRC 0C089821
Copy CRC 0C089821
Copy OK

No errors occurred


AccurateRip summary

Track 1 not present in database
Track 2 not present in database
Track 3 not present in database
Track 4 not present in database
Track 5 not present in database
Track 6 not present in database
Track 7 not present in database
Track 8 not present in database
Track 9 not present in database
Track 10 not present in database
Track 11 not present in database
Track 12 not present in database
Track 13 not present in database
Track 14 not present in database
Track 15 not present in database
Track 16 not present in database
Track 17 not present in database

None of the tracks are present in the AccurateRip database

End of status report

[CUETools log; Date: 21.10.2017 13:29:17; Version: 2.1.4]
[CTDB TOCID: hRnT6RFnqwupoOuEasjOUYboG8s-] found.
Track | CTDB Status
1 | (14/14) Accurately ripped
2 | (14/14) Accurately ripped
3 | (14/14) Accurately ripped
4 | (14/14) Accurately ripped
5 | (14/14) Accurately ripped
6 | (14/14) Accurately ripped
7 | (14/14) Accurately ripped
8 | (14/14) Accurately ripped
9 | (14/14) Accurately ripped
10 | (14/14) Accurately ripped
11 | (14/14) Accurately ripped
12 | (12/14) Accurately ripped
13 | (13/14) Accurately ripped
14 | (13/14) Accurately ripped
15 | (14/14) Accurately ripped
16 | (14/14) Accurately ripped
17 | (14/14) Accurately ripped
[AccurateRip ID: 00294bee-0212df5c-ed100011] found.
Track [ CRC | V2 ] Status
01 [18b8ccfb|95d4d9b2] (02+03/19) Accurately ripped
02 [e3c83a0f|9498b915] (02+03/19) Accurately ripped
03 [da99972d|56d43db7] (02+03/19) Accurately ripped
04 [77a46009|6988602d] (02+03/19) Accurately ripped
05 [7295b653|5923f446] (02+03/19) Accurately ripped
06 [b8b6f34c|b5a492bd] (02+03/19) Accurately ripped
07 [a57d659d|155e9985] (02+03/19) Accurately ripped
08 [f0be304c|f7b3d337] (02+03/19) Accurately ripped
09 [e3d373fc|e910db42] (02+03/19) Accurately ripped
10 [9d721491|4c2f9392] (02+03/19) Accurately ripped
11 [5ad38acf|8060c43b] (02+03/19) Accurately ripped
12 [f0709e4c|7329c2da] (02+03/19) Accurately ripped
13 [e8a681d3|3cb92e0c] (02+03/19) Accurately ripped
14 [81f0f129|fea6e8f6] (02+03/19) Accurately ripped
15 [76f99d9e|5c4efc52] (02+03/19) Accurately ripped
16 [f565414b|7feb9c8b] (02+03/19) Accurately ripped
17 [4ed1ce47|ad55a73f] (02+03/19) Accurately ripped
Offsetted by 464:
01 [a7f3d4d6] (02/19) Accurately ripped
02 [41e385b5] (02/19) Accurately ripped
03 [a4561677] (02/19) Accurately ripped
04 [8d0a13fa] (02/19) Accurately ripped
05 [c58a8c06] (02/19) Accurately ripped
06 [c39ba99d] (02/19) Accurately ripped
07 [5824858c] (02/19) Accurately ripped
08 [9ccafd2f] (02/19) Accurately ripped
09 [b0239fb6] (02/19) Accurately ripped
10 [85a9dbfd] (02/19) Accurately ripped
11 [50644f0a] (02/19) Accurately ripped
12 [e6be23a0] (02/19) Accurately ripped
13 [5719c60e] (02/19) Accurately ripped
14 [b692affa] (02/19) Accurately ripped
15 [29f81081] (02/19) Accurately ripped
16 [9b9bda5c] (02/19) Accurately ripped
17 [f0cec8d3] (02/19) Accurately ripped
Offsetted by -12:
01 [922103f5] (00/19) No match
02 [36c6cfb2] (00/19) No match
03 [793a640a] (00/19) No match
04 [875ae057] (00/19) No match
05 [3ce7f36a] (00/19) No match
06 [ae40a6a9] (00/19) No match
07 [cc772e7c] (00/19) No match
08 [16ae0f5e] (00/19) No match
09 [1c253368] (00/19) No match
10 [9a93f4b6] (00/19) No match
11 [2d55f2f7] (00/19) No match
12 [cdc7a17e] (00/19) No match
13 [d4ced025] (00/19) No match
14 [cb6ff850] (00/19) No match
15 [6a975949] (00/19) No match
16 [fe6468a1] (00/19) No match
17 [19687037] (00/19) No match (V2 was not tested)
Offsetted by 454:
01 [948cecb8] (00/19) No match (V2 was not tested)
02 [5036e767] (00/19) No match (V2 was not tested)
03 [71ea4ea4] (00/19) No match (V2 was not tested)
04 [ce36ee75] (00/19) No match (V2 was not tested)
05 [3ef8d57c] (00/19) No match (V2 was not tested)
06 [2318bec7] (00/19) No match (V2 was not tested)
07 [3026a06a] (00/19) No match (V2 was not tested)
08 [113cd2f5] (00/19) No match (V2 was not tested)
09 [ff87f94d] (00/19) No match (V2 was not tested)
10 [e0c2b60e] (00/19) No match (V2 was not tested)
11 [00b9890c] (00/19) No match (V2 was not tested)
12 [28663738] (00/19) No match (V2 was not tested)
13 [5a98093c] (00/19) No match (V2 was not tested)
14 [303fcc25] (00/19) No match (V2 was not tested)
15 [2e04615f] (00/19) No match (V2 was not tested)
16 [d81c3957] (00/19) No match (V2 was not tested)
17 [d9bb3af2] (00/19) No match (V2 was not tested)
Offsetted by 664:
01 [fc73be14] (00/19) No match (V2 was not tested)
02 [fe7b4075] (00/19) No match (V2 was not tested)
03 [2d806f56] (00/19) No match (V2 was not tested)
04 [aa56910b] (00/19) No match (V2 was not tested)
05 [0b701a8b] (00/19) No match (V2 was not tested)
06 [1e65df4f] (00/19) No match (V2 was not tested)
07 [3b8bc48f] (00/19) No match (V2 was not tested)
08 [f4fec195] (00/19) No match (V2 was not tested)
09 [b8caee99] (00/19) No match (V2 was not tested)
10 [0fa1e342] (00/19) No match (V2 was not tested)
11 [5aa715c7] (00/19) No match (V2 was not tested)
12 [85325225] (00/19) No match (V2 was not tested)
13 [07a6cf10] (00/19) No match (V2 was not tested)
14 [13f7b227] (00/19) No match (V2 was not tested)
15 [fe855179] (00/19) No match (V2 was not tested)
16 [be20fabf] (00/19) No match (V2 was not tested)
17 [172d53eb] (00/19) No match (V2 was not tested)

Track Peak [ CRC32 ] [W/O NULL] [ LOG ]
– 88,5 [0C089821] [65905F0E] CRC32
01 79,2 [59AF9FE3] [2850BE7D]
02 79,4 [1966B8F7] [EE4FD40C]
03 80,1 [2A53038F] [14BFB339]
04 88,5 [C39CDE5B] [56D8F4EA]
05 68,3 [6B16E499] [FB082B9D]
06 80,6 [E90401CB] [31C8F393]
07 79,3 [96FF0181] [A724CD0C]
08 63,3 [08CA9B08] [853CD19C]
09 71,1 [E96D729D] [2F0D78C7]
10 70,1 [EFB31FC4] [24084743]
11 63,1 [003AD2AE] [1B9BA832]
12 78,2 [B91F0321] [40B1318C]
13 67,6 [1AB18221] [62E892AF]
14 73,5 [B6D5784F] [1BF75822]
15 83,1 [2C44A526] [4AAB7EB0]
16 78,2 [A07C39EE] [08514449]
17 71,7 [08B24002] [A3F6E56A]

Thanks to shatterhand

See also:
Paul Desmond - Bridge Over Troubled Water (1970) [Reissue 2008]