Subcategories

Dave Brubeck Quartet - Jazz At The College Of The Pacific (1954) [Reissue 1997]

Posted By: gribovar
Dave Brubeck Quartet - Jazz At The College Of The Pacific (1954) [Reissue 1997]

Dave Brubeck Quartet - Jazz At The College Of The Pacific (1954) [Reissue 1997]
EAC Rip | FLAC (image+.cue+log) - 186 MB | MP3 CBR 320 kbps (LAME 3.93) - 102 MB | Covers (7 MB) included
Genre: Jazz | RAR 3% Rec. | Label: Fantasy (0025218604727)

This set is a near-classic, one of many from this period, by the Dave Brubeck Quartet. Drummer Joe Dodge had just joined the group, and he works with bassist Ron Crotty in laying down a solid and subtle foundation. The real action, however, takes place up front with pianist Dave Brubeck and altoist Paul Desmond. Their individual solos are full of creative ideas on six standards - most memorable are "All the Things You Are," "Laura," and "I'll Never Smile Again" - and their interaction and tradeoffs are timeless.
Tracklist:
01. All the Things You Are
02. Laura
03. Lullaby in Rhythm
04. I'll Never Smile Again
05. I Remember You
06. For All We Know

Total time: 40:23

Exact Audio Copy V1.0 beta 3 from 29. August 2011

EAC extraction logfile from 21. February 2015, 22:42

Dave Brubeck Quartet / Jazz at the College of the Pacific

Used drive : TSSTcorpCDDVDW SH-224DB Adapter: 3 ID: 0

Read mode : Secure
Utilize accurate stream : Yes
Defeat audio cache : Yes
Make use of C2 pointers : No

Read offset correction : 6
Overread into Lead-In and Lead-Out : No
Fill up missing offset samples with silence : Yes
Delete leading and trailing silent blocks : No
Null samples used in CRC calculations : Yes
Used interface : Native Win32 interface for Win NT & 2000

Used output format : Internal WAV Routines
Sample format : 44.100 Hz; 16 Bit; Stereo


TOC of the extracted CD

Track | Start | Length | Start sector | End sector
––––––––––––––––––––––––––––-
1 | 0:00.00 | 9:12.25 | 0 | 41424
2 | 9:12.25 | 3:12.22 | 41425 | 55846
3 | 12:24.47 | 7:25.45 | 55847 | 89266
4 | 19:50.17 | 5:28.38 | 89267 | 113904
5 | 25:18.55 | 9:12.10 | 113905 | 155314
6 | 34:30.65 | 5:52.20 | 155315 | 181734


Range status and errors

Selected range

Filename G:\Temp\Dave Brubeck Quartet - Jazz at the College of the Pacific\Dave Brubeck Quartet - Jazz at the College of the Pacific.wav

Peak level 73.4 %
Extraction speed 2.7 X
Range quality 100.0 %
Test CRC 58AF11E7
Copy CRC 58AF11E7
Copy OK

No errors occurred


AccurateRip summary

Track 1 accurately ripped (confidence 2) [0D977029] (AR v2)
Track 2 accurately ripped (confidence 2) [24C55EF6] (AR v2)
Track 3 accurately ripped (confidence 2) [509C3AEA] (AR v2)
Track 4 accurately ripped (confidence 2) [F3FF20E6] (AR v2)
Track 5 accurately ripped (confidence 2) [CAA1AB92] (AR v2)
Track 6 accurately ripped (confidence 2) [45EA2629] (AR v2)

All tracks accurately ripped

End of status report

==== Log checksum 123763F3D36E37DA68F0FB5E7FD8A4C21C3E301689AAD42C81E150FB48263D8F ====

[CUETools log; Date: 06.01.2018 18:52:38; Version: 2.1.4]
[CTDB TOCID: u7sYAJx320v7epJgN0934A1fDrw-] found.
Track | CTDB Status
1 | (37/37) Accurately ripped
2 | (37/37) Accurately ripped
3 | (37/37) Accurately ripped
4 | (37/37) Accurately ripped
5 | (37/37) Accurately ripped
6 | (37/37) Accurately ripped
[AccurateRip ID: 0009ba36-0033971c-41097706] found.
Track [ CRC | V2 ] Status
01 [14b7f120|0d977029] (03+03/38) Accurately ripped
02 [0834f15b|24c55ef6] (03+03/38) Accurately ripped
03 [ad0183ad|509c3aea] (03+03/37) Accurately ripped
04 [d8b7d226|f3ff20e6] (03+03/37) Accurately ripped
05 [4a3b3fd4|caa1ab92] (03+03/37) Accurately ripped
06 [7d180625|45ea2629] (03+03/37) Accurately ripped
Offsetted by 381:
01 [1bb223c7] (05/38) Accurately ripped
02 [4fdbd217] (05/38) Accurately ripped
03 [afae4c48] (04/37) Accurately ripped
04 [0267f6ac] (04/37) Accurately ripped
05 [1a4c110d] (04/37) Accurately ripped
06 [d919594d] (04/37) Accurately ripped
Offsetted by 664:
01 [35761dba] (02/38) Accurately ripped
02 [da926da0] (02/38) Accurately ripped
03 [73798815] (02/37) Accurately ripped
04 [89e82ac7] (02/37) Accurately ripped
05 [ebb79629] (02/37) Accurately ripped
06 [6ff1a86b] (02/37) Accurately ripped
Offsetted by 1173:
01 [e2a60d23] (03/38) Accurately ripped
02 [4dcbea84] (03/38) Accurately ripped
03 [94461dac] (03/37) Accurately ripped
04 [270fb01d] (03/37) Accurately ripped
05 [18639a37] (03/37) Accurately ripped
06 [ae0bbfbd] (03/37) Accurately ripped
Offsetted by 379:
01 [174615fa] (00/38) No match (V2 was not tested)
02 [0653ad7c] (00/38) No match (V2 was not tested)
03 [f80fe849] (00/37) No match (V2 was not tested)
04 [f9ff3084] (00/37) No match (V2 was not tested)
05 [007ca286] (00/37) No match (V2 was not tested)
06 [8b0b01b6] (00/37) No match (V2 was not tested)
Offsetted by 1328:
01 [68a40bd0] (00/38) No match (V2 was not tested)
02 [9d569c4c] (00/38) No match (V2 was not tested)
03 [bba4311f] (00/37) No match (V2 was not tested)
04 [dad15351] (00/37) No match (V2 was not tested)
05 [543b5a3b] (00/37) No match (V2 was not tested)
06 [ea9ed24f] (00/37) No match (V2 was not tested)

Track Peak [ CRC32 ] [W/O NULL] [ LOG ]
– 73,4 [58AF11E7] [927386DB] CRC32
01 58,2 [18E4739E] [73A0B4F5]
02 58,5 [E120EABD] [7B1CA66F]
03 73,4 [9D29E476] [6C184379]
04 58,3 [EE4BA926] [1B9DCEED]
05 59,0 [A97BDFD1] [49994682]
06 63,4 [86EB117E] [556193E6]

Thanks to shatterhand

See also:
Dave Brubeck Quartet - Brubeck Time (1955) [Reissue 2009]
Dave Brubeck - Brubeck Plays Brubeck (1956) [Reissue 2009]
The Dave Brubeck Quartet - Jazz Impressions of Japan (1964) [Reissue 2009]
Dave Brubeck Quartet Featuring Paul Desmond - Stardust (1983)