Tags
Language
Tags

Dave Brubeck Quartet - Near-Myth With Bill Smith (1961) [Reissue 1995] (Repost)

Posted By: gribovar
Dave Brubeck Quartet - Near-Myth With Bill Smith (1961) [Reissue 1995] (Repost)

Dave Brubeck Quartet - Near-Myth With Bill Smith (1961) [Reissue 1995]
EAC Rip | FLAC (tracks+.cue+log) - 265 MB | MP3 CBR 320 kbps (LAME 3.93) - 110 MB | Covers (5 MB) included
Genre: Jazz | RAR 3% Rec. | Label: Fantasy Records (0025218623629)

This is the third and final guest appearance by clarinetist Bill Smith in the place of Paul Desmond with the Dave Brubeck Quartet. Like the earlier record dates, this 1961 session focuses exclusively on Smith's compositions, resulting in a very different sound for the band than its normal mix of the leader's songs and standards. Smith was a member of Brubeck's adventurous octet of the late '40s and, like the pianist, also studied with French composer Darius Milhaud. So the clarinetist is willing to take chances, utilizing a mute on his instrument in "Pan's Pipes," and having drummer Joe Morello use his timpani sticks on the piano strings in the swinging "The Unihorn." Smith proves himself very much in Desmond's league with his witty solos and equally amusing, pun-filled liner notes. While none of these songs became a regular part of Brubeck's repertoire, even after Smith replaced tenorist Jerry Bergonzi as a member of the quartet in 1982, this is easily the best of the three albums that he made with Dave Brubeck during the late '50s and early '60s.
Tracklist:
01. The Unihorn
02. Bach An'all
03. Siren Song
04. Pan's Pipes
05. By Jupiter
06. Baggin' The Dragon
07. Apollo's Axe
08. The Sailor And The Mermaid
09. Nep-Tune
10. Pan Dance

Total time: 44:26

Exact Audio Copy V0.99 prebeta 5 from 4. May 2009

EAC extraction logfile from 4. March 2010, 11:13

Dave Brubeck Quartet / Near-Myth With Bill Smith

Used drive : PLEXTOR CD-R PREMIUM2 Adapter: 1 ID: 1

Read mode : Secure
Utilize accurate stream : Yes
Defeat audio cache : Yes
Make use of C2 pointers : No

Read offset correction : 30
Overread into Lead-In and Lead-Out : Yes
Fill up missing offset samples with silence : Yes
Delete leading and trailing silent blocks : No
Null samples used in CRC calculations : Yes
Used interface : Installed external ASPI interface
Gap handling : Appended to previous track

Used output format : User Defined Encoder
Selected bitrate : 32 kBit/s
Quality : High
Add ID3 tag : No
Command line compressor : C:\Programmi\FLAC\flac.exe
Additional command line options : -8 -V -T "ARTIST=%a" -T "TITLE=%t" -T "ALBUM=%g" -T "DATE=%y" -T "TRACKNUMBER=%n" -T "GENRE=%m" -T "COMMENT=EAC FLAC -8" %s


TOC of the extracted CD

Track | Start | Length | Start sector | End sector
––––––––––––––––––––––––––––-
1 | 0:00.00 | 5:18.73 | 0 | 23922
2 | 5:18.73 | 3:53.60 | 23923 | 41457
3 | 9:12.58 | 5:46.00 | 41458 | 67407
4 | 14:58.58 | 4:15.62 | 67408 | 86594
5 | 19:14.45 | 3:56.15 | 86595 | 104309
6 | 23:10.60 | 6:51.13 | 104310 | 135147
7 | 30:01.73 | 3:26.70 | 135148 | 150667
8 | 33:28.68 | 4:17.50 | 150668 | 169992
9 | 37:46.43 | 2:55.40 | 169993 | 183157
10 | 40:42.08 | 3:43.57 | 183158 | 199939


Track 1

Filename D:\My Rip\01 - The Unihorn.wav

Pre-gap length 0:00:02.00

Peak level 100.0 %
Track quality 100.0 %
Test CRC DEB6CBB9
Copy CRC DEB6CBB9
Cannot be verified as accurate (confidence 1) [0214BCF6], AccurateRip returned [AC51B946]
Copy OK

Track 2

Filename D:\My Rip\02 - Bach An'all.wav

Pre-gap length 0:00:03.00

Peak level 100.0 %
Track quality 100.0 %
Test CRC 283556A0
Copy CRC 283556A0
Cannot be verified as accurate (confidence 1) [4C337A23], AccurateRip returned [A6A6634B]
Copy OK

Track 3

Filename D:\My Rip\03 - Siren Song.wav

Pre-gap length 0:00:02.50

Peak level 82.3 %
Track quality 99.9 %
Test CRC C38ED724
Copy CRC C38ED724
Cannot be verified as accurate (confidence 1) [0A4A0EC1], AccurateRip returned [22B18A61]
Copy OK

Track 4

Filename D:\My Rip\04 - Pan's Pipes.wav

Pre-gap length 0:00:05.26

Peak level 81.7 %
Track quality 100.0 %
Test CRC 7E217217
Copy CRC 7E217217
Cannot be verified as accurate (confidence 1) [B19E93D7], AccurateRip returned [C326D487]
Copy OK

Track 5

Filename D:\My Rip\05 - By Jupiter.wav

Pre-gap length 0:00:03.16

Peak level 100.0 %
Track quality 100.0 %
Test CRC D8200602
Copy CRC D8200602
Cannot be verified as accurate (confidence 1) [CAED2F97], AccurateRip returned [F163FAA7]
Copy OK

Track 6

Filename D:\My Rip\06 - Baggin' The Dragon.wav

Pre-gap length 0:00:02.40

Peak level 100.0 %
Track quality 100.0 %
Test CRC 2FA5C472
Copy CRC 2FA5C472
Cannot be verified as accurate (confidence 1) [459AF3CD], AccurateRip returned [8DAB66CD]
Copy OK

Track 7

Filename D:\My Rip\07 - Apollo's Axe.wav

Pre-gap length 0:00:02.33

Peak level 91.0 %
Track quality 100.0 %
Test CRC 84372F89
Copy CRC 84372F89
Cannot be verified as accurate (confidence 1) [0F993107], AccurateRip returned [ADAA4B27]
Copy OK

Track 8

Filename D:\My Rip\08 - The Sailor And The Mermaid.wav

Pre-gap length 0:00:03.64

Peak level 100.0 %
Track quality 99.9 %
Test CRC 28D88163
Copy CRC 28D88163
Cannot be verified as accurate (confidence 1) [21849857], AccurateRip returned [1FBF77E7]
Copy OK

Track 9

Filename D:\My Rip\09 - Nep-Tune.wav

Pre-gap length 0:00:02.97

Peak level 100.0 %
Track quality 100.0 %
Test CRC 5181C8F3
Copy CRC 5181C8F3
Cannot be verified as accurate (confidence 1) [D808C4B9], AccurateRip returned [06231C31]
Copy OK

Track 10

Filename D:\My Rip\10 - Pan Dance.wav

Pre-gap length 0:00:02.24

Peak level 100.0 %
Track quality 100.0 %
Test CRC DF020879
Copy CRC DF020879
Cannot be verified as accurate (confidence 1) [CCB30AF5], AccurateRip returned [9D5A113D]
Copy OK


No tracks could be verified as accurate
You may have a different pressing from the one(s) in the database

No errors occurred

End of status report

[CUETools log; Date: 08.02.2019 23:19:30; Version: 2.1.4]
[CTDB TOCID: 3gjbFvnu_BzWBxtrMcQtR1p6joA-] found.
Track | CTDB Status
1 | (13/13) Accurately ripped
2 | (13/13) Accurately ripped
3 | (13/13) Accurately ripped
4 | (13/13) Accurately ripped
5 | (13/13) Accurately ripped
6 | (13/13) Accurately ripped
7 | (13/13) Accurately ripped
8 | (13/13) Accurately ripped
9 | (13/13) Accurately ripped
10 | (13/13) Accurately ripped
[AccurateRip ID: 0011bd69-008c93fd-690a690a] found.
Track [ CRC | V2 ] Status
01 [0214bcf6|ac509e5c] (02+05/14) Accurately ripped
02 [4c337a23|6dfbe0d1] (02+05/14) Accurately ripped
03 [0a4a0ec1|97bc2416] (02+05/14) Accurately ripped
04 [b19e93d7|b5587673] (02+05/14) Accurately ripped
05 [caed2f97|3a024140] (02+05/14) Accurately ripped
06 [459af3cd|9ef0599f] (02+05/14) Accurately ripped
07 [0f993107|7462a2e8] (02+05/14) Accurately ripped
08 [21849857|1a2bbed3] (02+05/14) Accurately ripped
09 [d808c4b9|412135f2] (02+05/14) Accurately ripped
10 [ccb30af5|5e2d08e4] (02+05/14) Accurately ripped
Offsetted by 664:
01 [ac51b946] (03/14) Accurately ripped
02 [a6a6634b] (03/14) Accurately ripped
03 [22b18a61] (03/14) Accurately ripped
04 [c326d487] (03/14) Accurately ripped
05 [f163faa7] (03/14) Accurately ripped
06 [8dab66cd] (03/14) Accurately ripped
07 [adaa4b27] (03/14) Accurately ripped
08 [1fbf77e7] (03/14) Accurately ripped
09 [06231c31] (03/14) Accurately ripped
10 [9d5a113d] (03/14) Accurately ripped

Track Peak [ CRC32 ] [W/O NULL] [ LOG ]
– 100,0 [F24FE84C] [66F42586]
01 100,0 [DEB6CBB9] [EC676FE5] CRC32
02 100,0 [283556A0] [82715609] CRC32
03 82,3 [C38ED724] [EDD0C4B6] CRC32
04 81,7 [7E217217] [85F9B86D] CRC32
05 100,0 [D8200602] [8ABAABE1] CRC32
06 100,0 [2FA5C472] [448DEA9F] CRC32
07 91,0 [84372F89] [EB6E775D] CRC32
08 100,0 [28D88163] [CD79CED6] CRC32
09 100,0 [5181C8F3] [CE9D2333] CRC32
10 100,0 [DF020879] [03E059B0] CRC32

Thanks to the original releaser

See also: