Subcategories

The Dave Brubeck Quartet - Time Changes (1964) {Columbia}

Posted By: tiburon
The Dave Brubeck Quartet - Time Changes (1964) {Columbia}

The Dave Brubeck Quartet - Time Changes (1964) {Columbia}
EAC 0.99pb4 | FLAC tracks level 6 | Cue+Log+M3U | Full Scans 300dpi | 262MB + 5% Recovery
MP3 CBR 320 Kbps | 102MB + 5% Recovery
Genre: Hard Bop, Cool
The Dave Brubeck Quartet - Time Changes (1964) {Columbia}

For this entry in Dave Brubeck's series of Time albums, his Quartet with altoist Paul Desmond performs "Elementals" with an orchestra and plays five briefer originals including four that have unusual time signatures; "World's Fair" is in 13/4 time.
Track List
1. Iberia (3:00)
2. Unisphere (5:43)
3. Shim Wha (4:02)
4. World's Fair (2:44)
5. Cable Car (2:59)
6. Theme From Elementals (3:08)
7. Elementals (16:35)

musicians
Dave Brubeck - piano
Paul Desmond - alto sax
Eugene Wright - bass
Joe Morello - drums
Symphony Orchestra conducted by Rayburn Wright

Produced by Teo Macero


Exact Audio Copy V0.99 prebeta 4 from 23. January 2008

EAC extraction logfile from 30. March 2008, 4:26

The Dave Brubeck Quartet / Time Changes

Used drive : HL-DT-STDVDRAM GSA-4163B Adapter: 1 ID: 0

Read mode : Secure
Utilize accurate stream : Yes
Defeat audio cache : Yes
Make use of C2 pointers : No

Read offset correction : 667
Overread into Lead-In and Lead-Out : No
Fill up missing offset samples with silence : Yes
Delete leading and trailing silent blocks : No
Null samples used in CRC calculations : Yes
Used interface : Native Win32 interface for Win NT & 2000
Gap handling : Appended to previous track

Used output format : User Defined Encoder
Selected bitrate : 320 kBit/s
Quality : High
Add ID3 tag : No
Command line compressor : D:\Program files\FLAC\flac.exe
Additional command line options : -6 -T "artist=%a" -T "title=%t" -T "album=%g" -T "date=%y" -T "tracknumber=%n" -T "genre=%m" %s


TOC of the extracted CD

Track | Start | Length | Start sector | End sector
––––––––––––––––––––––––––––-
1 | 0:00.00 | 3:00.32 | 0 | 13531
2 | 3:00.32 | 5:43.28 | 13532 | 39284
3 | 8:43.60 | 4:02.45 | 39285 | 57479
4 | 12:46.30 | 2:44.60 | 57480 | 69839
5 | 15:31.15 | 2:59.47 | 69840 | 83311
6 | 18:30.62 | 3:08.40 | 83312 | 97451
7 | 21:39.27 | 16:35.18 | 97452 | 172094


Track 1

Filename E:\MUSIC_TEMP\Rip\Jazz\The Dave Brubeck Quartet\Time Changes (1964)\01 - Iberia.wav

Pre-gap length 0:00:02.00

Peak level 98.8 %
Track quality 100.0 %
Test CRC 6E13E0D7
Copy CRC 6E13E0D7
Accurately ripped (confidence 9) [34AC0F00]
Copy OK

Track 2

Filename E:\MUSIC_TEMP\Rip\Jazz\The Dave Brubeck Quartet\Time Changes (1964)\02 - Unisphere.wav

Pre-gap length 0:00:03.10

Peak level 94.4 %
Track quality 100.0 %
Test CRC A709B57C
Copy CRC A709B57C
Accurately ripped (confidence 10) [C33B1C89]
Copy OK

Track 3

Filename E:\MUSIC_TEMP\Rip\Jazz\The Dave Brubeck Quartet\Time Changes (1964)\03 - Shim Wha.wav

Pre-gap length 0:00:01.42

Peak level 89.1 %
Track quality 100.0 %
Test CRC 692395D7
Copy CRC 692395D7
Accurately ripped (confidence 10) [F2FDD1B4]
Copy OK

Track 4

Filename E:\MUSIC_TEMP\Rip\Jazz\The Dave Brubeck Quartet\Time Changes (1964)\04 - World's Fair.wav

Pre-gap length 0:00:02.52

Peak level 100.0 %
Track quality 100.0 %
Test CRC BE2FD09D
Copy CRC BE2FD09D
Accurately ripped (confidence 10) [53F69A07]
Copy OK

Track 5

Filename E:\MUSIC_TEMP\Rip\Jazz\The Dave Brubeck Quartet\Time Changes (1964)\05 - Cable Car.wav

Pre-gap length 0:00:02.38

Peak level 94.4 %
Track quality 99.9 %
Test CRC 01718C62
Copy CRC 01718C62
Accurately ripped (confidence 10) [D9575203]
Copy OK

Track 6

Filename E:\MUSIC_TEMP\Rip\Jazz\The Dave Brubeck Quartet\Time Changes (1964)\06 - Theme from Elementals.wav

Pre-gap length 0:00:02.59

Peak level 98.8 %
Track quality 100.0 %
Test CRC 02D161A4
Copy CRC 02D161A4
Accurately ripped (confidence 10) [A6F8088A]
Copy OK

Track 7

Filename E:\MUSIC_TEMP\Rip\Jazz\The Dave Brubeck Quartet\Time Changes (1964)\07 - Elementals.wav

Pre-gap length 0:00:02.18

Peak level 98.8 %
Track quality 99.9 %
Test CRC 3E1910B2
Copy CRC 3E1910B2
Accurately ripped (confidence 10) [C1742031]
Copy OK


All tracks accurately ripped

No errors occurred

End of status report


––––––––––––––––––––––––––––––––––––––––
Analyzed: The Dave Brubeck Quartet / Time Changes
––––––––––––––––––––––––––––––––––––––––

DR Peak RMS Duration Track
––––––––––––––––––––––––––––––––––––––––
DR13 -0.10 dB -14.31 dB 3:00 01-Iberia
DR12 -0.50 dB -14.23 dB 5:43 02-Unisphere
DR12 -1.00 dB -15.45 dB 4:03 03-Shim Wha
DR12 0.00 dB -14.59 dB 2:45 04-World's Fair
DR12 -0.50 dB -15.80 dB 3:00 05-Cable Car
DR10 -0.10 dB -15.67 dB 3:09 06-Theme from Elementals
DR10 -0.10 dB -12.55 dB 16:35 07-Elementals
––––––––––––––––––––––––––––––––––––––––

Number of tracks: 7
Official DR value: DR12

Samplerate: 44100 Hz
Channels: 2
Bits per sample: 16
Bitrate: 929 kbps
Codec: FLAC
================================================================================

The Dave Brubeck Quartet - Time Changes (1964) {Columbia}
The Dave Brubeck Quartet - Time Changes (1964) {Columbia}
The Dave Brubeck Quartet - Time Changes (1964) {Columbia}


Thanks to the original ripper