Tags
Language
Tags

Dave Gahan - Hourglass Remixes (2008)

Posted By: gribovar
Dave Gahan - Hourglass Remixes (2008)

Dave Gahan - Hourglass Remixes (2008)
EAC Rip | FLAC (tracks+.cue+log) - 361 MB | MP3 CBR 320 kbps (LAME 3.93) - 125 MB | Covers - 18 MB
Genre: EBM, House, Synth-pop | RAR 3% Rec. | Label: Mute (LSTUMM 288)

Dave Gahan is an English singer-songwriter, best known as the lead singer of the electronic band Depeche Mode since their debut in 1980.
With his second solo album, "Hourglass" (2007), the Depeche Mode front man emerged as a gifted songwriter, masterfully capturing man's race against - and fear of running out of - time.
The bonus CD of "Hourglass Remixes" (2008) includes all eight tracks from the vinyl plus three additional remixes.
Tracklist:
01. Deeper And Deeper (The Juan MacLean Club Mix)
02. Kingdom (Booka Shade Club Remix)
03. Love Will Leave (Kap10kurt Mix)
04. Use You (Maps Remix)
05. Deeper And Deeper (T. Raumschmiere Remix Extended)
06. Kingdom (Digitalism Remix)
07. Saw Something (Onur Ozer Remix)
08. Deeper & Deeper (Sebastien Leger Remix)
09. Kingdom (Rosario's Big Room Vocal)
10. Saw Something (Skreamix)
11. Deeper And Deeper (SHRUBBN!! FX Instrumental)

Total time: 52:03

Exact Audio Copy V1.3 from 2. September 2016

EAC extraction logfile from 22. January 2020, 23:54

Dave Gahan / Hourglass Remixes

Used drive : PIONEER DVD-RW DVR-221L Adapter: 1 ID: 0

Read mode : Secure
Utilize accurate stream : Yes
Defeat audio cache : Yes
Make use of C2 pointers : No

Read offset correction : 6
Overread into Lead-In and Lead-Out : No
Fill up missing offset samples with silence : Yes
Delete leading and trailing silent blocks : No
Null samples used in CRC calculations : Yes
Used interface : Native Win32 interface for Win NT & 2000
Gap handling : Appended to previous track

Used output format : User Defined Encoder
Selected bitrate : 1024 kBit/s
Quality : High
Add ID3 tag : No
Command line compressor : C:\Program Files (x86)\Exact Audio Copy\FLAC\FLAC.EXE
Additional command line options : -6 -V -T "COMMENT=ripped by RRC" -T "ARTIST=%artist%" -T "TITLE=%title%" -T "ALBUM=%albumtitle%" -T "DATE=%year%" -T "TRACKNUMBER=%tracknr%" -T "GENRE=%genre%" %source%


TOC of the extracted CD

Track | Start | Length | Start sector | End sector
––––––––––––––––––––––––––––-
1 | 0:00.00 | 5:08.40 | 0 | 23139
2 | 5:08.40 | 5:36.00 | 23140 | 48339
3 | 10:44.40 | 3:43.30 | 48340 | 65094
4 | 14:27.70 | 3:38.56 | 65095 | 81500
5 | 18:06.51 | 3:34.14 | 81501 | 97564
6 | 21:40.65 | 4:16.50 | 97565 | 116814
7 | 25:57.40 | 5:07.14 | 116815 | 139853
8 | 31:04.54 | 5:08.72 | 139854 | 163025
9 | 36:13.51 | 6:09.57 | 163026 | 190757
10 | 42:23.33 | 4:54.14 | 190758 | 212821
11 | 47:17.47 | 4:45.07 | 212822 | 234203


Track 1

Filename E:\RRCLtd Rip\01 - Deeper and Deeper (The Juan MacLean Club Mix).wav

Pre-gap length 0:00:02.00

Peak level 100.0 %
Extraction speed 2.8 X
Track quality 100.0 %
Test CRC 51B25F03
Copy CRC 51B25F03
Accurately ripped (confidence 12) [4C130EDF] (AR v2)
Copy OK

Track 2

Filename E:\RRCLtd Rip\02 - Kingdom (Booka Shade Club Remix).wav

Pre-gap length 0:00:03.28

Peak level 97.6 %
Extraction speed 2.7 X
Track quality 99.9 %
Test CRC BEB98DAE
Copy CRC BEB98DAE
Accurately ripped (confidence 12) [FCCC412B] (AR v2)
Copy OK

Track 3

Filename E:\RRCLtd Rip\03 - Love Will Leave (Kap10kurt Remix).wav

Pre-gap length 0:00:03.52

Peak level 94.3 %
Extraction speed 2.6 X
Track quality 99.9 %
Test CRC 8285BD0F
Copy CRC 8285BD0F
Accurately ripped (confidence 12) [8CB98BCC] (AR v2)
Copy OK

Track 4

Filename E:\RRCLtd Rip\04 - Use You (Maps Remix).wav

Pre-gap length 0:00:02.43

Peak level 70.7 %
Extraction speed 3.6 X
Track quality 100.0 %
Test CRC 5D7DE3B1
Copy CRC 5D7DE3B1
Accurately ripped (confidence 12) [320C72D7] (AR v2)
Copy OK

Track 5

Filename E:\RRCLtd Rip\05 - Deeper and Deeper (T. Raumschmiere Remix Extended).wav

Pre-gap length 0:00:04.12

Peak level 98.8 %
Extraction speed 3.7 X
Track quality 100.0 %
Test CRC 8420351B
Copy CRC 8420351B
Accurately ripped (confidence 12) [90B3AEBE] (AR v2)
Copy OK

Track 6

Filename E:\RRCLtd Rip\06 - Kingdom (Digitalism Remix).wav

Pre-gap length 0:00:03.12

Peak level 87.0 %
Extraction speed 4.0 X
Track quality 100.0 %
Test CRC 2E684374
Copy CRC 2E684374
Accurately ripped (confidence 12) [C4A7F66D] (AR v2)
Copy OK

Track 7

Filename E:\RRCLtd Rip\07 - Saw Something (Onur Ozer Remix).wav

Pre-gap length 0:00:03.68

Peak level 98.8 %
Extraction speed 4.4 X
Track quality 100.0 %
Test CRC D9A27832
Copy CRC D9A27832
Accurately ripped (confidence 12) [761D2CF5] (AR v2)
Copy OK

Track 8

Filename E:\RRCLtd Rip\08 - Deeper & Deeper (Sebastien Leger Remix).wav

Pre-gap length 0:00:05.04

Peak level 99.8 %
Extraction speed 4.6 X
Track quality 100.0 %
Test CRC 1E73F0A7
Copy CRC 1E73F0A7
Accurately ripped (confidence 12) [9EF561A9] (AR v2)
Copy OK

Track 9

Filename E:\RRCLtd Rip\09 - Kingdom (Rosario's Big Room Vocal).wav

Pre-gap length 0:00:03.24

Peak level 100.0 %
Extraction speed 4.9 X
Track quality 100.0 %
Test CRC 7ACC5319
Copy CRC 7ACC5319
Accurately ripped (confidence 12) [BAAEF03E] (AR v2)
Copy OK

Track 10

Filename E:\RRCLtd Rip\10 - Saw Something (Skreamix).wav

Pre-gap length 0:00:03.25

Peak level 99.8 %
Extraction speed 5.1 X
Track quality 100.0 %
Test CRC 4D241F90
Copy CRC 4D241F90
Accurately ripped (confidence 12) [DA7DD730] (AR v2)
Copy OK

Track 11

Filename E:\RRCLtd Rip\11 - Deeper and Deeper (SHRUBBN!! FX Instrumental).wav

Pre-gap length 0:00:04.19

Peak level 100.0 %
Extraction speed 5.2 X
Track quality 100.0 %
Test CRC F91BD18B
Copy CRC F91BD18B
Accurately ripped (confidence 12) [32E7040A] (AR v2)
Copy OK


All tracks accurately ripped

No errors occurred

End of status report

–– CUETools DB Plugin V2.1.6

[CTDB TOCID: Y_V6OrxyZAqrJ4gEzpaICC9_P6E-] found
Submit result: Y_V6OrxyZAqrJ4gEzpaICC9_P6E- has been confirmed
Track | CTDB Status
1 | (12/12) Accurately ripped
2 | (12/12) Accurately ripped
3 | (12/12) Accurately ripped
4 | (12/12) Accurately ripped
5 | (12/12) Accurately ripped
6 | (12/12) Accurately ripped
7 | (12/12) Accurately ripped
8 | (12/12) Accurately ripped
9 | (12/12) Accurately ripped
10 | (12/12) Accurately ripped
11 | (12/12) Accurately ripped


==== Log checksum 712AE1374F98C6BAAEEB12DD0ED0B27D713A12F6EE26FC3441CC274ECF8368AC ====

[CUETools log; Date: 16.08.2021 15:24:22; Version: 2.1.4]
[CTDB TOCID: Y_V6OrxyZAqrJ4gEzpaICC9_P6E-] found.
Track | CTDB Status
1 | (17/17) Accurately ripped
2 | (17/17) Accurately ripped
3 | (17/17) Accurately ripped
4 | (17/17) Accurately ripped
5 | (17/17) Accurately ripped
6 | (17/17) Accurately ripped
7 | (17/17) Accurately ripped
8 | (17/17) Accurately ripped
9 | (17/17) Accurately ripped
10 | (17/17) Accurately ripped
11 | (17/17) Accurately ripped
[AccurateRip ID: 0014f3c0-00b5b159-a20c320b] found.
Track [ CRC | V2 ] Status
01 [c4641bae|4c130edf] (07+14/21) Accurately ripped
02 [ecbbdd26|fccc412b] (07+14/21) Accurately ripped
03 [a0c8ca4a|8cb98bcc] (07+14/21) Accurately ripped
04 [acd42b76|320c72d7] (07+14/21) Accurately ripped
05 [47ef8c9d|90b3aebe] (07+14/21) Accurately ripped
06 [4b38aac3|c4a7f66d] (07+14/21) Accurately ripped
07 [ecc102a1|761d2cf5] (07+14/21) Accurately ripped
08 [107385b9|9ef561a9] (07+14/21) Accurately ripped
09 [37e057e6|baaef03e] (07+14/21) Accurately ripped
10 [eb461fae|da7dd730] (07+14/21) Accurately ripped
11 [1864c057|32e7040a] (08+14/22) Accurately ripped

Track Peak [ CRC32 ] [W/O NULL] [ LOG ]
– 100,0 [65F7B42A] [89E3ADFC]
01 100,0 [51B25F03] [ECE7EB58] CRC32
02 97,6 [BEB98DAE] [B039B8CA] CRC32
03 94,3 [8285BD0F] [87B52FD4] CRC32
04 70,7 [5D7DE3B1] [91C6595A] CRC32
05 98,8 [8420351B] [A23A75E6] CRC32
06 87,0 [2E684374] [6334FF8A] CRC32
07 98,8 [D9A27832] [B695D6EA] CRC32
08 99,8 [1E73F0A7] [CDA75B49] CRC32
09 100,0 [7ACC5319] [36BE0989] CRC32
10 99,8 [4D241F90] [B5D3EC61] CRC32
11 100,0 [F91BD18B] [D486DA26] CRC32

Thanks to RRC

See also: