Subcategories

David Bowie - A New Career In A New Town (1977-1982) (2017) [11CD Box Set] PROPER

Posted By: v3122
David Bowie - A New Career In A New Town (1977-1982) (2017) [11CD Box Set] PROPER

David Bowie - A New Career In A New Town (1977-1982) (2017)
EAC | Flac(Image) + Cue + Log & MP3 CBR 320Kbps
Parlophone, DBX 3 | ~ 3052 or 1090 Mb | Scans(png) -> 1586 Mb
Rock / Pop / Avantgarde / Art Rock / Experimental / Ambient

The third installment in a comprehensive deluxe reissue series of David Bowie's entire catalog, A New Career in a New Town (1977-1982) chronicles perhaps the most artistically ambitious phase in Bowie's career – one that began with 1977's Low and concluded with 1980's Scary Monsters (And Super Creeps). Only two other studio albums arrived in this period – Heroes, which also came out in 1977, and 1979's Lodger – which means the remaining seven discs in this 11-CD box are devoted to a variety of odds and ends, including two versions of the 1978 double-live album Stage (the original LP track listing, plus a new remaster of the 2005 expansion), the Heroes EP which contains German versions of the lead track, a brand-new mix of Lodger from producer Tony Visconti, and Re:Call 3, which gathers up B-sides, single edits, and other ephemera from this period. Like on its two predecessors, Five Years and Who Can I Be Now, A New Career in a New Town frustratingly does not include any of the bonus tracks from the '90s Rykodisc expansions of these albums – a situation that seems especially weird in the case of Low, whose bonus "Some Are" wound up as a section of Philip Glass' 1992 symphonic adaptation of the album – but the pain is mitigated by the vivid new mix of Lodger. Dense and colorful without changing the feel of the original album, the 2017 mix of Lodger helps focus attention on an excellent record that often gets overshadowed by the three albums accompanying it in this box. It's hard to say if it's enough to warrant a purchase of this hefty box, but in either its CD or LP incarnation, A New Career in a New Town is a handsome, alluring, and exceptional-sounding reissue that earns its price tag.

by Stephen Thomas Erlewine, allmusic
David Bowie - A New Career In A New Town (1977-1982) (2017) [11CD Box Set] PROPER


David Bowie - A New Career In A New Town (1977-1982) (2017) [11CD Box Set] PROPER

David Bowie - A New Career In A New Town (1977-1982) (2017):

David Bowie - A New Career In A New Town (1977-1982) (2017) [11CD Box Set] PROPER

Tracklist CD01 - 1977 Low:

01 Speed Of Life
02 Breaking Glass
03 What In The World
04 Sound And Vision
05 Always Crashing In The Same Car
06 Be My Wife
07 A New Career In A New Town
08 Warszawa
09 Art Decade
10 Weeping Wall
11 Subterraneans

Exact Audio Copy V1.3 from 2. September 2016

EAC extraction logfile from 11. October 2017, 17:03

David Bowie / Low

Used drive : PLEXTOR BD-R PX-B950SA Adapter: 1 ID: 1

Read mode : Secure
Utilize accurate stream : Yes
Defeat audio cache : Yes
Make use of C2 pointers : No

Read offset correction : 6
Overread into Lead-In and Lead-Out : No
Fill up missing offset samples with silence : Yes
Delete leading and trailing silent blocks : No
Null samples used in CRC calculations : Yes
Used interface : Native Win32 interface for Win NT & 2000

Used output format : Internal WAV Routines
Sample format : 44.100 Hz; 16 Bit; Stereo


TOC of the extracted CD

Track | Start | Length | Start sector | End sector
––––––––––––––––––––––––––––-
1 | 0:00.00 | 2:47.31 | 0 | 12555
2 | 2:47.31 | 1:52.30 | 12556 | 20985
3 | 4:39.61 | 2:24.55 | 20986 | 31840
4 | 7:04.41 | 3:03.45 | 31841 | 45610
5 | 10:08.11 | 3:35.35 | 45611 | 61770
6 | 13:43.46 | 2:56.63 | 61771 | 75033
7 | 16:40.34 | 2:55.29 | 75034 | 88187
8 | 19:35.63 | 6:27.30 | 88188 | 117242
9 | 26:03.18 | 3:48.13 | 117243 | 134355
10 | 29:51.31 | 3:29.01 | 134356 | 150031
11 | 33:20.32 | 5:43.13 | 150032 | 175769


Range status and errors

Selected range

Filename C:\Users\Alex\Desktop\ALLexxess\David Bowie\2017 A New Career In A New Town (11CD Box Set Parlophone Records)\1977 Low\David Bowie - Low.wav

Peak level 96.9 %
Extraction speed 6.3 X
Range quality 99.9 %
Test CRC 966DDF9E
Copy CRC 966DDF9E
Copy OK

No errors occurred


AccurateRip summary

Track 1 not present in database
Track 2 not present in database
Track 3 not present in database
Track 4 not present in database
Track 5 not present in database
Track 6 not present in database
Track 7 not present in database
Track 8 not present in database
Track 9 not present in database
Track 10 not present in database
Track 11 not present in database

None of the tracks are present in the AccurateRip database

End of status report

–– CUETools DB Plugin V2.1.6

[CTDB TOCID: f6EU6rgVrr6hm8lw1wYSWkYod1I-] found
Submit result: f6EU6rgVrr6hm8lw1wYSWkYod1I- has been confirmed
Track | CTDB Status
1 | (50/50) Accurately ripped
2 | (50/50) Accurately ripped
3 | (50/50) Accurately ripped
4 | (50/50) Accurately ripped
5 | (50/50) Accurately ripped
6 | (50/50) Accurately ripped
7 | (50/50) Accurately ripped
8 | (50/50) Accurately ripped
9 | (50/50) Accurately ripped
10 | (50/50) Accurately ripped
11 | (49/50) Accurately ripped


==== Log checksum DFBD20F4B57809FC9A0E7A7E4FF082D2A17C02B5DBC8FC401B7C52C403E7EA6C ====


[CUETools log; Date: 13.10.2017 11:34:42; Version: 2.1.5]
[CTDB TOCID: f6EU6rgVrr6hm8lw1wYSWkYod1I-] found.
Track | CTDB Status
1 | (55/55) Accurately ripped
2 | (55/55) Accurately ripped
3 | (55/55) Accurately ripped
4 | (55/55) Accurately ripped
5 | (55/55) Accurately ripped
6 | (55/55) Accurately ripped
7 | (55/55) Accurately ripped
8 | (55/55) Accurately ripped
9 | (55/55) Accurately ripped
10 | (55/55) Accurately ripped
11 | (54/55) Accurately ripped
[AccurateRip ID: 000defec-007d2bbd-7b09270b] disk not present in database.

Track Peak [ CRC32 ] [W/O NULL] [ LOG ]
– 96,9 [966DDF9E] [D77E1144] CRC32
01 94,9 [A35378D7] [59C41A3B]
02 96,9 [CD4914F3] [4FB7EE77]
03 94,8 [0DFE6E98] [8CB2AA78]
04 94,8 [977D076F] [8AC3DDCC]
05 94,2 [DFEA1FFF] [6A70B9D2]
06 95,6 [32920E26] [568733AC]
07 94,4 [206C3908] [CA189396]
08 93,8 [6BD80AD9] [C5D5C89B]
09 93,5 [8DA80D20] [1BEC136A]
10 78,1 [10B7A8D8] [F31B1199]
11 92,8 [BBD77099] [817E59B8]


David Bowie - A New Career In A New Town (1977-1982) (2017) [11CD Box Set] PROPER

Tracklist CD02 - 1977 ’Heroes’ :

01 Beauty And The Beast
02 Joe The Lion
03 Heroes
04 Sons Of The Silent Age
05 Blackout
06 V-2 Schneider
07 Sense Of Doubt
08 Moss Garden
09 Neuköln

Exact Audio Copy V1.3 from 2. September 2016

EAC extraction logfile from 11. October 2017, 16:40

David Bowie / Heroes

Used drive : PLEXTOR BD-R PX-B950SA Adapter: 1 ID: 1

Read mode : Secure
Utilize accurate stream : Yes
Defeat audio cache : Yes
Make use of C2 pointers : No

Read offset correction : 6
Overread into Lead-In and Lead-Out : No
Fill up missing offset samples with silence : Yes
Delete leading and trailing silent blocks : No
Null samples used in CRC calculations : Yes
Used interface : Native Win32 interface for Win NT & 2000

Used output format : Internal WAV Routines
Sample format : 44.100 Hz; 16 Bit; Stereo


TOC of the extracted CD

Track | Start | Length | Start sector | End sector
––––––––––––––––––––––––––––-
1 | 0:00.00 | 3:36.48 | 0 | 16247
2 | 3:36.48 | 3:08.10 | 16248 | 30357
3 | 6:44.58 | 6:11.31 | 30358 | 58213
4 | 12:56.14 | 3:20.23 | 58214 | 73236
5 | 16:16.37 | 3:49.69 | 73237 | 90480
6 | 20:06.31 | 3:11.32 | 90481 | 104837
7 | 23:17.63 | 3:59.45 | 104838 | 122807
8 | 27:17.33 | 5:05.65 | 122808 | 145747
9 | 32:23.23 | 4:34.42 | 145748 | 166339
10 | 36:57.65 | 3:46.68 | 166340 | 183357


Range status and errors

Selected range

Filename C:\Users\Alex\Desktop\ALLexxess\David Bowie\2017 A New Career In A New Town (11CD Box Set Parlophone Records)\1977 Heroes\David Bowie - Heroes.wav

Peak level 99.2 %
Extraction speed 3.1 X
Range quality 100.0 %
Test CRC 2160A92E
Copy CRC 2160A92E
Copy OK

No errors occurred


AccurateRip summary

Track 1 not present in database
Track 2 not present in database
Track 3 not present in database
Track 4 not present in database
Track 5 not present in database
Track 6 not present in database
Track 7 not present in database
Track 8 not present in database
Track 9 not present in database
Track 10 not present in database

None of the tracks are present in the AccurateRip database

End of status report

–– CUETools DB Plugin V2.1.6

[CTDB TOCID: 0W7fsgy5Lx6Fqho.r7nIvnojt7E-] found
Submit result: 0W7fsgy5Lx6Fqho.r7nIvnojt7E- has been confirmed
Track | CTDB Status
1 | (49/49) Accurately ripped
2 | (49/49) Accurately ripped
3 | (49/49) Accurately ripped
4 | (49/49) Accurately ripped
5 | (49/49) Accurately ripped
6 | (49/49) Accurately ripped
7 | (49/49) Accurately ripped
8 | (49/49) Accurately ripped
9 | (49/49) Accurately ripped
10 | (49/49) Accurately ripped


==== Log checksum 1F4C55F147F9EEBAA7A4B6C237401B002557EB0B4B069FE8BE056882828C0C1F ====


[CUETools log; Date: 13.10.2017 11:35:13; Version: 2.1.5]
[CTDB TOCID: 0W7fsgy5Lx6Fqho.r7nIvnojt7E-] found.
Track | CTDB Status
1 | (54/54) Accurately ripped
2 | (54/54) Accurately ripped
3 | (54/54) Accurately ripped
4 | (54/54) Accurately ripped
5 | (54/54) Accurately ripped
6 | (54/54) Accurately ripped
7 | (54/54) Accurately ripped
8 | (54/54) Accurately ripped
9 | (54/54) Accurately ripped
10 | (54/54) Accurately ripped
[AccurateRip ID: 000f218e-0079ac0a-9a098c0a] disk not present in database.

Track Peak [ CRC32 ] [W/O NULL] [ LOG ]
– 99,2 [2160A92E] [585790E5] CRC32
01 95,0 [4CFBAD7C] [0CB4BCF0]
02 94,6 [C9591F49] [8A147711]
03 93,8 [39E334F8] [06FBB1D9]
04 99,2 [A2BA1D5E] [43E9A419]
05 94,9 [C8B60A41] [66F0929B]
06 95,4 [C455D0C3] [8BCD97DF]
07 93,3 [07B84C84] [11B01C3E]
08 93,3 [89750F58] [36ADFAB1]
09 93,3 [D81F627F] [ED77CA2A]
10 94,5 [E011F51E] [5876812F]


David Bowie - A New Career In A New Town (1977-1982) (2017) [11CD Box Set] PROPER

Tracklist CD03 - 1977 ’Heroes’ E.P.:

01 ’Heroes’ / ’Helden’ (German Album Version)
02 ’Helden’ (German Single Version)
03 ’Heroes’ / ’Héros’ (French Album Version)
04 ’Héros’ (French Single Version)

Exact Audio Copy V1.3 from 2. September 2016

EAC extraction logfile from 11. October 2017, 16:00

David Bowie / Heroes EP

Used drive : PLEXTOR BD-R PX-B950SA Adapter: 1 ID: 1

Read mode : Secure
Utilize accurate stream : Yes
Defeat audio cache : Yes
Make use of C2 pointers : No

Read offset correction : 6
Overread into Lead-In and Lead-Out : No
Fill up missing offset samples with silence : Yes
Delete leading and trailing silent blocks : No
Null samples used in CRC calculations : Yes
Used interface : Native Win32 interface for Win NT & 2000

Used output format : Internal WAV Routines
Sample format : 44.100 Hz; 16 Bit; Stereo


TOC of the extracted CD

Track | Start | Length | Start sector | End sector
––––––––––––––––––––––––––––-
1 | 0:00.00 | 6:07.23 | 0 | 27547
2 | 6:07.23 | 3:38.58 | 27548 | 43955
3 | 9:46.06 | 6:05.22 | 43956 | 71352
4 | 15:51.28 | 3:33.62 | 71353 | 87389


Range status and errors

Selected range

Filename C:\Users\Alex\Desktop\ALLexxess\David Bowie\2017 A New Career In A New Town (11CD Box Set Parlophone Records)\1977 Heroes EP\David Bowie - Heroes EP.wav

Peak level 97.8 %
Extraction speed 5.5 X
Range quality 100.0 %
Test CRC 9111B2A2
Copy CRC 9111B2A2
Copy OK

No errors occurred


AccurateRip summary

Track 1 not present in database
Track 2 not present in database
Track 3 not present in database
Track 4 not present in database

None of the tracks are present in the AccurateRip database

End of status report

–– CUETools DB Plugin V2.1.6

[CTDB TOCID: H0M45cnu.v6E8D6C4F_i.x5dNK0-] found
Submit result: H0M45cnu.v6E8D6C4F_i.x5dNK0- has been confirmed
Track | CTDB Status
1 | (47/47) Accurately ripped
2 | (47/47) Accurately ripped
3 | (47/47) Accurately ripped
4 | (47/47) Accurately ripped


==== Log checksum D77505FB4AD093CCCCD0D158BB72253CEB10B1B8ECE2E888E783CC03DE18AA11 ====


[CUETools log; Date: 13.10.2017 11:35:40; Version: 2.1.5]
[CTDB TOCID: H0M45cnu.v6E8D6C4F_i.x5dNK0-] found.
Track | CTDB Status
1 | (51/51) Accurately ripped
2 | (51/51) Accurately ripped
3 | (51/51) Accurately ripped
4 | (51/51) Accurately ripped
[AccurateRip ID: 00038367-000de00f-3a048d04] disk not present in database.

Track Peak [ CRC32 ] [W/O NULL] [ LOG ]
– 97,8 [9111B2A2] [8BFC07EC] CRC32
01 95,2 [E71F62A5] [CEEFB8BD]
02 97,8 [D111EEDE] [10987637]
03 94,6 [28700653] [1843F102]
04 95,0 [045FC49C] [A735EA20]


David Bowie - A New Career In A New Town (1977-1982) (2017) [11CD Box Set] PROPER

Tracklist CD04 - 1978 Stage CD1:

01 Hang On To Yourself
02 Ziggy Stardust
03 Five Years
04 Soul Love
05 Star
06 Station To Station
07 Fame
08 TVC 15

Exact Audio Copy V1.3 from 2. September 2016

EAC extraction logfile from 11. October 2017, 15:36

David Bowie / Stage CD1

Used drive : PLEXTOR BD-R PX-B950SA Adapter: 1 ID: 1

Read mode : Secure
Utilize accurate stream : Yes
Defeat audio cache : Yes
Make use of C2 pointers : No

Read offset correction : 6
Overread into Lead-In and Lead-Out : No
Fill up missing offset samples with silence : Yes
Delete leading and trailing silent blocks : No
Null samples used in CRC calculations : Yes
Used interface : Native Win32 interface for Win NT & 2000

Used output format : Internal WAV Routines
Sample format : 44.100 Hz; 16 Bit; Stereo


TOC of the extracted CD

Track | Start | Length | Start sector | End sector
––––––––––––––––––––––––––––-
1 | 0:00.00 | 3:25.28 | 0 | 15402
2 | 3:25.28 | 3:32.50 | 15403 | 31352
3 | 6:58.03 | 3:58.18 | 31353 | 49220
4 | 10:56.21 | 2:56.03 | 49221 | 62423
5 | 13:52.24 | 2:37.02 | 62424 | 74200
6 | 16:29.26 | 8:51.64 | 74201 | 114089
7 | 25:21.15 | 4:08.19 | 114090 | 132708
8 | 29:29.34 | 4:40.05 | 132709 | 153713


Range status and errors

Selected range

Filename C:\Users\Alex\Desktop\ALLexxess\David Bowie\2017 A New Career In A New Town (11CD Box Set Parlophone Records)\1978 Stage 2CD\CD1\David Bowie - Stage CD1.wav

Peak level 92.6 %
Extraction speed 6.4 X
Range quality 100.0 %
Test CRC AD2B7EB4
Copy CRC AD2B7EB4
Copy OK

No errors occurred


AccurateRip summary

Track 1 not present in database
Track 2 not present in database
Track 3 not present in database
Track 4 not present in database
Track 5 not present in database
Track 6 not present in database
Track 7 not present in database
Track 8 not present in database

None of the tracks are present in the AccurateRip database

End of status report

–– CUETools DB Plugin V2.1.6

[CTDB TOCID: 97dlKYDQq7N_coVsLjx.efEsJHg-] found
Submit result: 97dlKYDQq7N_coVsLjx.efEsJHg- has been confirmed
Track | CTDB Status
1 | (48/48) Accurately ripped
2 | (48/48) Accurately ripped
3 | (48/48) Accurately ripped
4 | (48/48) Accurately ripped
5 | (48/48) Accurately ripped
6 | (48/48) Accurately ripped
7 | (48/48) Accurately ripped
8 | (47/48) Accurately ripped


==== Log checksum 479E4CF673064D3CE4BB5F620D327A42D4DF2CFA82325344E7EFCDEC1678ABAF ====


[CUETools log; Date: 13.10.2017 11:36:12; Version: 2.1.5]
[CTDB TOCID: 97dlKYDQq7N_coVsLjx.efEsJHg-] found.
Track | CTDB Status
1 | (52/52) Accurately ripped
2 | (52/52) Accurately ripped
3 | (52/52) Accurately ripped
4 | (52/52) Accurately ripped
5 | (52/52) Accurately ripped
6 | (52/52) Accurately ripped
7 | (52/52) Accurately ripped
8 | (51/52) Accurately ripped
[AccurateRip ID: 0009a91b-0041f5f4-61080108] disk not present in database.

Track Peak [ CRC32 ] [W/O NULL] [ LOG ]
– 92,6 [AD2B7EB4] [538735D8] CRC32
01 92,6 [47DB7BA4] [99C5181F]
02 92,5 [01A61770] [17575F84]
03 92,4 [7FA6CD28] [42DD149C]
04 92,6 [91A4BA96] [2FDCD026]
05 92,6 [8807A45B] [87712A95]
06 92,5 [8F6547B4] [59324D5E]
07 92,5 [5025E962] [66866736]
08 92,6 [4C4A8344] [9DF63F3D]


Tracklist CD05 - 1978 Stage CD2:

01 Warszawa
02 Speed Of Life
03 Art Decade
04 Sense Of Doubt
05 Breaking Glass
06 ’Heroes’
07 What In The World
08 Blackout
09 Beauty And The Beast

Exact Audio Copy V1.3 from 2. September 2016

EAC extraction logfile from 11. October 2017, 15:08

David Bowie / Stage CD2

Used drive : PLEXTOR BD-R PX-B950SA Adapter: 1 ID: 1

Read mode : Secure
Utilize accurate stream : Yes
Defeat audio cache : Yes
Make use of C2 pointers : No

Read offset correction : 6
Overread into Lead-In and Lead-Out : No
Fill up missing offset samples with silence : Yes
Delete leading and trailing silent blocks : No
Null samples used in CRC calculations : Yes
Used interface : Native Win32 interface for Win NT & 2000

Used output format : Internal WAV Routines
Sample format : 44.100 Hz; 16 Bit; Stereo


TOC of the extracted CD

Track | Start | Length | Start sector | End sector
––––––––––––––––––––––––––––-
1 | 0:00.00 | 6:53.02 | 0 | 30976
2 | 6:53.02 | 2:44.68 | 30977 | 43344
3 | 9:37.70 | 3:10.45 | 43345 | 57639
4 | 12:48.40 | 3:12.71 | 57640 | 72110
5 | 16:01.36 | 3:30.62 | 72111 | 87922
6 | 19:32.23 | 6:20.32 | 87923 | 116454
7 | 25:52.55 | 4:25.20 | 116455 | 136349
8 | 30:18.00 | 4:03.02 | 136350 | 154576
9 | 34:21.02 | 5:11.68 | 154577 | 177969


Range status and errors

Selected range

Filename C:\Users\Alex\Desktop\ALLexxess\David Bowie\2017 A New Career In A New Town (11CD Box Set Parlophone Records)\1978 Stage 2CD\CD2\David Bowie - Stage CD2.wav

Peak level 92.7 %
Extraction speed 3.1 X
Range quality 100.0 %
Test CRC 420ADD47
Copy CRC 420ADD47
Copy OK

No errors occurred


AccurateRip summary

Track 1 not present in database
Track 2 not present in database
Track 3 not present in database
Track 4 not present in database
Track 5 not present in database
Track 6 not present in database
Track 7 not present in database
Track 8 not present in database
Track 9 not present in database

None of the tracks are present in the AccurateRip database

End of status report

–– CUETools DB Plugin V2.1.6

[CTDB TOCID: 0q1tuYB.cHqTgo28Npsx4mDSQMk-] found
Submit result: 0q1tuYB.cHqTgo28Npsx4mDSQMk- has been confirmed
Track | CTDB Status
1 | (46/46) Accurately ripped
2 | (46/46) Accurately ripped
3 | (46/46) Accurately ripped
4 | (46/46) Accurately ripped
5 | (46/46) Accurately ripped
6 | (46/46) Accurately ripped
7 | (46/46) Accurately ripped
8 | (46/46) Accurately ripped
9 | (45/46) Accurately ripped


==== Log checksum C28D525D49679A79717CBA7654663ABA530D4A2C8ACBB38F3C61053BD9BACFCD ====


[CUETools log; Date: 13.10.2017 11:36:43; Version: 2.1.5]
[CTDB TOCID: 0q1tuYB.cHqTgo28Npsx4mDSQMk-] found.
Track | CTDB Status
1 | (50/50) Accurately ripped
2 | (50/50) Accurately ripped
3 | (50/50) Accurately ripped
4 | (50/50) Accurately ripped
5 | (50/50) Accurately ripped
6 | (50/50) Accurately ripped
7 | (50/50) Accurately ripped
8 | (50/50) Accurately ripped
9 | (49/50) Accurately ripped
[AccurateRip ID: 000d6324-00617741-73094409] disk not present in database.

Track Peak [ CRC32 ] [W/O NULL] [ LOG ]
– 92,7 [420ADD47] [CCD6A5E3] CRC32
01 92,3 [61BB0512] [1D609CE7]
02 92,5 [B0A140A5] [F2DEF35D]
03 92,3 [BC3228DB] [64319E2B]
04 92,2 [97CBF734] [D5320E1C]
05 92,3 [931F0B2E] [2D83D375]
06 92,5 [4F6636DC] [A4FDA5EC]
07 92,4 [31D1BBB8] [746FCA20]
08 92,7 [D782033B] [D74BABB5]
09 92,5 [459B52AA] [5E23C4A7]


David Bowie - A New Career In A New Town (1977-1982) (2017) [11CD Box Set] PROPER

Tracklist CD06 - 1978 Stage (2017) CD1:

01 Warszawa
02 ’Heroes’
03 What In The World
04 Be My Wife
05 The Jean Genie
06 Blackout
07 Sense Of Doubt
08 Speed Of Life
09 Breaking Glass
10 Beauty And The Beast
11 Fame

Exact Audio Copy V1.3 from 2. September 2016

EAC extraction logfile from 11. October 2017, 11:13

David Bowie / Stage CD1 (2017)

Used drive : PLEXTOR BD-R PX-B950SA Adapter: 1 ID: 1

Read mode : Secure
Utilize accurate stream : Yes
Defeat audio cache : Yes
Make use of C2 pointers : No

Read offset correction : 6
Overread into Lead-In and Lead-Out : No
Fill up missing offset samples with silence : Yes
Delete leading and trailing silent blocks : No
Null samples used in CRC calculations : Yes
Used interface : Native Win32 interface for Win NT & 2000

Used output format : Internal WAV Routines
Sample format : 44.100 Hz; 16 Bit; Stereo


TOC of the extracted CD

Track | Start | Length | Start sector | End sector
––––––––––––––––––––––––––––-
1 | 0:00.00 | 6:53.17 | 0 | 30991
2 | 6:53.17 | 6:18.53 | 30992 | 59394
3 | 13:11.70 | 4:25.25 | 59395 | 79294
4 | 17:37.20 | 2:49.74 | 79295 | 92043
5 | 20:27.19 | 6:17.36 | 92044 | 120354
6 | 26:44.55 | 4:00.65 | 120355 | 138419
7 | 30:45.45 | 3:07.63 | 138420 | 152507
8 | 33:53.33 | 2:40.47 | 152508 | 164554
9 | 36:34.05 | 3:22.20 | 164555 | 179724
10 | 39:56.25 | 5:06.70 | 179725 | 202744
11 | 45:03.20 | 4:13.22 | 202745 | 221741


Range status and errors

Selected range

Filename C:\Users\Alex\Desktop\ALLexxess\David Bowie\2017 A New Career In A New Town (11CD Box Set Parlophone Records)\1978 Stage 2CD (2017)\CD1\David Bowie - Stage CD1 (2017).wav

Peak level 98.0 %
Extraction speed 6.8 X
Range quality 100.0 %
Test CRC 04B27820
Copy CRC 04B27820
Copy OK

No errors occurred


AccurateRip summary

Track 1 not present in database
Track 2 not present in database
Track 3 not present in database
Track 4 not present in database
Track 5 not present in database
Track 6 not present in database
Track 7 not present in database
Track 8 not present in database
Track 9 not present in database
Track 10 not present in database
Track 11 not present in database

None of the tracks are present in the AccurateRip database

End of status report

–– CUETools DB Plugin V2.1.6

[CTDB TOCID: 13_iMxSGVVDeyunpHKB7fIB0VR8-] found
Submit result: 13_iMxSGVVDeyunpHKB7fIB0VR8- has been confirmed
Track | CTDB Status
1 | (45/46) Accurately ripped
2 | (46/46) Accurately ripped
3 | (46/46) Accurately ripped
4 | (46/46) Accurately ripped
5 | (46/46) Accurately ripped
6 | (46/46) Accurately ripped
7 | (46/46) Accurately ripped
8 | (46/46) Accurately ripped
9 | (46/46) Accurately ripped
10 | (46/46) Accurately ripped
11 | (46/46) Accurately ripped


==== Log checksum 3066FA0B14BB85350A3F29207F985936551418CC11BAE317F18171D1194DB5C3 ====


[CUETools log; Date: 13.10.2017 11:37:15; Version: 2.1.5]
[CTDB TOCID: 13_iMxSGVVDeyunpHKB7fIB0VR8-] found.
Track | CTDB Status
1 | (51/52) Accurately ripped
2 | (52/52) Accurately ripped
3 | (52/52) Accurately ripped
4 | (52/52) Accurately ripped
5 | (52/52) Accurately ripped
6 | (52/52) Accurately ripped
7 | (52/52) Accurately ripped
8 | (52/52) Accurately ripped
9 | (52/52) Accurately ripped
10 | (52/52) Accurately ripped
11 | (52/52) Accurately ripped
[AccurateRip ID: 0015fff0-00b89a00-9d0b8c0b] disk not present in database.

Track Peak [ CRC32 ] [W/O NULL] [ LOG ]
– 98,0 [04B27820] [634D61AE] CRC32
01 92,3 [63F54E66] [1809F257]
02 92,5 [35DF39F0] [C181F5FE]
03 92,4 [A40DE7D8] [43F0D34F]
04 94,8 [C9FE66E9] [0ADC3A72]
05 94,5 [277C0BDD] [AAD8737E]
06 97,9 [F0776F23] [1C02F9EB]
07 92,2 [60035429] [AB5B23BC]
08 96,5 [6E74B1BE] [2A614CC8]
09 98,0 [DF79885B] [0AF46C54]
10 98,0 [CEFCE22F] [4D0ADFF0]
11 92,4 [6437A422] [9B9347BB]


Tracklist CD07 - 1978 Stage (2017) CD2:

01 Five Years
02 Soul Love
03 Star
04 Hang On To Yourself
05 Ziggy Stardust
06 Suffragette City
07 Art Decade
08 Alabama Song
09 Station To Station
10 Stay
11 TVC 15

Exact Audio Copy V1.3 from 2. September 2016

EAC extraction logfile from 11. October 2017, 10:38

David Bowie / Stage CD2 (2017)

Used drive : PLEXTOR BD-R PX-B950SA Adapter: 1 ID: 1

Read mode : Secure
Utilize accurate stream : Yes
Defeat audio cache : Yes
Make use of C2 pointers : No

Read offset correction : 6
Overread into Lead-In and Lead-Out : No
Fill up missing offset samples with silence : Yes
Delete leading and trailing silent blocks : No
Null samples used in CRC calculations : Yes
Used interface : Native Win32 interface for Win NT & 2000

Used output format : Internal WAV Routines
Sample format : 44.100 Hz; 16 Bit; Stereo


TOC of the extracted CD

Track | Start | Length | Start sector | End sector
––––––––––––––––––––––––––––-
1 | 0:00.00 | 3:56.51 | 0 | 17750
2 | 3:56.51 | 2:56.31 | 17751 | 30981
3 | 6:53.07 | 2:28.30 | 30982 | 42111
4 | 9:21.37 | 3:22.28 | 42112 | 57289
5 | 12:43.65 | 3:30.11 | 57290 | 73050
6 | 16:14.01 | 3:58.71 | 73051 | 90971
7 | 20:12.72 | 3:01.74 | 90972 | 104620
8 | 23:14.71 | 3:55.47 | 104621 | 122292
9 | 27:10.43 | 8:43.20 | 122293 | 161537
10 | 35:53.63 | 7:21.52 | 161538 | 194664
11 | 43:15.40 | 4:36.09 | 194665 | 215373


Range status and errors

Selected range

Filename C:\Users\Alex\Desktop\ALLexxess\David Bowie\2017 A New Career In A New Town (11CD Box Set Parlophone Records)\1978 Stage 2CD (2017)\CD2\David Bowie - Stage CD2 (2017).wav

Peak level 94.6 %
Extraction speed 6.7 X
Range quality 100.0 %
Test CRC 131E54EF
Copy CRC 131E54EF
Copy OK

No errors occurred


AccurateRip summary

Track 1 not present in database
Track 2 not present in database
Track 3 not present in database
Track 4 not present in database
Track 5 not present in database
Track 6 not present in database
Track 7 not present in database
Track 8 not present in database
Track 9 not present in database
Track 10 not present in database
Track 11 not present in database

None of the tracks are present in the AccurateRip database

End of status report

–– CUETools DB Plugin V2.1.6

[CTDB TOCID: opHLidoBt_BZitYSee8muTgfPuk-] found
Submit result: opHLidoBt_BZitYSee8muTgfPuk- has been confirmed
Track | CTDB Status
1 | (45/45) Accurately ripped
2 | (45/45) Accurately ripped
3 | (44/45) Accurately ripped
4 | (45/45) Accurately ripped
5 | (44/45) Accurately ripped
6 | (45/45) Accurately ripped
7 | (45/45) Accurately ripped
8 | (45/45) Accurately ripped
9 | (45/45) Accurately ripped
10 | (45/45) Accurately ripped
11 | (44/45) Accurately ripped


==== Log checksum 88EB76FD325F3DEEE64C22556B87780D8707D343DCB896274CB05E5C2E6B5218 ====


[CUETools log; Date: 13.10.2017 11:37:43; Version: 2.1.5]
[CTDB TOCID: opHLidoBt_BZitYSee8muTgfPuk-] found.
Track | CTDB Status
1 | (50/50) Accurately ripped
2 | (50/50) Accurately ripped
3 | (49/50) Accurately ripped
4 | (50/50) Accurately ripped
5 | (49/50) Accurately ripped
6 | (50/50) Accurately ripped
7 | (50/50) Accurately ripped
8 | (50/50) Accurately ripped
9 | (50/50) Accurately ripped
10 | (50/50) Accurately ripped
11 | (49/50) Accurately ripped
[AccurateRip ID: 0010f279-0097a15d-9a0b370b] disk not present in database.

Track Peak [ CRC32 ] [W/O NULL] [ LOG ]
– 94,6 [131E54EF] [9B4BE340] CRC32
01 92,4 [E857E86E] [1309743C]
02 92,5 [C3733460] [3E993D28]
03 92,7 [5B792D6B] [A7C851F9]
04 94,6 [033C5E80] [921C1AD2]
05 92,5 [D2951B3A] [51310B15]
06 92,2 [E5187F0B] [E51BF414]
07 92,3 [28815893] [665F0E69]
08 94,2 [69F6625D] [8EF718ED]
09 92,8 [1F591AB7] [B6560CAC]
10 93,8 [F465EE19] [4A1F5AED]
11 92,9 [846FA83B] [C0E67C09]


David Bowie - A New Career In A New Town (1977-1982) (2017) [11CD Box Set] PROPER

Tracklist CD08 - 1979 Lodger:

01 Fantastic Voyage
02 African Night Flight
03 Move On
04 Yassassin (Turkish For: Long Live)
05 Red Sails
06 D.J.
07 Look Back In Anger
08 Boys Keep Swinging
09 Repetition
10 Red Money

Exact Audio Copy V1.3 from 2. September 2016

EAC extraction logfile from 11. October 2017, 6:55

David Bowie / Lodger

Used drive : PLEXTOR BD-R PX-B950SA Adapter: 1 ID: 1

Read mode : Secure
Utilize accurate stream : Yes
Defeat audio cache : Yes
Make use of C2 pointers : No

Read offset correction : 6
Overread into Lead-In and Lead-Out : No
Fill up missing offset samples with silence : Yes
Delete leading and trailing silent blocks : No
Null samples used in CRC calculations : Yes
Used interface : Native Win32 interface for Win NT & 2000

Used output format : Internal WAV Routines
Sample format : 44.100 Hz; 16 Bit; Stereo


TOC of the extracted CD

Track | Start | Length | Start sector | End sector
––––––––––––––––––––––––––––-
1 | 0:00.00 | 2:55.07 | 0 | 13131
2 | 2:55.07 | 2:56.72 | 13132 | 26403
3 | 5:52.04 | 3:20.03 | 26404 | 41406
4 | 9:12.07 | 4:13.10 | 41407 | 60391
5 | 13:25.17 | 3:45.33 | 60392 | 77299
6 | 17:10.50 | 4:01.30 | 77300 | 95404
7 | 21:12.05 | 3:08.14 | 95405 | 109518
8 | 24:20.19 | 3:18.38 | 109519 | 124406
9 | 27:38.57 | 3:00.05 | 124407 | 137911
10 | 30:38.62 | 4:19.29 | 137912 | 157365


Range status and errors

Selected range

Filename C:\Users\Alex\Desktop\ALLexxess\David Bowie\2017 A New Career In A New Town (11CD Box Set Parlophone Records)\1979 Lodger\David Bowie - Lodger.wav

Peak level 94.7 %
Extraction speed 6.3 X
Range quality 100.0 %
Test CRC BA951621
Copy CRC BA951621
Copy OK

No errors occurred


AccurateRip summary

Track 1 not present in database
Track 2 not present in database
Track 3 not present in database
Track 4 not present in database
Track 5 not present in database
Track 6 not present in database
Track 7 not present in database
Track 8 not present in database
Track 9 not present in database
Track 10 not present in database

None of the tracks are present in the AccurateRip database

End of status report

–– CUETools DB Plugin V2.1.6

[CTDB TOCID: BQhvD7VjYo96da3HxjTZbPxgvtM-] found
Submit result: BQhvD7VjYo96da3HxjTZbPxgvtM- has been confirmed
Track | CTDB Status
1 | (44/44) Accurately ripped
2 | (44/44) Accurately ripped
3 | (44/44) Accurately ripped
4 | (44/44) Accurately ripped
5 | (44/44) Accurately ripped
6 | (44/44) Accurately ripped
7 | (44/44) Accurately ripped
8 | (44/44) Accurately ripped
9 | (44/44) Accurately ripped
10 | (44/44) Accurately ripped


==== Log checksum D31E8A7E4421ED3FCF26EB0F8DBD85EE5D91D5B3360F7C1DF719B52490783FDD ====


[CUETools log; Date: 13.10.2017 11:38:13; Version: 2.1.5]
[CTDB TOCID: BQhvD7VjYo96da3HxjTZbPxgvtM-] found.
Track | CTDB Status
1 | (51/51) Accurately ripped
2 | (51/51) Accurately ripped
3 | (51/51) Accurately ripped
4 | (51/51) Accurately ripped
5 | (51/51) Accurately ripped
6 | (51/51) Accurately ripped
7 | (51/51) Accurately ripped
8 | (51/51) Accurately ripped
9 | (51/51) Accurately ripped
10 | (51/51) Accurately ripped
[AccurateRip ID: 000cddec-0067ec25-7508320a] disk not present in database.

Track Peak [ CRC32 ] [W/O NULL] [ LOG ]
– 94,7 [BA951621] [17DDA0ED] CRC32
01 94,4 [C513E4DB] [0F960607]
02 94,5 [D8B63057] [AB993222]
03 94,4 [E69E968D] [C35F46C3]
04 94,7 [26226E46] [F38D7D50]
05 94,5 [51338938] [79426BAD]
06 94,5 [DE29E023] [6F6591A3]
07 94,5 [56C85569] [272353B4]
08 94,5 [5B5D9448] [BE14B8B5]
09 94,5 [96D90482] [1689A12A]
10 94,7 [ADC90893] [27BFD02E]


David Bowie - A New Career In A New Town (1977-1982) (2017) [11CD Box Set] PROPER

Tracklist CD09 - :

01 Fantastic Voyage
02 African Night Flight
03 Move On
04 Yassassin (Turkish For: Long Live)
05 Red Sails
06 D.J.
07 Look Back In Anger
08 Boys Keep Swinging
09 Repetition
10 Red Money

Exact Audio Copy V1.3 from 2. September 2016

EAC extraction logfile from 11. October 2017, 6:33

David Bowie / Lodger (2017 Tony Visconti Mix)

Used drive : PLEXTOR BD-R PX-B950SA Adapter: 1 ID: 1

Read mode : Secure
Utilize accurate stream : Yes
Defeat audio cache : Yes
Make use of C2 pointers : No

Read offset correction : 6
Overread into Lead-In and Lead-Out : No
Fill up missing offset samples with silence : Yes
Delete leading and trailing silent blocks : No
Null samples used in CRC calculations : Yes
Used interface : Native Win32 interface for Win NT & 2000

Used output format : Internal WAV Routines
Sample format : 44.100 Hz; 16 Bit; Stereo


TOC of the extracted CD

Track | Start | Length | Start sector | End sector
––––––––––––––––––––––––––––-
1 | 0:00.00 | 2:53.03 | 0 | 12977
2 | 2:53.03 | 2:56.10 | 12978 | 26187
3 | 5:49.13 | 3:24.71 | 26188 | 41558
4 | 9:14.09 | 4:13.52 | 41559 | 60585
5 | 13:27.61 | 3:46.58 | 60586 | 77593
6 | 17:14.44 | 3:59.27 | 77594 | 95545
7 | 21:13.71 | 3:09.71 | 95546 | 109791
8 | 24:23.67 | 3:22.10 | 109792 | 124951
9 | 27:46.02 | 3:01.30 | 124952 | 138556
10 | 30:47.32 | 4:18.23 | 138557 | 157929


Range status and errors

Selected range

Filename C:\Users\Alex\Desktop\ALLexxess\David Bowie\2017 A New Career In A New Town (11CD Box Set Parlophone Records)\1979 Lodger (2017 Tony Visconti Mix)\David Bowie - Lodger (2017 Tony Visconti Mix).wav

Peak level 96.2 %
Extraction speed 6.5 X
Range quality 100.0 %
Test CRC 8A69B205
Copy CRC 8A69B205
Copy OK

No errors occurred


AccurateRip summary

Track 1 not present in database
Track 2 not present in database
Track 3 not present in database
Track 4 not present in database
Track 5 not present in database
Track 6 not present in database
Track 7 not present in database
Track 8 not present in database
Track 9 not present in database
Track 10 not present in database

None of the tracks are present in the AccurateRip database

End of status report

–– CUETools DB Plugin V2.1.6

[CTDB TOCID: 452Ee3FcboG3uCveA.qd3_PMDKo-] found
Submit result: 452Ee3FcboG3uCveA.qd3_PMDKo- has been confirmed
Track | CTDB Status
1 | (48/48) Accurately ripped
2 | (47/48) Accurately ripped
3 | (48/48) Accurately ripped
4 | (48/48) Accurately ripped
5 | (48/48) Accurately ripped
6 | (48/48) Accurately ripped
7 | (48/48) Accurately ripped
8 | (48/48) Accurately ripped
9 | (48/48) Accurately ripped
10 | (48/48) Accurately ripped


==== Log checksum 84C28CB15E1116049317C4BC0730076A8A9CB31ABC9552B02D0BDCDA446487F4 ====


[CUETools log; Date: 13.10.2017 11:38:42; Version: 2.1.5]
[CTDB TOCID: 452Ee3FcboG3uCveA.qd3_PMDKo-] found.
Track | CTDB Status
1 | (53/53) Accurately ripped
2 | (52/53) Accurately ripped
3 | (53/53) Accurately ripped
4 | (53/53) Accurately ripped
5 | (53/53) Accurately ripped
6 | (53/53) Accurately ripped
7 | (53/53) Accurately ripped
8 | (53/53) Accurately ripped
9 | (53/53) Accurately ripped
10 | (53/53) Accurately ripped
[AccurateRip ID: 000ce772-00684671-8d08390a] disk not present in database.

Track Peak [ CRC32 ] [W/O NULL] [ LOG ]
– 96,2 [8A69B205] [2B899799] CRC32
01 96,1 [D9D2E4F9] [616483B0]
02 96,2 [6B60E440] [59CCD867]
03 94,7 [AAE9D49B] [20F56B56]
04 95,0 [8D2F390F] [361548E9]
05 94,9 [F26C582E] [5D4CFF84]
06 95,0 [58002B91] [E10190EA]
07 94,7 [A0731DDA] [974167DA]
08 94,9 [F6C11FE7] [333F6B8F]
09 95,3 [1A03ABA3] [26E6E61C]
10 95,5 [E333916C] [DE803C3C]


David Bowie - A New Career In A New Town (1977-1982) (2017) [11CD Box Set] PROPER

Tracklist CD10 - 1980 Scary Monsters:

01 It’s No Game (Part 1)
02 Up The Hill Backwards
03 Scary Monsters (And Super Creeps)
04 Ashes To Ashes
05 Fashion
06 Teenage Wildlife
07 Scream Like A Baby
08 Kingdom Come
09 Because You’re Young
10 It’s No Game (Part 2)

Exact Audio Copy V1.3 from 2. September 2016

EAC extraction logfile from 11. October 2017, 6:07

David Bowie / Scary Monsters

Used drive : PLEXTOR BD-R PX-B950SA Adapter: 1 ID: 1

Read mode : Secure
Utilize accurate stream : Yes
Defeat audio cache : Yes
Make use of C2 pointers : No

Read offset correction : 6
Overread into Lead-In and Lead-Out : No
Fill up missing offset samples with silence : Yes
Delete leading and trailing silent blocks : No
Null samples used in CRC calculations : Yes
Used interface : Native Win32 interface for Win NT & 2000

Used output format : Internal WAV Routines
Sample format : 44.100 Hz; 16 Bit; Stereo


TOC of the extracted CD

Track | Start | Length | Start sector | End sector
––––––––––––––––––––––––––––-
1 | 0:00.00 | 4:17.35 | 0 | 19309
2 | 4:17.35 | 3:15.74 | 19310 | 34008
3 | 7:33.34 | 5:13.34 | 34009 | 57517
4 | 12:46.68 | 4:26.12 | 57518 | 77479
5 | 17:13.05 | 4:50.36 | 77480 | 99265
6 | 22:03.41 | 6:58.25 | 99266 | 130640
7 | 29:01.66 | 3:36.63 | 130641 | 146903
8 | 32:38.54 | 3:47.21 | 146904 | 163949
9 | 36:26.00 | 4:55.70 | 163950 | 186144
10 | 41:21.70 | 4:26.11 | 186145 | 206105


Range status and errors

Selected range

Filename C:\Users\Alex\Desktop\ALLexxess\David Bowie\2017 A New Career In A New Town (11CD Box Set Parlophone Records)\1980 Scary Monsters\David Bowie - Scary Monsters.wav

Peak level 95.0 %
Extraction speed 7.0 X
Range quality 100.0 %
Test CRC 28E8D2F2
Copy CRC 28E8D2F2
Copy OK

No errors occurred


AccurateRip summary

Track 1 not present in database
Track 2 not present in database
Track 3 not present in database
Track 4 not present in database
Track 5 not present in database
Track 6 not present in database
Track 7 not present in database
Track 8 not present in database
Track 9 not present in database
Track 10 not present in database

None of the tracks are present in the AccurateRip database

End of status report

–– CUETools DB Plugin V2.1.6

[CTDB TOCID: sXpyXdAfQyvFwLarGszyuUBV5_4-] found
Submit result: sXpyXdAfQyvFwLarGszyuUBV5_4- has been confirmed
Track | CTDB Status
1 | (45/45) Accurately ripped
2 | (45/45) Accurately ripped
3 | (45/45) Accurately ripped
4 | (45/45) Accurately ripped
5 | (45/45) Accurately ripped
6 | (45/45) Accurately ripped
7 | (45/45) Accurately ripped
8 | (45/45) Accurately ripped
9 | (45/45) Accurately ripped
10 | (44/45) Accurately ripped


==== Log checksum 287D2C4A686C6008AF5AC80653BB684925C20C76136E0E8CFFC0543519012B02 ====


[CUETools log; Date: 13.10.2017 11:39:12; Version: 2.1.5]
[CTDB TOCID: sXpyXdAfQyvFwLarGszyuUBV5_4-] found.
Track | CTDB Status
1 | (51/51) Accurately ripped
2 | (51/51) Accurately ripped
3 | (51/51) Accurately ripped
4 | (51/51) Accurately ripped
5 | (51/51) Accurately ripped
6 | (51/51) Accurately ripped
7 | (51/51) Accurately ripped
8 | (51/51) Accurately ripped
9 | (51/51) Accurately ripped
10 | (50/51) Accurately ripped
[AccurateRip ID: 00111c31-008a0e31-8c0abc0a] disk not present in database.

Track Peak [ CRC32 ] [W/O NULL] [ LOG ]
– 95,0 [28E8D2F2] [63D86813] CRC32
01 94,6 [D041856E] [CD8B25A9]
02 94,7 [A54EE263] [82C3FFFF]
03 95,0 [CF0FE77B] [32E754E2]
04 95,0 [01E660BF] [18745EA4]
05 94,9 [951FD7D4] [CDA7344E]
06 94,8 [693F96C8] [0862D6D3]
07 94,6 [4ED49D3B] [20B4BD90]
08 94,7 [685AB11C] [67E011D6]
09 94,5 [D2824381] [8F8C8319]
10 92,5 [7B88FB7D] [4110D74E]


David Bowie - A New Career In A New Town (1977-1982) (2017) [11CD Box Set] PROPER

Tracklist CD11 - 2017 Re:Call 3:

01 ’Heroes’ (Single Version)
02 Beauty And The Beast (Extended Version)
03 Breaking Glass (Australian Single Version)
04 Yassassin (Single Version)
05 D.J. (Single Version)
06 Alabama Song
07 Space Oddity (1979 Version)
08 Ashes To Ashes (Single Version)
09 Fashion (Single Version)
10 Scary Monsters (And Super Creeps) (Single Version)
11 Crystal Japan
12 Under Pressure (Single Version) / Queen And David Bowie

Bertolt Brecht's Baal
13 Baal’s Hymn
14 Remembering Marie A.
15 Ballad Of The Adventurers
16 The Drowned Girl
17 The Dirty Song

18 Cat People (Putting Out Fire) (Soundtrack Album Version)
19 Peace On Earth / Little Drummer Boy (Mono) - David Bowie And Bing Crosby

Exact Audio Copy V1.3 from 2. September 2016

EAC extraction logfile from 11. October 2017, 5:41

David Bowie / Re:Call 3

Used drive : PLEXTOR BD-R PX-B950SA Adapter: 1 ID: 1

Read mode : Secure
Utilize accurate stream : Yes
Defeat audio cache : Yes
Make use of C2 pointers : No

Read offset correction : 6
Overread into Lead-In and Lead-Out : No
Fill up missing offset samples with silence : Yes
Delete leading and trailing silent blocks : No
Null samples used in CRC calculations : Yes
Used interface : Native Win32 interface for Win NT & 2000

Used output format : Internal WAV Routines
Sample format : 44.100 Hz; 16 Bit; Stereo


TOC of the extracted CD

Track | Start | Length | Start sector | End sector
––––––––––––––––––––––––––––-
1 | 0:00.00 | 3:35.54 | 0 | 16178
2 | 3:35.54 | 5:20.18 | 16179 | 40196
3 | 8:55.72 | 2:51.52 | 40197 | 53073
4 | 11:47.49 | 3:07.63 | 53074 | 67161
5 | 14:55.37 | 3:25.64 | 67162 | 82600
6 | 18:21.26 | 3:53.05 | 82601 | 100080
7 | 22:14.31 | 4:52.09 | 100081 | 121989
8 | 27:06.40 | 3:37.08 | 121990 | 138272
9 | 30:43.48 | 3:24.39 | 138273 | 153611
10 | 34:08.12 | 3:35.24 | 153612 | 169760
11 | 37:43.36 | 3:09.05 | 169761 | 183940
12 | 40:52.41 | 4:08.54 | 183941 | 202594
13 | 45:01.20 | 4:04.55 | 202595 | 220949
14 | 49:06.00 | 2:09.34 | 220950 | 230658
15 | 51:15.34 | 2:02.59 | 230659 | 239867
16 | 53:18.18 | 2:31.25 | 239868 | 251217
17 | 55:49.43 | 0:39.64 | 251218 | 254206
18 | 56:29.32 | 6:41.74 | 254207 | 284355
19 | 63:11.31 | 4:26.72 | 284356 | 304377


Range status and errors

Selected range

Filename C:\Users\Alex\Desktop\ALLexxess\David Bowie\2017 A New Career In A New Town (11CD Box Set Parlophone Records)\2017 Re-Call 3\David Bowie - Re-Call 3.wav

Peak level 99.2 %
Extraction speed 3.4 X
Range quality 99.9 %
Test CRC A0596AEB
Copy CRC A0596AEB
Copy OK

No errors occurred


AccurateRip summary

Track 1 not present in database
Track 2 not present in database
Track 3 not present in database
Track 4 not present in database
Track 5 not present in database
Track 6 not present in database
Track 7 not present in database
Track 8 not present in database
Track 9 not present in database
Track 10 not present in database
Track 11 not present in database
Track 12 not present in database
Track 13 not present in database
Track 14 not present in database
Track 15 not present in database
Track 16 not present in database
Track 17 not present in database
Track 18 not present in database
Track 19 not present in database

None of the tracks are present in the AccurateRip database

End of status report

–– CUETools DB Plugin V2.1.6

[CTDB TOCID: VCpyK_vfjHs8nLWU8.a7whvQX.0-] found
Submit result: VCpyK_vfjHs8nLWU8.a7whvQX.0- has been confirmed
Track | CTDB Status
1 | (45/45) Accurately ripped
2 | (44/45) Accurately ripped
3 | (45/45) Accurately ripped
4 | (45/45) Accurately ripped
5 | (45/45) Accurately ripped
6 | (45/45) Accurately ripped
7 | (45/45) Accurately ripped
8 | (45/45) Accurately ripped
9 | (45/45) Accurately ripped
10 | (45/45) Accurately ripped
11 | (45/45) Accurately ripped
12 | (45/45) Accurately ripped
13 | (45/45) Accurately ripped
14 | (45/45) Accurately ripped
15 | (45/45) Accurately ripped
16 | (45/45) Accurately ripped
17 | (45/45) Accurately ripped
18 | (45/45) Accurately ripped
19 | (45/45) Accurately ripped


==== Log checksum 5D07830C169876F06683D47ED986C6C6E27B2886F78AEA79185879F27674B664 ====


[CUETools log; Date: 13.10.2017 11:39:43; Version: 2.1.5]
[CTDB TOCID: VCpyK_vfjHs8nLWU8.a7whvQX.0-] found.
Track | CTDB Status
1 | (49/49) Accurately ripped
2 | (48/49) Accurately ripped
3 | (49/49) Accurately ripped
4 | (49/49) Accurately ripped
5 | (49/49) Accurately ripped
6 | (49/49) Accurately ripped
7 | (49/49) Accurately ripped
8 | (49/49) Accurately ripped
9 | (49/49) Accurately ripped
10 | (49/49) Accurately ripped
11 | (49/49) Accurately ripped
12 | (49/49) Accurately ripped
13 | (49/49) Accurately ripped
14 | (49/49) Accurately ripped
15 | (49/49) Accurately ripped
16 | (49/49) Accurately ripped
17 | (49/49) Accurately ripped
18 | (49/49) Accurately ripped
19 | (49/49) Accurately ripped
[AccurateRip ID: 002f885e-02918021-090fda13] disk not present in database.

Track Peak [ CRC32 ] [W/O NULL] [ LOG ]
– 99,2 [A0596AEB] [DC19CD4A] CRC32
01 97,8 [33B77E72] [AF5366FB]
02 98,6 [3A841B79] [5735BBFF]
03 98,5 [ED1C7E36] [B1227BDC]
04 97,3 [19B1850B] [B0EF8B10]
05 97,5 [524E2FBE] [9A9907E2]
06 97,6 [E98846B6] [0081AD22]
07 98,6 [C874751C] [6E02B607]
08 97,9 [B379B043] [9B010E7F]
09 99,2 [066706F0] [716E38CC]
10 96,7 [AF48D0DF] [8BDF402D]
11 68,1 [319F8684] [C79FF416]
12 97,1 [0B06AE8A] [C3B67B18]
13 96,8 [C04E1689] [632030E5]
14 96,6 [2726F2B6] [7A6A1E68]
15 96,5 [A3FCA337] [7DC4604B]
16 96,6 [DDC24CD0] [AB8E489D]
17 96,6 [481F3E75] [2959F1F6]
18 98,0 [F0501AC8] [66413E98]
19 97,8 [CA6C19A0] [F8770E80]


David Bowie - A New Career In A New Town (1977-1982) (2017) [11CD Box Set] PROPER

All thanks go to ALLexxess

David Bowie or David Bowie in my Blog

Download David Bowie - A New Career In A New Town (1977-1982) (2017):