Subcategories
Tags
Language
Tags

David Bowie - Aladdin Sane (1973) {1984, Japan 1st Press}

Posted By: popsakov
David Bowie - Aladdin Sane (1973) {1984, Japan 1st Press}

David Bowie - Aladdin Sane (1973) {1984, Japan 1st Press}
EAC Rip | FLAC (Img) + Cue + Log ~ 317 Mb | MP3 CBR320 ~ 147 Mb
Full Scans | 00:41:44 | RAR 5% Recovery
Classic Rock, Glam Rock, Art Rock | RCA #PD83890

Ziggy Stardust wrote the blueprint for David Bowie's hard-rocking glam, and Aladdin Sane essentially follows the pattern, for both better and worse. A lighter affair than Ziggy Stardust, Aladdin Sane is actually a stranger album than its predecessor, buoyed by bizarre lounge-jazz flourishes from pianist Mick Garson and a handful of winding, vaguely experimental songs. Bowie abandons his futuristic obsessions to concentrate on the detached cool of New York and London hipsters, as on the compressed rockers "Watch That Man," "Cracked Actor," and "The Jean Genie." Bowie follows the hard stuff with the jazzy, dissonant sprawls of "Lady Grinning Soul," "Aladdin Sane," and "Time," all of which manage to be both campy and avant-garde simultaneously, while the sweepingly cinematic "Drive-In Saturday" is a soaring fusion of sci-fi doo wop and melodramatic teenage glam. He lets his paranoia slip through in the clenched rhythms of "Panic in Detroit," as well as on his oddly clueless cover of "Let's Spend the Night Together." For all the pleasures on Aladdin Sane, there's no distinctive sound or theme to make the album cohesive; it's Bowie riding the wake of Ziggy Stardust, which means there's a wealth of classic material here, but not enough focus to make the album itself a classic.

~ Stephen Thomas Erlewine, All Music

***************

David Bowie - Aladdin Sane (1973) {1984, Japan 1st Press}

David Bowie - Aladdin Sane (1973) {1984, Japan 1st Press}

Track List:

01. Watch That Man [4:31]
02. Aladdin Sane (1913-1938-197?) [5:08]
03. Drive-In Saturday [4:38]
04. Panic In Detroit [4:28]
05. Cracked Actor [3:03]
06. Time [5:15]
07. The Prettiest Star [3:31]
08. Let's Spend The Night Together (The Rolling Stones Cover) [3:09]
09. The Jean Genie [4:07]
10. Lady Grinning Soul [3:54]

Exact Audio Copy V1.0 beta 3 from 29. August 2011

EAC extraction logfile from 19. December 2013, 14:07

David Bowie / Aladdin Sane

Used drive : HL-DT-STBDDVDRW CA30N Adapter: 1 ID: 0

Read mode : Secure
Utilize accurate stream : Yes
Defeat audio cache : Yes
Make use of C2 pointers : No

Read offset correction : 102
Overread into Lead-In and Lead-Out : No
Fill up missing offset samples with silence : Yes
Delete leading and trailing silent blocks : No
Null samples used in CRC calculations : Yes
Used interface : Native Win32 interface for Win NT & 2000

Used output format : User Defined Encoder
Selected bitrate : 1024 kBit/s
Quality : High
Add ID3 tag : No
Command line compressor : D:\Users\Recup\To Listen To\TORRENTS\flac.exe
Additional command line options : -5 %source%


TOC of the extracted CD

Track | Start | Length | Start sector | End sector
––––––––––––––––––––––––––––-
1 | 0:00.00 | 4:30.62 | 0 | 20311
2 | 4:30.62 | 5:07.40 | 20312 | 43376
3 | 9:38.27 | 4:38.03 | 43377 | 64229
4 | 14:16.30 | 4:28.32 | 64230 | 84361
5 | 18:44.62 | 3:02.60 | 84362 | 98071
6 | 21:47.47 | 5:14.68 | 98072 | 121689
7 | 27:02.40 | 3:31.15 | 121690 | 137529
8 | 30:33.55 | 3:09.30 | 137530 | 151734
9 | 33:43.10 | 4:07.02 | 151735 | 170261
10 | 37:50.12 | 3:54.23 | 170262 | 187834


Range status and errors

Selected range

Filename D:\Users\Recup\To Listen To\1973 - Aladdin Sane (1981, Japan, RCA PD83890)\David Bowie - Aladdin Sane.wav

Peak level 90.8 %
Extraction speed 2.0 X
Range quality 100.0 %
Test CRC A5A5B4E2
Copy CRC A5A5B4E2
Copy OK

No errors occurred


AccurateRip summary

Track 1 accurately ripped (confidence 18) [C907A855] (AR v2)
Track 2 accurately ripped (confidence 18) [79C0873F] (AR v2)
Track 3 accurately ripped (confidence 18) [CDD1F393] (AR v2)
Track 4 accurately ripped (confidence 18) [582B0CAD] (AR v2)
Track 5 accurately ripped (confidence 18) [D8CD05DB] (AR v2)
Track 6 accurately ripped (confidence 17) [59B28684] (AR v2)
Track 7 accurately ripped (confidence 17) [4997DAB1] (AR v2)
Track 8 accurately ripped (confidence 17) [BF9B8A3E] (AR v2)
Track 9 accurately ripped (confidence 17) [0B7A40D9] (AR v2)
Track 10 accurately ripped (confidence 17) [41B71A1A] (AR v2)

All tracks accurately ripped

End of status report

–– CUETools DB Plugin V2.1.3

[CTDB TOCID: ZBuSNsDkMTSXmTnCaIPwRFbPpmU-] found, Submit result: ZBuSNsDkMTSXmTnCaIPwRFbPpmU- has been confirmed
[65e325af] (21/21) Accurately ripped

foobar2000 1.3.16 / Dynamic Range Meter 1.1.1
log date: 2018-10-28 03:55:19

––––––––––––––––––––––––––––––––––––––––
Analyzed: David Bowie / Aladdin Sane
––––––––––––––––––––––––––––––––––––––––

DR Peak RMS Duration Track
––––––––––––––––––––––––––––––––––––––––
DR12 -1.41 dB -14.02 dB 4:31 01-Watch That Man
DR12 -1.68 dB -15.83 dB 5:08 02-Aladdin Sane (1913-1938-197?)
DR12 -1.04 dB -15.63 dB 4:38 03-Drive-In Saturday
DR12 -1.66 dB -15.71 dB 4:28 04-Panic In Detroit
DR13 -1.77 dB -16.42 dB 3:03 05-Cracked Actor
DR12 -0.83 dB -15.35 dB 5:15 06-Time
DR12 -2.02 dB -16.90 dB 3:31 07-The Prettiest Star
DR12 -2.34 dB -16.41 dB 3:09 08-Let's Spend The Night Together (The Rolling Stones Cover)
DR12 -1.39 dB -15.11 dB 4:07 09-The Jean Genie
DR11 -5.44 dB -19.35 dB 3:54 10-Lady Grinning Soul
––––––––––––––––––––––––––––––––––––––––

Number of tracks: 10
Official DR value: DR12

Samplerate: 44100 Hz
Channels: 2
Bits per sample: 16
Bitrate: 861 kbps
Codec: FLAC
================================================================================

[CUETools log; Date: 28.10.2018 3:54:29; Version: 2.1.6]
[CTDB TOCID: ZBuSNsDkMTSXmTnCaIPwRFbPpmU-] found.
Track | CTDB Status
1 | (51/51) Accurately ripped
2 | (50/51) Accurately ripped
3 | (51/51) Accurately ripped
4 | (50/51) Accurately ripped
5 | (51/51) Accurately ripped
6 | (50/51) Accurately ripped
7 | (50/51) Accurately ripped
8 | (50/51) Accurately ripped
9 | (51/51) Accurately ripped
10 | (49/51) Accurately ripped
[AccurateRip ID: 0010786d-00821278-7a09c80a] found.
Track [ CRC | V2 ] Status
01 [a88a975c|c907a855] (27+39/66) Accurately ripped
02 [ec7cf687|79c0873f] (26+40/66) Accurately ripped
03 [a359ee79|cdd1f393] (25+40/65) Accurately ripped
04 [c1a3f6ec|582b0cad] (25+40/65) Accurately ripped
05 [72bbe1bd|d8cd05db] (25+40/65) Accurately ripped
06 [64f74272|59b28684] (25+38/63) Accurately ripped
07 [dd86dc3f|4997dab1] (25+39/64) Accurately ripped
08 [08e879c1|bf9b8a3e] (25+39/64) Accurately ripped
09 [febe40e5|0b7a40d9] (25+39/64) Accurately ripped
10 [70bfca82|41b71a1a] (25+39/64) Accurately ripped

Track Peak [ CRC32 ] [W/O NULL] [ LOG ]
– 90,8 [A5A5B4E2] [A6652248] CRC32
01 85,0 [6502EA55] [23B896B2]
02 82,4 [58F7C7C9] [2D657B75]
03 88,6 [E8B40114] [2CA47CEF]
04 82,5 [9F7E4A50] [2EA9BA0A]
05 81,5 [7ADD9DAB] [B0E95B42]
06 90,8 [A8CCDDDA] [3D54BC1F]
07 79,2 [2ECC9503] [FBE9C1CD]
08 76,3 [C6CEF219] [9FB8D042]
09 85,1 [A813D7E8] [9380DF77]
10 53,4 [EE3F39DE] [BEAE8B01]

David Bowie - Aladdin Sane (1973) {1984, Japan 1st Press}


All thanks go to Suisse7

>>> David Bowie in my Blog <<<

DOWNLOAD: