Subcategories

David Bowie - Conversation Piece (2019) [5CD Box Set]

Posted By: v3122
David Bowie - Conversation Piece (2019) [5CD Box Set]

David Bowie - Conversation Piece (2019)
EAC | Flac(Image) + Cue + Log & MP3 CBR 320Kbps
Parlophone Record, DBCP 6869 0190295389291 | ~ 1434 or 623 Mb | Artwork(png) -> 1.64 Gb
Rock / Folk Rock / Pop Rock / Glam

Five CD box set tracking David’s early development throughout 1968 and 1969, via his home demos, BBC radio sessions, studio recordings with guitarist John ‘Hutch’ Hutchinson and the experimental music and mimegroup, Feathers. DAVID BOWIE - CONVERSATION PIECE contains twelve previously unreleased tracks/demos.
David Bowie - Conversation Piece (2019):

David Bowie - Conversation Piece (2019) [5CD Box Set]

Tracklist CD1 Home Demos:

01 April’s Tooth Of Gold
02 The Reverend Raymond Brown (Attends The Garden Fête On Thatchwick Green)
03 When I’m Five
04 Mother Grey
05 In The Heat Of The Morning
06 Goodbye 3d (Threepenny) Joe
07 Love All Around
08 London Bye, Ta-Ta
09 Angel Angel Grubby Face (Version 1)
10 Angel Angel Grubby Face (Version 2)
11 Animal Farm
12 Space Oddity (Solo Demo Fragment)
13 Space Oddity (Version 1 with John ‘Hutch’ Hutchinson)
14 Space Oddity (Version 2 with John ‘Hutch’ Hutchinson)
15 Space Oddity (Version 3 with John ‘Hutch’ Hutchinson)
16 Lover To The Dawn (with John ‘Hutch’ Hutchinson)
17 Ching-A-Ling (with John ‘Hutch’ Hutchinson)
18 An Occasional Dream (with John ‘Hutch’ Hutchinson)
19 Let Me Sleep Beside You (with John ‘Hutch’ Hutchinson)
20 Life Is A Circus (with John ‘Hutch’ Hutchinson)
21 Conversation Piece
22 Jerusalem
23 Hole In The Ground (with George Underwood)

Exact Audio Copy V1.3 from 2. September 2016

EAC extraction logfile from 22. November 2019, 12:55

David Bowie / Conversation Piece CD1 Home Demos

Used drive : PLEXTOR BD-R PX-B950SA Adapter: 1 ID: 1

Read mode : Secure
Utilize accurate stream : Yes
Defeat audio cache : Yes
Make use of C2 pointers : No

Read offset correction : 6
Overread into Lead-In and Lead-Out : No
Fill up missing offset samples with silence : Yes
Delete leading and trailing silent blocks : No
Null samples used in CRC calculations : Yes
Used interface : Native Win32 interface for Win NT & 2000

Used output format : Internal WAV Routines
Sample format : 44.100 Hz; 16 Bit; Stereo


TOC of the extracted CD

Track | Start | Length | Start sector | End sector
––––––––––––––––––––––––––––-
1 | 0:00.00 | 2:29.00 | 0 | 11174
2 | 2:29.00 | 2:17.08 | 11175 | 21457
3 | 4:46.08 | 3:17.11 | 21458 | 36243
4 | 8:03.19 | 3:00.54 | 36244 | 49797
5 | 11:03.73 | 2:59.36 | 49798 | 63258
6 | 14:03.34 | 3:19.44 | 63259 | 78227
7 | 17:23.03 | 2:49.50 | 78228 | 90952
8 | 20:12.53 | 3:30.01 | 90953 | 106703
9 | 23:42.54 | 2:31.56 | 106704 | 118084
10 | 26:14.35 | 2:37.45 | 118085 | 129904
11 | 28:52.05 | 2:22.13 | 129905 | 140567
12 | 31:14.18 | 2:39.11 | 140568 | 152503
13 | 33:53.29 | 4:02.32 | 152504 | 170685
14 | 37:55.61 | 5:01.08 | 170686 | 193268
15 | 42:56.69 | 5:09.72 | 193269 | 216515
16 | 48:06.66 | 3:51.19 | 216516 | 233859
17 | 51:58.10 | 2:58.57 | 233860 | 247266
18 | 54:56.67 | 2:50.37 | 247267 | 260053
19 | 57:47.29 | 2:54.66 | 260054 | 273169
20 | 60:42.20 | 4:50.02 | 273170 | 294921
21 | 65:32.22 | 3:49.41 | 294922 | 312137
22 | 69:21.63 | 4:20.29 | 312138 | 331666
23 | 73:42.17 | 3:29.12 | 331667 | 347353


Range status and errors

Selected range

Filename C:\Users\Alex\Desktop\ALLexxess\David Bowie\2019 Conversation Piece (5CD Box Set Parlophone Records)\CD1 Home Demos\David Bowie - Conversation Piece CD1 Home Demos.wav

Peak level 94.4 %
Extraction speed 8.3 X
Range quality 99.9 %
Test CRC 6A1B15AD
Copy CRC 6A1B15AD
Copy OK

No errors occurred


AccurateRip summary

Track 1 not present in database
Track 2 not present in database
Track 3 not present in database
Track 4 not present in database
Track 5 not present in database
Track 6 not present in database
Track 7 not present in database
Track 8 not present in database
Track 9 not present in database
Track 10 not present in database
Track 11 not present in database
Track 12 not present in database
Track 13 not present in database
Track 14 not present in database
Track 15 not present in database
Track 16 not present in database
Track 17 not present in database
Track 18 not present in database
Track 19 not present in database
Track 20 not present in database
Track 21 not present in database
Track 22 not present in database
Track 23 not present in database

None of the tracks are present in the AccurateRip database

End of status report

–– CUETools DB Plugin V2.1.6

[CTDB TOCID: sFNxr9TlrYDH1nCDfHRpHRdiik4-] found
Submit result: sFNxr9TlrYDH1nCDfHRpHRdiik4- has been confirmed
Track | CTDB Status
1 | (13/13) Accurately ripped
2 | (13/13) Accurately ripped
3 | (13/13) Accurately ripped
4 | (13/13) Accurately ripped
5 | (13/13) Accurately ripped
6 | (13/13) Accurately ripped
7 | (13/13) Accurately ripped
8 | (13/13) Accurately ripped
9 | (13/13) Accurately ripped
10 | (13/13) Accurately ripped
11 | (13/13) Accurately ripped
12 | (13/13) Accurately ripped
13 | (13/13) Accurately ripped
14 | (13/13) Accurately ripped
15 | (13/13) Accurately ripped
16 | (13/13) Accurately ripped
17 | (13/13) Accurately ripped
18 | (13/13) Accurately ripped
19 | (13/13) Accurately ripped
20 | (13/13) Accurately ripped
21 | (13/13) Accurately ripped
22 | (13/13) Accurately ripped
23 | (13/13) Accurately ripped


==== Log checksum 0DD1CEB3670BBD3F6EFDA9EE0AC3F726FFFD132F4C988DB104D28EBE12822375 ====


[CUETools log; Date: 28.11.2019 14:08:46; Version: 2.1.4]
[AccurateRip ID: 003b3368-03eed5d4-62121717] disk not present in database.

Track Peak [ CRC32 ] [W/O NULL] [ LOG ]
– 94,4 [6A1B15AD] [0AF0AE43] CRC32
01 71,8 [B386CA8E] [7302EAD9]
02 77,6 [2BAFE23A] [253E7F1D]
03 68,4 [F8894A02] [D7575430]
04 76,7 [12BA9766] [AD33E5BA]
05 87,5 [A45C547F] [37F7B566]
06 79,4 [F7D71D64] [316C1038]
07 85,7 [E2640191] [334B27A4]
08 64,7 [3EDD8524] [A72B8435]
09 77,3 [BF046D49] [0208943A]
10 82,0 [47B1276B] [B3A45C46]
11 69,1 [A6419F42] [BB1BC789]
12 71,8 [52C2B23A] [C41618CB]
13 71,5 [47EC11FD] [5F836F1A]
14 61,6 [4DC436E4] [B9055B4D]
15 94,4 [973A5181] [48A4B280]
16 82,2 [FA43DF9C] [6B40D58F]
17 92,2 [D98E4719] [B6B43F42]
18 88,1 [4DF7C6B5] [314CC572]
19 80,6 [F03B908E] [0D1836A8]
20 69,7 [D45E1FC4] [C5778A61]
21 92,2 [1C6B1200] [3A1F591D]
22 85,2 [8B51C1CE] [0D1E0597]
23 81,1 [50D9B906] [52C4F2B3]


Tracklist CD2 The ‘Mercury’ Demos:

with John ‘Hutch’ Hutchinson
01 Space Oddity
02 Janine
03 An Occasional Dream
04 Conversation Piece
05 Ching-A-Ling
06 I’m Not Quite (aka Letter To Hermione)
07 Lover To The Dawn
08 Love Song
09 When I’m Five
10 Life Is A Circus

Exact Audio Copy V1.3 from 2. September 2016

EAC extraction logfile from 22. November 2019, 12:19

David Bowie / Conversation Piece CD2 ‘Mercury’ Demos

Used drive : PLEXTOR BD-R PX-B950SA Adapter: 1 ID: 1

Read mode : Secure
Utilize accurate stream : Yes
Defeat audio cache : Yes
Make use of C2 pointers : No

Read offset correction : 6
Overread into Lead-In and Lead-Out : No
Fill up missing offset samples with silence : Yes
Delete leading and trailing silent blocks : No
Null samples used in CRC calculations : Yes
Used interface : Native Win32 interface for Win NT & 2000

Used output format : Internal WAV Routines
Sample format : 44.100 Hz; 16 Bit; Stereo


TOC of the extracted CD

Track | Start | Length | Start sector | End sector
––––––––––––––––––––––––––––-
1 | 0:00.00 | 5:28.02 | 0 | 24601
2 | 5:28.02 | 3:53.38 | 24602 | 42114
3 | 9:21.40 | 3:18.44 | 42115 | 57008
4 | 12:40.09 | 3:31.60 | 57009 | 72893
5 | 16:11.69 | 3:35.06 | 72894 | 89024
6 | 19:47.00 | 4:04.05 | 89025 | 107329
7 | 23:51.05 | 5:01.65 | 107330 | 129969
8 | 28:52.70 | 4:08.56 | 129970 | 148625
9 | 33:01.51 | 3:13.62 | 148626 | 163162
10 | 36:15.38 | 5:33.44 | 163163 | 188181


Range status and errors

Selected range

Filename C:\Users\Alex\Desktop\ALLexxess\David Bowie\2019 Conversation Piece (5CD Box Set Parlophone Records)\CD2 The ’Mercury’ Demos\David Bowie - Conversation Piece CD2 ‘Mercury’ Demos.wav

Peak level 96.6 %
Extraction speed 6.9 X
Range quality 100.0 %
Test CRC 3A11FD0C
Copy CRC 3A11FD0C
Copy OK

No errors occurred


AccurateRip summary

Track 1 not present in database
Track 2 not present in database
Track 3 not present in database
Track 4 not present in database
Track 5 not present in database
Track 6 not present in database
Track 7 not present in database
Track 8 not present in database
Track 9 not present in database
Track 10 not present in database

None of the tracks are present in the AccurateRip database

End of status report

–– CUETools DB Plugin V2.1.6

[CTDB TOCID: 8Pt1lisseG97Kvz6DvJ8D1rRXhg-] found
Submit result: 8Pt1lisseG97Kvz6DvJ8D1rRXhg- has been confirmed
Track | CTDB Status
1 | (13/13) Accurately ripped
2 | (13/13) Accurately ripped
3 | (13/13) Accurately ripped
4 | (13/13) Accurately ripped
5 | (13/13) Accurately ripped
6 | (13/13) Accurately ripped
7 | (13/13) Accurately ripped
8 | (13/13) Accurately ripped
9 | (13/13) Accurately ripped
10 | (13/13) Accurately ripped


==== Log checksum 7FC57F35096C38E8DA93DCE4B3B82AABAD9A25BF13E2AEC90D93EF696D3907B6 ====


[CUETools log; Date: 28.11.2019 14:10:35; Version: 2.1.4]
[AccurateRip ID: 000f9bc4-007c17be-8b09cd0a] disk not present in database.

Track Peak [ CRC32 ] [W/O NULL] [ LOG ]
– 96,6 [3A11FD0C] [81D12C9B] CRC32
01 96,6 [2ECB4EC8] [D2434C1F]
02 95,3 [30946A73] [BF6F8DD8]
03 96,6 [370F193D] [55A54F4F]
04 95,3 [2EBC2658] [94B62523]
05 96,6 [7E127CD1] [AF3285F9]
06 94,9 [2609AD57] [A2C28AB0]
07 94,3 [20A2E990] [82CB725B]
08 96,6 [6E74595F] [D69395A0]
09 86,4 [69889A4C] [A9AABE0A]
10 96,6 [437DEBAD] [376D74F5]


Tracklist CD3 Conversation Pieces (Mono):

01 In The Heat Of The Morning (Decca Mono Version)
02 London Bye, Ta-Ta (Decca Alternative Version)
BBC Top Gear Radio Session
with The Tony Visconti Orchestra, Recorded 13th May, 1968
03 In The Heat Of The Morning
04 London Bye, Ta-Ta
05 Karma Man
06 When I’m Five
07 Silly Boy Blue
–––-
08 Ching-A-Ling
09 Space Oddity (Morgan Studios Version / AlternativeTake with John ‘Hutch’ Hutchinson)
10 Space Oddity (U.K. Single Edit)
11 Wild Eyed Boy From Freecloud (Single B-Side / Mono Mix)
12 Janine (Mono Mix)
13 Conversation Piece
BBC Dave Lee Travis Show Radio Session,
Recorded 20th October, 1969
14 Let Me Sleep Beside You
15 Unwashed And Somewhat Slightly Dazed
16 Janine

Exact Audio Copy V1.3 from 2. September 2016

EAC extraction logfile from 22. November 2019, 11:55

David Bowie / Conversation Piece CD3 Conversation Pieces Mono

Used drive : PLEXTOR BD-R PX-B950SA Adapter: 1 ID: 1

Read mode : Secure
Utilize accurate stream : Yes
Defeat audio cache : Yes
Make use of C2 pointers : No

Read offset correction : 6
Overread into Lead-In and Lead-Out : No
Fill up missing offset samples with silence : Yes
Delete leading and trailing silent blocks : No
Null samples used in CRC calculations : Yes
Used interface : Native Win32 interface for Win NT & 2000

Used output format : Internal WAV Routines
Sample format : 44.100 Hz; 16 Bit; Stereo


TOC of the extracted CD

Track | Start | Length | Start sector | End sector
––––––––––––––––––––––––––––-
1 | 0:00.00 | 2:52.14 | 0 | 12913
2 | 2:52.14 | 2:36.40 | 12914 | 24653
3 | 5:28.54 | 3:01.32 | 24654 | 38260
4 | 8:30.11 | 2:37.48 | 38261 | 50083
5 | 11:07.59 | 3:07.58 | 50084 | 64166
6 | 14:15.42 | 3:14.57 | 64167 | 78773
7 | 17:30.24 | 4:32.13 | 78774 | 99186
8 | 22:02.37 | 2:51.55 | 99187 | 112066
9 | 24:54.17 | 4:22.08 | 112067 | 131724
10 | 29:16.25 | 4:42.53 | 131725 | 152927
11 | 33:59.03 | 4:54.05 | 152928 | 174982
12 | 38:53.08 | 3:22.70 | 174983 | 190202
13 | 42:16.03 | 3:07.66 | 190203 | 204293
14 | 45:23.69 | 3:20.06 | 204294 | 219299
15 | 48:44.00 | 4:04.00 | 219300 | 237599
16 | 52:48.00 | 3:03.01 | 237600 | 251325


Range status and errors

Selected range

Filename C:\Users\Alex\Desktop\ALLexxess\David Bowie\2019 Conversation Piece (5CD Box Set Parlophone Records)\CD3 Conversation Pieces (Mono)\David Bowie - Conversation Piece CD3 Conversation Pieces Mono.wav

Peak level 94.3 %
Extraction speed 7.5 X
Range quality 100.0 %
Test CRC 2322027A
Copy CRC 2322027A
Copy OK

No errors occurred


AccurateRip summary

Track 1 not present in database
Track 2 not present in database
Track 3 not present in database
Track 4 not present in database
Track 5 not present in database
Track 6 not present in database
Track 7 not present in database
Track 8 not present in database
Track 9 not present in database
Track 10 not present in database
Track 11 not present in database
Track 12 not present in database
Track 13 not present in database
Track 14 not present in database
Track 15 not present in database
Track 16 not present in database

None of the tracks are present in the AccurateRip database

End of status report

–– CUETools DB Plugin V2.1.6

[CTDB TOCID: s8NbONvE2vwqZo4z0qjawxoFa2s-] found
Submit result: s8NbONvE2vwqZo4z0qjawxoFa2s- has been confirmed
Track | CTDB Status
1 | (13/13) Accurately ripped
2 | (13/13) Accurately ripped
3 | (13/13) Accurately ripped
4 | (13/13) Accurately ripped
5 | (13/13) Accurately ripped
6 | (13/13) Accurately ripped
7 | (13/13) Accurately ripped
8 | (13/13) Accurately ripped
9 | (13/13) Accurately ripped
10 | (13/13) Accurately ripped
11 | (13/13) Accurately ripped
12 | (13/13) Accurately ripped
13 | (13/13) Accurately ripped
14 | (13/13) Accurately ripped
15 | (13/13) Accurately ripped
16 | (13/13) Accurately ripped


==== Log checksum A462AD6180575F39950A5D1D6AB82AB522686318B614694E990F7A03FFFD8C60 ====


[CUETools log; Date: 28.11.2019 14:13:06; Version: 2.1.4]
[AccurateRip ID: 001f2a63-017e0a71-d40d1710] disk not present in database.

Track Peak [ CRC32 ] [W/O NULL] [ LOG ]
– 94,3 [2322027A] [78ECEFD8] CRC32
01 94,0 [C2F4FA59] [AC493100]
02 94,3 [79F425D0] [8609F959]
03 94,2 [AFC7B8E7] [9E620C94]
04 69,4 [C51FACC8] [14BC7FA6]
05 78,0 [00135370] [A780DC3B]
06 43,7 [90FB6C17] [598C8CBF]
07 70,6 [890A8719] [C041309A]
08 80,2 [108607AA] [F711CD27]
09 86,3 [4B5C6751] [FBFE45F8]
10 94,3 [57E27723] [EB05488C]
11 94,3 [EA2984F8] [F0604EDB]
12 94,3 [BC7DC078] [39E702F3]
13 94,3 [0B28DB47] [0E60D3D0]
14 94,2 [D746353C] [4AB22D52]
15 94,3 [F1E50987] [7850E0E7]
16 92,6 [1561BC41] [744A778C]


Tracklist CD4 1969 Stereo Mixes:

The Original David Bowie (aka Space Oddity) Album (2009 Remaster)
01 Space Oddity
02 Unwashed And Somewhat Slightly Dazed (inc. Don’t Sit Down)
03 Letter To Hermione
04 Cygnet Committee
05 Janine
06 An Occasional Dream
07 Wild Eyed Boy From Freecloud
08 God Knows I’m Good
09 Memory Of A Free Festival
The Extras
10 Wild Eyed Boy From Freecloud (Single B-Side Stereo Mix)
11 Letter To Hermione (Early Mix)
12 Janine (Early Mix)
13 An Occasional Dream (Early Mix)
14 Ragazzo Solo, Ragazza Sola (Full Length Version)

Exact Audio Copy V1.3 from 2. September 2016

EAC extraction logfile from 22. November 2019, 11:19

David Bowie / Conversation Piece CD4 David Bowie 1969 Stereo Mix

Used drive : PLEXTOR BD-R PX-B950SA Adapter: 1 ID: 1

Read mode : Secure
Utilize accurate stream : Yes
Defeat audio cache : Yes
Make use of C2 pointers : No

Read offset correction : 6
Overread into Lead-In and Lead-Out : No
Fill up missing offset samples with silence : Yes
Delete leading and trailing silent blocks : No
Null samples used in CRC calculations : Yes
Used interface : Native Win32 interface for Win NT & 2000

Used output format : Internal WAV Routines
Sample format : 44.100 Hz; 16 Bit; Stereo


TOC of the extracted CD

Track | Start | Length | Start sector | End sector
––––––––––––––––––––––––––––-
1 | 0:00.00 | 5:16.49 | 0 | 23748
2 | 5:16.49 | 6:53.06 | 23749 | 54729
3 | 12:09.55 | 2:36.47 | 54730 | 66476
4 | 14:46.27 | 9:34.35 | 66477 | 109561
5 | 24:20.62 | 3:23.74 | 109562 | 124860
6 | 27:44.61 | 3:02.53 | 124861 | 138563
7 | 30:47.39 | 4:51.40 | 138564 | 160428
8 | 35:39.04 | 3:21.42 | 160429 | 175545
9 | 39:00.46 | 7:13.21 | 175546 | 208041
10 | 46:13.67 | 4:59.03 | 208042 | 230469
11 | 51:12.70 | 2:33.01 | 230470 | 241945
12 | 53:45.71 | 3:24.35 | 241946 | 257280
13 | 57:10.31 | 2:56.36 | 257281 | 270516
14 | 60:06.67 | 5:06.55 | 270517 | 293521


Range status and errors

Selected range

Filename C:\Users\Alex\Desktop\ALLexxess\David Bowie\2019 Conversation Piece (5CD Box Set Parlophone Records)\CD4 1969 David Bowie Stereo Mixes 2009 Remaster\David Bowie - Conversation Piece CD4 David Bowie 1969 Stereo Mix.wav

Peak level 94.4 %
Extraction speed 6.0 X
Range quality 99.9 %
Test CRC FA6A2249
Copy CRC FA6A2249
Copy OK

No errors occurred


AccurateRip summary

Track 1 not present in database
Track 2 not present in database
Track 3 not present in database
Track 4 not present in database
Track 5 not present in database
Track 6 not present in database
Track 7 not present in database
Track 8 not present in database
Track 9 not present in database
Track 10 not present in database
Track 11 not present in database
Track 12 not present in database
Track 13 not present in database
Track 14 not present in database

None of the tracks are present in the AccurateRip database

End of status report

–– CUETools DB Plugin V2.1.6

[CTDB TOCID: dok_1pjoM0FWs_I_982.aGhmdzo-] found
Submit result: dok_1pjoM0FWs_I_982.aGhmdzo- has been confirmed
Track | CTDB Status
1 | (12/12) Accurately ripped
2 | (12/12) Accurately ripped
3 | (12/12) Accurately ripped
4 | (12/12) Accurately ripped
5 | (12/12) Accurately ripped
6 | (12/12) Accurately ripped
7 | (12/12) Accurately ripped
8 | (12/12) Accurately ripped
9 | (12/12) Accurately ripped
10 | (12/12) Accurately ripped
11 | (12/12) Accurately ripped
12 | (12/12) Accurately ripped
13 | (12/12) Accurately ripped
14 | (12/12) Accurately ripped


==== Log checksum C31117A9ADCF72FA6EC03A593BCC640957CC59D371F23E4EBE419AE34597433E ====


[CUETools log; Date: 28.11.2019 14:16:04; Version: 2.1.4]
[AccurateRip ID: 0023f1f0-01784e1a-c80f490e] disk not present in database.

Track Peak [ CRC32 ] [W/O NULL] [ LOG ]
– 94,4 [FA6A2249] [217215D9] CRC32
01 79,1 [9DB021DA] [DBEBAA35]
02 94,4 [9F0831D7] [EA71AE9C]
03 68,7 [EA379689] [8C4B764B]
04 94,4 [917FFBB3] [E2889CA3]
05 94,4 [37B86EA2] [7F2C7CC0]
06 64,7 [4765D50B] [4479BF97]
07 94,4 [7920295E] [4D726E64]
08 77,6 [5601D3E1] [9A4A99A0]
09 94,4 [3FC5F6E3] [5A6CA73A]
10 79,8 [2E6DE161] [5661B881]
11 62,6 [B89667A4] [0C0DB6DB]
12 94,4 [2428FC36] [4E054D73]
13 70,6 [21FA9CC9] [34AF070B]
14 90,3 [4E0D73D8] [AEDCF7B6]


Tracklist CD5 The Space Oddity Album 2019 Mixes:

01 Space Oddity
02 Unwashed And Somewhat Slightly Dazed
03 Letter To Hermione
04 Cygnet Committee
05 Janine
06 An Occasional Dream
07 Wild Eyed Boy From Freecloud
08 God Knows I’m Good
09 Memory Of A Free Festival
The Extras
10 Wild Eyed Boy From Freecloud (Single Version)
11 Ragazzo Solo, Ragazza Sola

Exact Audio Copy V1.3 from 2. September 2016

EAC extraction logfile from 22. November 2019, 10:38

David Bowie / Conversation Piece CD5 Space Oddity 2019 Mix

Used drive : PLEXTOR BD-R PX-B950SA Adapter: 1 ID: 1

Read mode : Secure
Utilize accurate stream : Yes
Defeat audio cache : Yes
Make use of C2 pointers : No

Read offset correction : 6
Overread into Lead-In and Lead-Out : No
Fill up missing offset samples with silence : Yes
Delete leading and trailing silent blocks : No
Null samples used in CRC calculations : Yes
Used interface : Native Win32 interface for Win NT & 2000

Used output format : Internal WAV Routines
Sample format : 44.100 Hz; 16 Bit; Stereo


TOC of the extracted CD

Track | Start | Length | Start sector | End sector
––––––––––––––––––––––––––––-
1 | 0:00.00 | 5:20.70 | 0 | 24069
2 | 5:20.70 | 6:19.15 | 24070 | 52509
3 | 11:40.10 | 2:33.54 | 52510 | 64038
4 | 14:13.64 | 9:37.61 | 64039 | 107374
5 | 23:51.50 | 3:21.04 | 107375 | 122453
6 | 27:12.54 | 2:57.28 | 122454 | 135756
7 | 30:10.07 | 4:50.41 | 135757 | 157547
8 | 35:00.48 | 3:11.17 | 157548 | 171889
9 | 38:11.65 | 3:17.17 | 171890 | 186681
10 | 41:29.07 | 7:20.58 | 186682 | 219739
11 | 48:49.65 | 4:54.19 | 219740 | 241808
12 | 53:44.09 | 5:19.24 | 241809 | 265757


Range status and errors

Selected range

Filename C:\Users\Alex\Desktop\ALLexxess\David Bowie\2019 Conversation Piece (5CD Box Set Parlophone Records)\CD5 1969 Space Oddity 2019 Mixes\David Bowie - Conversation Piece CD5 Space Oddity 2019 Mix.wav

Peak level 99.8 %
Extraction speed 3.4 X
Range quality 99.9 %
Test CRC 970C78F2
Copy CRC 970C78F2
Copy OK

No errors occurred


AccurateRip summary

Track 1 not present in database
Track 2 not present in database
Track 3 not present in database
Track 4 not present in database
Track 5 not present in database
Track 6 not present in database
Track 7 not present in database
Track 8 not present in database
Track 9 not present in database
Track 10 not present in database
Track 11 not present in database
Track 12 not present in database

None of the tracks are present in the AccurateRip database

End of status report

–– CUETools DB Plugin V2.1.6

[CTDB TOCID: W6c66TQmEMexrV.ikqq6pl5wxmg-] found
Submit result: W6c66TQmEMexrV.ikqq6pl5wxmg- has been confirmed
Track | CTDB Status
1 | (13/13) Accurately ripped
2 | (13/13) Accurately ripped
3 | (13/13) Accurately ripped
4 | (13/13) Accurately ripped
5 | (13/13) Accurately ripped
6 | (13/13) Accurately ripped
7 | (13/13) Accurately ripped
8 | (13/13) Accurately ripped
9 | (13/13) Accurately ripped
10 | (13/13) Accurately ripped
11 | (13/13) Accurately ripped
12 | (13/13) Accurately ripped


==== Log checksum 298515A575A26847D03A06F4249F9B54E189B0B040FA72D3D649803CA95294F7 ====


[CUETools log; Date: 28.11.2019 14:18:40; Version: 2.1.4]
[AccurateRip ID: 001ab280-00f62639-8a0dd70c] disk not present in database.

Track Peak [ CRC32 ] [W/O NULL] [ LOG ]
– 99,8 [970C78F2] [A7424713] CRC32
01 99,8 [E2D978BE] [675B2608]
02 96,8 [C520D7B8] [06447B90]
03 77,4 [93EC81C9] [5CE95928]
04 86,3 [5C3B4497] [8AEAE906]
05 95,7 [ADBDB4FA] [95756F96]
06 91,0 [61A34C83] [F98E2650]
07 94,4 [3163E670] [FE53D795]
08 96,2 [0EE13F1B] [BDF20DD1]
09 94,9 [7223A612] [1CAAC0E0]
10 90,0 [5E49BF91] [5CA22549]
11 93,3 [8F730618] [4A90CFF8]
12 99,8 [6E6B4CDE] [87987F72]


David Bowie - Conversation Piece (2019) [5CD Box Set]

All thanks go to ALLexxess

David Bowie in my Blog

Download David Bowie - Conversation Piece (2019):