Subcategories

David Bowie - Pin Ups (1973) [EMI TOCP-95046, Japan]

Posted By: v3122
David Bowie - Pin Ups (1973) [EMI TOCP-95046, Japan]

David Bowie - Pin Ups (1973)
EAC | Flac(Image) + Cue + Log & MP3 CBR 320Kbps
2009 | EMI TOCP-95046 | ~ 223 or 82 Mb | Scans(jpg) -> 12 Mb
Rock, Experimental, Glam

Pin Ups fits into David Bowie's output roughly where Moondog Matinee (which, strangely enough, appeared the very same month) did into the Band's output, which is to say that it didn't seem to fit in at all. Just as a lot of fans of Levon Helm et al. couldn't figure where a bunch of rock & roll and R&B covers fit alongside their output of original songs, so Bowie's fans – after enjoying a string of fiercely original LPs going back to 1970's The Man Who Sold the World – weren't able to make too much out of Pin Ups' new recordings of a brace of '60s British hits. Ziggy Stardust and Aladdin Sane had established Bowie as perhaps the most fiercely original of all England's glam rockers (though Marc Bolan's fans would dispute that to their dying day), so an album of covers didn't make any sense and was especially confusing for American fans – apart from the Easybeats' "Friday on My Mind" and the Yardbirds' "Shapes of Things," little here was among the biggest hits of their respective artists' careers, and the Who's "I Can't Explain" and "Anyway Anyhow Anywhere" were the only ones whose original versions were easily available or played very often on the radio; everything else was as much a history lesson, for Pink Floyd fans whose knowledge of that band went back no further than Atom Heart Mother, or into Liverpool rock (the Merseys' "Sorrow"), as it was a tour through Bowie's taste in '60s music. The latter was a mixed bag stylistically, opening with the Pretty Things' high-energy Bo Diddley homage "Rosalyn" and segueing directly into a hard, surging rendition of Them's version of Bert Berns' "Here Comes the Night," filled with crunchy guitars; "I Wish You Would" and "Shapes of Things" were both showcases for Bowie's and Mick Ronson's guitars, and "See Emily Play" emphasized the punkish (as opposed to the psychedelic) side of the song. "Sorrow," which benefited from a new saxophone break, was actually a distinct improvement over the original, managing to be edgier and more elegant all at once, and could easily have been a single at the time, and Bowie's slow version of "I Can't Explain" was distinctly different from the Who's original – in other words, Pin Ups was an artistic statement, of sorts, with some thought behind it, rather than just a quick album of oldies covers to buy some time, as it was often dismissed as being. In the broader context of Bowie's career, Pin Ups was more than an anomaly – it marked the swan song for the Spiders from Mars and something of an interlude between the first and second phases of his international career; the next, beginning with Diamond Dogs, would be a break from his glam rock phase, going off in new directions. It's not a bad bridge between the two, and it has endured across the decades.

by Bruce Eder, allmusic
David Bowie - Pin Ups (1973):

David Bowie - Pin Ups (1973) [EMI TOCP-95046, Japan]

Tracklist:

1. ROSALYN
2. HERE COMES THE NIGHT
3. I WISH YOU WOULD
4. SEE EMILY PLAY
5. EVERYTHING'S ALRIGHT
6. I CAN'T EXPLAIN
7. FRIDAY ON MY MIND
8. SORROW
9. DON'T BRING ME DOWN
10. SHAPES OF THINGS
11. ANYWAY. ANYHOW. ANYWHERE
12. WHERE HAVE ALL THE GOOD TIMES GONE

Converted to Image (CUETools 2.1.4)

X Lossless Decoder version 20100302 (116.6)

XLD extraction logfile from 2010-03-11 18:38:03 +0500

David Bowie / Pin Ups

Used drive : OPTIARC DVD RW AD-5670S (revision 2AHH)

Use cdparanoia mode : YES (CDParanoia III 10.2 engine)
Disable audio cache : OK for the drive with cache less than 2750KB
Make use of C2 pointers : NO
Read offset correction : 48
Max retry count : 100

TOC of the extracted CD
Track | Start | Length | Start sector | End sector
––––––––––––––––––––––––––––-
1 | 00:00:00 | 02:21:65 | 0 | 10639
2 | 02:21:65 | 03:08:73 | 10640 | 24812
3 | 05:30:63 | 02:47:70 | 24813 | 37407
4 | 08:18:58 | 04:12:27 | 37408 | 56334
5 | 12:31:10 | 02:28:20 | 56335 | 67454
6 | 14:59:30 | 02:11:28 | 67455 | 77307
7 | 17:10:58 | 02:56:25 | 77308 | 90532
8 | 20:07:08 | 02:53:05 | 90533 | 103512
9 | 23:00:13 | 02:05:57 | 103513 | 112944
10 | 25:05:70 | 02:53:08 | 112945 | 125927
11 | 27:59:03 | 03:12:50 | 125928 | 140377
12 | 31:11:53 | 02:41:30 | 140378 | 152482


Track 01
Filename : /Users/gubarenko/Desktop/David Bowie - Pin Ups/01 - Rosalyn.flac

Pre-gap length : 00:02:00

CRC32 hash (test run) : 990EF860
CRC32 hash : 990EF860
CRC32 hash (skip zero) : D5E0EDBF
AccurateRip signature : A81782A2
->Accurately ripped! (confidence 1)
Statistics
Read error : 0
Skipped (treated as error) : 0
Edge jitter error (maybe fixed) : 0
Atom jitter error (maybe fixed) : 0
Drift error (maybe fixed) : 0
Dropped bytes error (maybe fixed) : 0
Duplicated bytes error (maybe fixed) : 0
Inconsistency in error sectors : 0

Track 02
Filename : /Users/gubarenko/Desktop/David Bowie - Pin Ups/02 - Here Comes The Night.flac

CRC32 hash (test run) : 7EF9EB0E
CRC32 hash : 7EF9EB0E
CRC32 hash (skip zero) : E86B88C3
AccurateRip signature : E1A3E6C0
->Accurately ripped! (confidence 1)
Statistics
Read error : 0
Skipped (treated as error) : 0
Edge jitter error (maybe fixed) : 0
Atom jitter error (maybe fixed) : 0
Drift error (maybe fixed) : 0
Dropped bytes error (maybe fixed) : 0
Duplicated bytes error (maybe fixed) : 0
Inconsistency in error sectors : 0

Track 03
Filename : /Users/gubarenko/Desktop/David Bowie - Pin Ups/03 - I Wish You Would.flac

CRC32 hash (test run) : 73E33104
CRC32 hash : 73E33104
CRC32 hash (skip zero) : 7F3CA4DE
AccurateRip signature : 09B47B6F
->Accurately ripped! (confidence 1)
Statistics
Read error : 0
Skipped (treated as error) : 0
Edge jitter error (maybe fixed) : 0
Atom jitter error (maybe fixed) : 0
Drift error (maybe fixed) : 0
Dropped bytes error (maybe fixed) : 0
Duplicated bytes error (maybe fixed) : 0
Inconsistency in error sectors : 0

Track 04
Filename : /Users/gubarenko/Desktop/David Bowie - Pin Ups/04 - See Emily Play.flac

CRC32 hash (test run) : 1315F1C3
CRC32 hash : 1315F1C3
CRC32 hash (skip zero) : A8B7BAAC
AccurateRip signature : F1F47450
->Accurately ripped! (confidence 1)
Statistics
Read error : 0
Skipped (treated as error) : 0
Edge jitter error (maybe fixed) : 0
Atom jitter error (maybe fixed) : 0
Drift error (maybe fixed) : 0
Dropped bytes error (maybe fixed) : 0
Duplicated bytes error (maybe fixed) : 0
Inconsistency in error sectors : 0

Track 05
Filename : /Users/gubarenko/Desktop/David Bowie - Pin Ups/05 - Everythings Alright.flac

CRC32 hash (test run) : 97DEF0D7
CRC32 hash : 97DEF0D7
CRC32 hash (skip zero) : 85E24CEC
AccurateRip signature : E156BFE4
->Accurately ripped! (confidence 1)
Statistics
Read error : 0
Skipped (treated as error) : 0
Edge jitter error (maybe fixed) : 0
Atom jitter error (maybe fixed) : 0
Drift error (maybe fixed) : 0
Dropped bytes error (maybe fixed) : 0
Duplicated bytes error (maybe fixed) : 0
Inconsistency in error sectors : 0

Track 06
Filename : /Users/gubarenko/Desktop/David Bowie - Pin Ups/06 - I Can't Explain.flac

CRC32 hash (test run) : 950CC933
CRC32 hash : 950CC933
CRC32 hash (skip zero) : 6A5250D4
AccurateRip signature : BD6B74C0
->Accurately ripped! (confidence 1)
Statistics
Read error : 0
Skipped (treated as error) : 0
Edge jitter error (maybe fixed) : 0
Atom jitter error (maybe fixed) : 0
Drift error (maybe fixed) : 0
Dropped bytes error (maybe fixed) : 0
Duplicated bytes error (maybe fixed) : 0
Inconsistency in error sectors : 0

Track 07
Filename : /Users/gubarenko/Desktop/David Bowie - Pin Ups/07 - Friday On My Mind.flac

CRC32 hash (test run) : 4C6D3A07
CRC32 hash : 4C6D3A07
CRC32 hash (skip zero) : 8C8B80CD
AccurateRip signature : 469D487E
->Accurately ripped! (confidence 1)
Statistics
Read error : 0
Skipped (treated as error) : 0
Edge jitter error (maybe fixed) : 0
Atom jitter error (maybe fixed) : 0
Drift error (maybe fixed) : 0
Dropped bytes error (maybe fixed) : 0
Duplicated bytes error (maybe fixed) : 0
Inconsistency in error sectors : 0

Track 08
Filename : /Users/gubarenko/Desktop/David Bowie - Pin Ups/08 - Sorrow.flac

CRC32 hash (test run) : 38250D39
CRC32 hash : 38250D39
CRC32 hash (skip zero) : 84339CD7
AccurateRip signature : 13E5248E
->Accurately ripped! (confidence 1)
Statistics
Read error : 0
Skipped (treated as error) : 0
Edge jitter error (maybe fixed) : 0
Atom jitter error (maybe fixed) : 0
Drift error (maybe fixed) : 0
Dropped bytes error (maybe fixed) : 0
Duplicated bytes error (maybe fixed) : 0
Inconsistency in error sectors : 0

Track 09
Filename : /Users/gubarenko/Desktop/David Bowie - Pin Ups/09 - Don't Bring Me Down.flac

CRC32 hash (test run) : 6D1B09B0
CRC32 hash : 6D1B09B0
CRC32 hash (skip zero) : F971E2D6
AccurateRip signature : 18CA84FF
->Accurately ripped! (confidence 1)
Statistics
Read error : 0
Skipped (treated as error) : 0
Edge jitter error (maybe fixed) : 0
Atom jitter error (maybe fixed) : 0
Drift error (maybe fixed) : 0
Dropped bytes error (maybe fixed) : 0
Duplicated bytes error (maybe fixed) : 0
Inconsistency in error sectors : 0

Track 10
Filename : /Users/gubarenko/Desktop/David Bowie - Pin Ups/10 - Shapes of Things.flac

CRC32 hash (test run) : A46427D8
CRC32 hash : A46427D8
CRC32 hash (skip zero) : 286A2408
AccurateRip signature : 0C6A1318
->Accurately ripped! (confidence 1)
Statistics
Read error : 0
Skipped (treated as error) : 0
Edge jitter error (maybe fixed) : 0
Atom jitter error (maybe fixed) : 0
Drift error (maybe fixed) : 0
Dropped bytes error (maybe fixed) : 0
Duplicated bytes error (maybe fixed) : 0
Inconsistency in error sectors : 0

Track 11
Filename : /Users/gubarenko/Desktop/David Bowie - Pin Ups/11 - Anyway Anyhow Anywhere.flac

CRC32 hash (test run) : 81765575
CRC32 hash : 81765575
CRC32 hash (skip zero) : 4C13D582
AccurateRip signature : AD32940B
->Accurately ripped! (confidence 1)
Statistics
Read error : 0
Skipped (treated as error) : 0
Edge jitter error (maybe fixed) : 0
Atom jitter error (maybe fixed) : 0
Drift error (maybe fixed) : 0
Dropped bytes error (maybe fixed) : 0
Duplicated bytes error (maybe fixed) : 0
Inconsistency in error sectors : 0

Track 12
Filename : /Users/gubarenko/Desktop/David Bowie - Pin Ups/12 - Where Have All The Good Times Gone.flac

Pre-gap length : 00:05:14

CRC32 hash (test run) : 56CE3CF0
CRC32 hash : 56CE3CF0
CRC32 hash (skip zero) : A98E3A6A
AccurateRip signature : 665694C5
->Accurately ripped! (confidence 1)
Statistics
Read error : 0
Skipped (treated as error) : 0
Edge jitter error (maybe fixed) : 0
Atom jitter error (maybe fixed) : 0
Drift error (maybe fixed) : 0
Dropped bytes error (maybe fixed) : 0
Duplicated bytes error (maybe fixed) : 0
Inconsistency in error sectors : 0

No errors occurred

End of status report


[CUETools log; Date: 12.06.2018 14:35:34; Version: 2.1.5]
[AccurateRip ID: 000f413b-008e103b-8007f10c] found.
Track [ CRC | V2 ] Status
01 [a81782a2|d9b82f39] (2+2/6) Accurately ripped
02 [e1a3e6c0|68e2fdc4] (2+2/6) Accurately ripped
03 [09b47b6f|bc42f032] (2+2/6) Accurately ripped
04 [f1f47450|770fc301] (2+2/6) Accurately ripped
05 [e156bfe4|df2ad4fa] (2+2/6) Accurately ripped
06 [bd6b74c0|b8b1d222] (2+2/6) Accurately ripped
07 [469d487e|1649ae30] (2+2/6) Accurately ripped
08 [13e5248e|f73b8516] (2+2/6) Accurately ripped
09 [18ca84ff|fa0fe4ee] (2+2/6) Accurately ripped
10 [0c6a1318|59641b31] (2+2/6) Accurately ripped
11 [ad32940b|eb573a9d] (2+2/6) Accurately ripped
12 [665694c5|8c07c0f5] (2+2/6) Accurately ripped
Offsetted by 6:
01 [453ce754] (0/6) No match (V2 was not tested)
02 [9c09a845] (0/6) No match (V2 was not tested)
03 [e34d66c6] (0/6) No match (V2 was not tested)
04 [796d52ac] (0/6) No match (V2 was not tested)
05 [7dc48d10] (0/6) No match (V2 was not tested)
06 [24650400] (0/6) No match (V2 was not tested)
07 [4ec5e2af] (0/6) No match (V2 was not tested)
08 [43129e3a] (0/6) No match (V2 was not tested)
09 [0ae93f3d] (0/6) No match (V2 was not tested)
10 [3b853bcc] (0/6) No match (V2 was not tested)
11 [c606c4ce] (0/6) No match (V2 was not tested)
12 [44a98eab] (0/6) No match (V2 was not tested)

Track Peak [ CRC32 ] [W/O NULL]
– 94,0 [BBDCE0A9] [008E27F0]
01 89,4 [990EF860] [D5E0EDBF]
02 92,0 [7EF9EB0E] [E86B88C3]
03 94,0 [73E33104] [7F3CA4DE]
04 90,7 [1315F1C3] [A8B7BAAC]
05 91,1 [97DEF0D7] [85E24CEC]
06 89,5 [950CC933] [6A5250D4]
07 92,2 [4C6D3A07] [8C8B80CD]
08 89,9 [38250D39] [84339CD7]
09 91,4 [6D1B09B0] [F971E2D6]
10 90,1 [A46427D8] [286A2408]
11 91,8 [81765575] [4C13D582]
12 90,4 [56CE3CF0] [A98E3A6A]


Nerina Pallot - Stay Lucky (2017)

All thanks go to mgubarenko

David Bowie or David Bowie in my Blog

Download David Bowie - Pin Ups (1973):