Subcategories

David Bowie - Scary Monsters (And Super Creeps) (1980) {1984, Germany 1st Press} Repost

Posted By: popsakov
David Bowie - Scary Monsters (And Super Creeps) (1980) {1984, Germany 1st Press} Repost

David Bowie - Scary Monsters (And Super Creeps) (1980) {1984, Germany 1st Press}
EAC Rip | FLAC (Img) + Cue + Log ~ 304 Mb | MP3 CBR320 ~ 110 Mb
Full Scans ~ 47 Mb | RAR 5% Recovery
Art Rock | RCA #PD83647

David Bowie returned to relatively conventional rock & roll with Scary Monsters, an album that effectively acts as an encapsulation of all his '70s experiments. Reworking glam rock themes with avant-garde synth flourishes, and reversing the process as well, Bowie creates dense but accessible music throughout Scary Monsters. Though it doesn't have the vision of his other classic records, it wasn't designed to break new ground – it was created as the culmination of Bowie's experimental genre-shifting of the '70s. As a result, Scary Monsters is Bowie's last great album. While the music isn't far removed from the post-punk of the early '80s, it does sound fresh, hip, and contemporary, which is something Bowie lost over the course of the '80s.
~ Stephen Thomas Erlewine, All Music

***************

David Bowie - Scary Monsters (And Super Creeps) (1980) {1984, Germany 1st Press} Repost

David Bowie - Scary Monsters (And Super Creeps) (1980) {1984, Germany 1st Press} Repost

Track List:

01. It's No Game (Part 1) [4:18]
02. Up The Hill Backwards [3:16]
03. Scary Monsters (And Super Creeps) [5:14]
04. Ashes To Ashes [4:26]
05. Fashion [4:49]
06. Teenage Wildlife [6:58]
07. Scream Like A Baby [3:36]
08. Kingdom Come (Tom Verlaine Cover) [3:47]
09. Because You're Young [4:56]
10. It's No Game (Part 2) [4:25]

Personnel:
David Bowie - vocals, keyboards, backing vocals, saxophone
Dennis Davis - percussion
George Murray - bass guitar
Carlos Alomar - guitars

Additional musicians:
Chuck Hammer - guitar synthesizer on "Ashes to Ashes" and "Teenage Wildlife"
Robert Fripp - guitar on "Fashion", "It's No Game", "Scary Monsters (And Super Creeps)", "Kingdom Come", "Up the Hill Backwards", and "Teenage Wildlife"
Roy Bittan - piano on "Teenage Wildlife", "Ashes to Ashes" and "Up the Hill Backwards"
Andy Clark - synthesizer on "Fashion", "Scream Like a Baby", "Ashes to Ashes" and "Because You're Young"
Pete Townshend - guitar on "Because You're Young"
Tony Visconti - acoustic guitar on "Scary Monsters (And Super Creeps)" and "Up the Hill Backwards", backing vocals
Lynn Maitland - backing vocals
Chris Porter - backing vocals
Michi Hirota - voice on "It's No Game (No. 1)"

Exact Audio Copy V1.0 beta 3 from 29. August 2011

EAC extraction logfile from 21. May 2013, 21:49

David Bowie / Scary Monsters

Used drive : HL-DT-STBDDVDRW CA30N Adapter: 1 ID: 0

Read mode : Secure
Utilize accurate stream : Yes
Defeat audio cache : Yes
Make use of C2 pointers : No

Read offset correction : 102
Overread into Lead-In and Lead-Out : No
Fill up missing offset samples with silence : Yes
Delete leading and trailing silent blocks : No
Null samples used in CRC calculations : Yes
Used interface : Native Win32 interface for Win NT & 2000

Used output format : User Defined Encoder
Selected bitrate : 1024 kBit/s
Quality : High
Add ID3 tag : No
Command line compressor : D:\Users\Recup\To Listen To\TORRENTS\flac.exe
Additional command line options : -5 %source%


TOC of the extracted CD

Track | Start | Length | Start sector | End sector
––––––––––––––––––––––––––––-
1 | 0:00.32 | 4:18.28 | 32 | 19409
2 | 4:18.60 | 3:16.05 | 19410 | 34114
3 | 7:34.65 | 5:13.52 | 34115 | 57641
4 | 12:48.42 | 4:26.18 | 57642 | 77609
5 | 17:14.60 | 4:48.40 | 77610 | 99249
6 | 22:03.25 | 6:57.55 | 99250 | 130579
7 | 29:01.05 | 3:36.32 | 130580 | 146811
8 | 32:37.37 | 3:47.03 | 146812 | 163839
9 | 36:24.40 | 4:55.55 | 163840 | 186019
10 | 41:20.20 | 4:25.27 | 186020 | 205921


Range status and errors

Selected range

Filename D:\Users\Recup\To Listen To\1980 - Scary Monsters (And Super Creeps) (1984, Germany, RCA PD83647)\David Bowie - Scary Monsters.wav

Peak level 89.4 %
Extraction speed 1.8 X
Range quality 99.9 %
Test CRC 8505B989
Copy CRC 8505B989
Copy OK

No errors occurred


AccurateRip summary

Track 1 accurately ripped (confidence 5) [1C4D62DB] (AR v2)
Track 2 accurately ripped (confidence 5) [3DBA2690] (AR v2)
Track 3 accurately ripped (confidence 5) [5E5E38A9] (AR v2)
Track 4 accurately ripped (confidence 5) [562E7F63] (AR v2)
Track 5 accurately ripped (confidence 5) [8C741C2A] (AR v2)
Track 6 accurately ripped (confidence 5) [5DEDB8C3] (AR v2)
Track 7 accurately ripped (confidence 5) [3071E57E] (AR v2)
Track 8 accurately ripped (confidence 5) [3E6FD971] (AR v2)
Track 9 accurately ripped (confidence 5) [0E1D3221] (AR v2)
Track 10 accurately ripped (confidence 5) [639CA551] (AR v2)

All tracks accurately ripped

End of status report

–– CUETools DB Plugin V2.1.3

[CTDB TOCID: HxnRiccPbGZEXjU_QN6Pp_YKw_U-] found, Submit result: discs with pregaps not supported in this protocol version
[d56579e3] (21/21) Differs in 0 samples @
You can use CUETools to repair this rip.

foobar2000 1.3.16 / Dynamic Range Meter 1.1.1
log date: 2018-11-03 02:50:57

––––––––––––––––––––––––––––––––––––––––
Analyzed: David Bowie / Scary Monsters (And Super Creeps)
––––––––––––––––––––––––––––––––––––––––

DR Peak RMS Duration Track
––––––––––––––––––––––––––––––––––––––––
DR12 -2.79 dB -17.43 dB 4:18 01-It's No Game (Part 1)
DR14 -0.97 dB -18.00 dB 3:16 02-Up The Hill Backwards
DR13 -1.97 dB -16.39 dB 5:14 03-Scary Monsters (And Super Creeps)
DR13 -3.37 dB -18.53 dB 4:26 04-Ashes To Ashes
DR15 -1.77 dB -18.91 dB 4:49 05-Fashion
DR12 -2.60 dB -17.53 dB 6:58 06-Teenage Wildlife
DR13 -1.58 dB -16.75 dB 3:36 07-Scream Like A Baby
DR13 -1.11 dB -16.31 dB 3:47 08-Kingdom Come (Tom Verlaine Cover)
DR13 -2.03 dB -17.37 dB 4:56 09-Because You're Young
DR13 -2.52 dB -18.77 dB 4:25 10-It's No Game (Part 2)
––––––––––––––––––––––––––––––––––––––––

Number of tracks: 10
Official DR value: DR13

Samplerate: 44100 Hz
Channels: 2
Bits per sample: 16
Bitrate: 885 kbps
Codec: FLAC
================================================================================

[CUETools log; Date: 03.11.2018 2:51:01; Version: 2.1.6]
Pregap length 00:00:32.
[CTDB TOCID: HxnRiccPbGZEXjU_QN6Pp_YKw_U-] found.
Track | CTDB Status
1 | (48/48) Accurately ripped
2 | (48/48) Accurately ripped
3 | (48/48) Accurately ripped
4 | (48/48) Accurately ripped
5 | (48/48) Accurately ripped
6 | (48/48) Accurately ripped
7 | (48/48) Accurately ripped
8 | (48/48) Accurately ripped
9 | (48/48) Accurately ripped
10 | (48/48) Accurately ripped
[AccurateRip ID: 00111bd1-0089ff3d-840ab90a] found.
Track [ CRC | V2 ] Status
01 [94308301|1c4d62db] (19+41/63) Accurately ripped
02 [38f9a36e|3dba2690] (18+41/62) Accurately ripped
03 [5d957560|5e5e38a9] (18+40/61) Accurately ripped
04 [307a8aac|562e7f63] (18+41/62) Accurately ripped
05 [99a79449|8c741c2a] (19+40/62) Accurately ripped
06 [907f990b|5dedb8c3] (17+41/61) Accurately ripped
07 [bdf2d0e5|3071e57e] (18+41/62) Accurately ripped
08 [95bd3720|3e6fd971] (17+39/59) Accurately ripped
09 [dea3cfd6|0e1d3221] (17+41/61) Accurately ripped
10 [13d8a6cf|639ca551] (18+41/62) Accurately ripped
Offsetted by 6:
01 [cab2a655] (00/63) No match (V2 was not tested)
02 [9c65a26e] (00/62) No match (V2 was not tested)
03 [180cd968] (00/61) No match (V2 was not tested)
04 [5533d656] (00/62) No match (V2 was not tested)
05 [78145911] (00/62) No match (V2 was not tested)
06 [44d01840] (00/61) No match (V2 was not tested)
07 [d2f6f084] (00/62) No match (V2 was not tested)
08 [fdb04f7e] (00/59) No match (V2 was not tested)
09 [47591e76] (00/61) No match (V2 was not tested)
10 [acdf3de9] (00/62) No match (V2 was not tested)

Track Peak [ CRC32 ] [W/O NULL] [ LOG ]
– 89,4 [8505B989] [9921854F] CRC32
01 72,5 [B3512B56] [7D20AC9D]
02 89,4 [722455B1] [B7DDA9E6]
03 79,7 [A0249C70] [02E1979F]
04 67,8 [417E069F] [5522C480]
05 81,5 [4FE3E59B] [235746DA]
06 74,1 [7BC8DD46] [72747969]
07 83,4 [BF371EE5] [E503803A]
08 87,9 [39815DAE] [A61FF90F]
09 79,1 [270FAB94] [70866FA3]
10 74,8 [88EC8C3C] [82ACB50A]

David Bowie - Scary Monsters (And Super Creeps) (1980) {1984, Germany 1st Press} Repost

All thanks go to Suisse7

>>> David Bowie in my Blog <<<

Download from icerbox.com: