Subcategories

David Bowie - The Rise and Fall of Ziggy Stardust and the Spiders From Mars (1972) [EMI TOCP-95044, Japan] Repost

Posted By: v3122
David Bowie - The Rise and Fall of Ziggy Stardust and the Spiders From Mars (1972) [EMI TOCP-95044, Japan] Repost

David Bowie - The Rise and Fall of Ziggy Stardust and the Spiders From Mars (1972)
EAC | Flac(Image) + Cue + Log & MP3 CBR 320Kbps
2009 | EMI TOCP-95044 | ~ 243 or 93 Mb | Scans(jpg) -> 12 Mb
Rock, Experimental, Glam

Borrowing heavily from Marc Bolan's glam rock and the future shock of A Clockwork Orange, David Bowie reached back to the heavy rock of The Man Who Sold the World for The Rise and Fall of Ziggy Stardust and the Spiders from Mars. Constructed as a loose concept album about an androgynous alien rock star named Ziggy Stardust, the story falls apart quickly, yet Bowie's fractured, paranoid lyrics are evocative of a decadent, decaying future, and the music echoes an apocalyptic, nuclear dread. Fleshing out the off-kilter metallic mix with fatter guitars, genuine pop songs, string sections, keyboards, and a cinematic flourish, Ziggy Stardust is a glitzy array of riffs, hooks, melodrama, and style and the logical culmination of glam. Mick Ronson plays with a maverick flair that invigorates rockers like "Suffragette City," "Moonage Daydream," and "Hang Onto Yourself," while "Lady Stardust," "Five Years," and "Rock 'n' Roll Suicide" have a grand sense of staged drama previously unheard of in rock & roll. And that self-conscious sense of theater is part of the reason why Ziggy Stardust sounds so foreign. Bowie succeeds not in spite of his pretensions but because of them, and Ziggy Stardust – familiar in structure, but alien in performance – is the first time his vision and execution met in such a grand, sweeping fashion.

by Stephen Thomas Erlewine, allmusic
David Bowie - The Rise and Fall of Ziggy Stardust and the Spiders From Mars (1972):

David Bowie - The Rise and Fall of Ziggy Stardust and the Spiders From Mars (1972) [EMI TOCP-95044, Japan] Repost

Tracklist:

01. David Bowie / Five Years
02. David Bowie / Soul Love
03. David Bowie / Moonage Daydream
04. David Bowie / Starman
05. David Bowie / It Ain't Easy
06. David Bowie / Lady Stardust
07. David Bowie / Star
08. David Bowie / Hang On To Yourself
09. David Bowie / Ziggy Stardust
10. David Bowie / Suffragette City
11. David Bowie / Rock 'N' Roll Suicide

Converted to Image (CUETools 2.1.4)

X Lossless Decoder version 20100302 (116.6)

XLD extraction logfile from 2010-03-10 18:53:23 +0500

David Bowie / The Rise and Fall of Ziggy Stardust and the Spiders From Mars

Used drive : OPTIARC DVD RW AD-5670S (revision 2AHH)

Use cdparanoia mode : YES (CDParanoia III 10.2 engine)
Disable audio cache : OK for the drive with cache less than 2750KB
Make use of C2 pointers : NO
Read offset correction : 48
Max retry count : 100

TOC of the extracted CD
Track | Start | Length | Start sector | End sector
––––––––––––––––––––––––––––-
1 | 00:00:00 | 04:43:07 | 0 | 21231
2 | 04:43:07 | 03:33:53 | 21232 | 37259
3 | 08:16:60 | 04:39:62 | 37260 | 58246
4 | 12:56:47 | 04:13:43 | 58247 | 77264
5 | 17:10:15 | 02:57:10 | 77265 | 90549
6 | 20:07:25 | 03:21:07 | 90550 | 105631
7 | 23:28:32 | 02:46:73 | 105632 | 118154
8 | 26:15:30 | 02:38:32 | 118155 | 130036
9 | 28:53:62 | 03:13:23 | 130037 | 144534
10 | 32:07:10 | 03:25:27 | 144535 | 159936
11 | 35:32:37 | 02:58:45 | 159937 | 173331

List of alternate offset correction values
# | Absolute | Relative | Confidence
–––––––––––––––––––––
1 | 33 | -15 | 83
2 | 694 | 646 | 11

Track 01
Filename : /Users/gubarenko/Desktop/David Bowie - The Rise and Fall of Ziggy Stardust and the Spiders From Mars/01 - Five Years.flac

Pre-gap length : 00:02:00

CRC32 hash (test run) : 44C9F841
CRC32 hash : 44C9F841
CRC32 hash (skip zero) : FFAD0EC9
AccurateRip signature : A63B95BA
->Accurately ripped! (confidence 80)
(matched with the different offset correction value;
calculated using an additional offset of -15;
the signature after correction is: 5C7C9BDF)
Statistics
Read error : 0
Skipped (treated as error) : 0
Edge jitter error (maybe fixed) : 0
Atom jitter error (maybe fixed) : 0
Drift error (maybe fixed) : 0
Dropped bytes error (maybe fixed) : 0
Duplicated bytes error (maybe fixed) : 0
Inconsistency in error sectors : 0

Track 02
Filename : /Users/gubarenko/Desktop/David Bowie - The Rise and Fall of Ziggy Stardust and the Spiders From Mars/02 - Soul Love.flac

CRC32 hash (test run) : A938CB1B
CRC32 hash : A938CB1B
CRC32 hash (skip zero) : C127927D
AccurateRip signature : E137E39C
->Accurately ripped! (confidence 81)
(matched with the different offset correction value;
calculated using an additional offset of -15;
the signature after correction is: 980E7CDC)
Statistics
Read error : 0
Skipped (treated as error) : 0
Edge jitter error (maybe fixed) : 0
Atom jitter error (maybe fixed) : 0
Drift error (maybe fixed) : 0
Dropped bytes error (maybe fixed) : 0
Duplicated bytes error (maybe fixed) : 0
Inconsistency in error sectors : 0

Track 03
Filename : /Users/gubarenko/Desktop/David Bowie - The Rise and Fall of Ziggy Stardust and the Spiders From Mars/03 - Moonage Daydream.flac

CRC32 hash (test run) : A4E7AE11
CRC32 hash : A4E7AE11
CRC32 hash (skip zero) : DC17D7A2
AccurateRip signature : 6458FF87
->Accurately ripped! (confidence 80)
(matched with the different offset correction value;
calculated using an additional offset of -15;
the signature after correction is: 4C0B879E)
Statistics
Read error : 0
Skipped (treated as error) : 0
Edge jitter error (maybe fixed) : 8
Atom jitter error (maybe fixed) : 0
Drift error (maybe fixed) : 0
Dropped bytes error (maybe fixed) : 0
Duplicated bytes error (maybe fixed) : 0
Inconsistency in error sectors : 1
List of suspicious positions :
(1) 01:35:32

Track 04
Filename : /Users/gubarenko/Desktop/David Bowie - The Rise and Fall of Ziggy Stardust and the Spiders From Mars/04 - Starman.flac

CRC32 hash (test run) : 9482735D
CRC32 hash : 9482735D
CRC32 hash (skip zero) : B1BC67C8
AccurateRip signature : 057A2C64
->Accurately ripped! (confidence 80)
(matched with the different offset correction value;
calculated using an additional offset of -15;
the signature after correction is: CFCA19ED)
Statistics
Read error : 0
Skipped (treated as error) : 0
Edge jitter error (maybe fixed) : 0
Atom jitter error (maybe fixed) : 0
Drift error (maybe fixed) : 0
Dropped bytes error (maybe fixed) : 0
Duplicated bytes error (maybe fixed) : 0
Inconsistency in error sectors : 0

Track 05
Filename : /Users/gubarenko/Desktop/David Bowie - The Rise and Fall of Ziggy Stardust and the Spiders From Mars/05 - It Ain't Easy.flac

CRC32 hash (test run) : 3AB71AB7
CRC32 hash : 3AB71AB7
CRC32 hash (skip zero) : CD6C01D3
AccurateRip signature : 3FDD8AD4
->Accurately ripped! (confidence 82)
(matched with the different offset correction value;
calculated using an additional offset of -15;
the signature after correction is: F8FD2CDF)
Statistics
Read error : 0
Skipped (treated as error) : 0
Edge jitter error (maybe fixed) : 1
Atom jitter error (maybe fixed) : 0
Drift error (maybe fixed) : 0
Dropped bytes error (maybe fixed) : 1
Duplicated bytes error (maybe fixed) : 0
Inconsistency in error sectors : 0

Track 06
Filename : /Users/gubarenko/Desktop/David Bowie - The Rise and Fall of Ziggy Stardust and the Spiders From Mars/06 - Lady Stardust.flac

CRC32 hash (test run) : A06D30F9
CRC32 hash : A06D30F9
CRC32 hash (skip zero) : 696071FD
AccurateRip signature : 7948BCBC
->Accurately ripped! (confidence 80)
(matched with the different offset correction value;
calculated using an additional offset of -15;
the signature after correction is: B9F5290A)
Statistics
Read error : 0
Skipped (treated as error) : 0
Edge jitter error (maybe fixed) : 1
Atom jitter error (maybe fixed) : 1
Drift error (maybe fixed) : 0
Dropped bytes error (maybe fixed) : 0
Duplicated bytes error (maybe fixed) : 0
Inconsistency in error sectors : 0

Track 07
Filename : /Users/gubarenko/Desktop/David Bowie - The Rise and Fall of Ziggy Stardust and the Spiders From Mars/07 - Star.flac

Pre-gap length : 00:00:22

CRC32 hash (test run) : E039A610
CRC32 hash : E039A610
CRC32 hash (skip zero) : 019C1FF8
AccurateRip signature : 22332992
->Accurately ripped! (confidence 82)
(matched with the different offset correction value;
calculated using an additional offset of -15;
the signature after correction is: 8BA101E5)
Statistics
Read error : 0
Skipped (treated as error) : 0
Edge jitter error (maybe fixed) : 0
Atom jitter error (maybe fixed) : 0
Drift error (maybe fixed) : 0
Dropped bytes error (maybe fixed) : 0
Duplicated bytes error (maybe fixed) : 0
Inconsistency in error sectors : 0

Track 08
Filename : /Users/gubarenko/Desktop/David Bowie - The Rise and Fall of Ziggy Stardust and the Spiders From Mars/08 - Hang on to Yourself.flac

CRC32 hash (test run) : 46C84B14
CRC32 hash : 46C84B14
CRC32 hash (skip zero) : 83F48C63
AccurateRip signature : 6D1845D0
->Accurately ripped! (confidence 82)
(matched with the different offset correction value;
calculated using an additional offset of -15;
the signature after correction is: 0D5ECC79)
Statistics
Read error : 0
Skipped (treated as error) : 0
Edge jitter error (maybe fixed) : 1
Atom jitter error (maybe fixed) : 0
Drift error (maybe fixed) : 0
Dropped bytes error (maybe fixed) : 1
Duplicated bytes error (maybe fixed) : 0
Inconsistency in error sectors : 0

Track 09
Filename : /Users/gubarenko/Desktop/David Bowie - The Rise and Fall of Ziggy Stardust and the Spiders From Mars/09 - Ziggy Stardust.flac

CRC32 hash (test run) : D415D6B6
CRC32 hash : D415D6B6
CRC32 hash (skip zero) : AB72402C
AccurateRip signature : 2D64583C
->Accurately ripped! (confidence 83)
(matched with the different offset correction value;
calculated using an additional offset of -15;
the signature after correction is: 26685E2A)
Statistics
Read error : 0
Skipped (treated as error) : 0
Edge jitter error (maybe fixed) : 1
Atom jitter error (maybe fixed) : 0
Drift error (maybe fixed) : 0
Dropped bytes error (maybe fixed) : 1
Duplicated bytes error (maybe fixed) : 0
Inconsistency in error sectors : 0

Track 10
Filename : /Users/gubarenko/Desktop/David Bowie - The Rise and Fall of Ziggy Stardust and the Spiders From Mars/10 - Suffragette City.flac

CRC32 hash (test run) : 1B05C8B4
CRC32 hash : 1B05C8B4
CRC32 hash (skip zero) : CDFE3806
AccurateRip signature : 508879B2
->Accurately ripped! (confidence 83)
(matched with the different offset correction value;
calculated using an additional offset of -15;
the signature after correction is: A559D903)
Statistics
Read error : 0
Skipped (treated as error) : 0
Edge jitter error (maybe fixed) : 0
Atom jitter error (maybe fixed) : 0
Drift error (maybe fixed) : 0
Dropped bytes error (maybe fixed) : 0
Duplicated bytes error (maybe fixed) : 0
Inconsistency in error sectors : 0

Track 11
Filename : /Users/gubarenko/Desktop/David Bowie - The Rise and Fall of Ziggy Stardust and the Spiders From Mars/11 - Rock 'n' Roll Suicide.flac

CRC32 hash (test run) : FAE5DEBB
CRC32 hash : FAE5DEBB
CRC32 hash (skip zero) : 9C3777A6
AccurateRip signature : FA8EEC43
->Accurately ripped! (confidence 82)
(matched with the different offset correction value;
calculated using an additional offset of -15;
the signature after correction is: 856F1859)
Statistics
Read error : 0
Skipped (treated as error) : 0
Edge jitter error (maybe fixed) : 0
Atom jitter error (maybe fixed) : 0
Drift error (maybe fixed) : 0
Dropped bytes error (maybe fixed) : 0
Duplicated bytes error (maybe fixed) : 0
Inconsistency in error sectors : 0

Some inconsistencies found

End of status report


[CUETools log; Date: 05.06.2018 11:41:21; Version: 2.1.5]
[AccurateRip ID: 00110816-00904b70-9709070b] found.
Track [ CRC | V2 ] Status
01 [a63b95ba|7440e332] (005+002/284) Accurately ripped
02 [e137e39c|4a6c1ed4] (005+002/286) Accurately ripped
03 [6458ff87|4cca839f] (005+002/284) Accurately ripped
04 [057a2c64|8a6ded8c] (005+002/285) Accurately ripped
05 [3fdd8ad4|05938d85] (005+002/286) Accurately ripped
06 [7948bcbc|2d48fda8] (005+002/283) Accurately ripped
07 [22332992|59be1097] (005+002/286) Accurately ripped
08 [6d1845d0|2db1f07d] (005+002/286) Accurately ripped
09 [2d64583c|31dca26e] (005+002/286) Accurately ripped
10 [508879b2|6ed9ee5d] (005+002/285) Accurately ripped
11 [fa8eec43|2a12c4b5] (005+002/286) Accurately ripped
Offsetted by -15:
01 [5c7c9bdf] (124/284) Accurately ripped
02 [980e7cdc] (125/286) Accurately ripped
03 [4c0b879e] (124/284) Accurately ripped
04 [cfca19ed] (124/285) Accurately ripped
05 [f8fd2cdf] (126/286) Accurately ripped
06 [b9f5290a] (124/283) Accurately ripped
07 [8ba101e5] (126/286) Accurately ripped
08 [0d5ecc79] (126/286) Accurately ripped
09 [26685e2a] (127/286) Accurately ripped
10 [a559d903] (127/285) Accurately ripped
11 [856f1859] (127/286) Accurately ripped
Offsetted by 646:
01 [fdd70c52] (018/284) Accurately ripped
02 [8d470f44] (018/286) Accurately ripped
03 [1c771a0a] (018/284) Accurately ripped
04 [70980cfb] (018/285) Accurately ripped
05 [0a24d0b6] (018/286) Accurately ripped
06 [ba24ead0] (018/283) Accurately ripped
07 [98ebb424] (018/286) Accurately ripped
08 [ff18d1a6] (018/286) Accurately ripped
09 [28428560] (016/286) Accurately ripped
10 [fa31a0dd] (016/285) Accurately ripped
11 [dcca9e9a] (016/286) Accurately ripped

Track Peak [ CRC32 ] [W/O NULL]
– 100,0 [3D8C58F6] [9F331B7D]
01 98,5 [44C9F841] [FFAD0EC9]
02 99,2 [A938CB1B] [C127927D]
03 99,2 [A4E7AE11] [DC17D7A2]
04 97,6 [9482735D] [B1BC67C8]
05 98,7 [3AB71AB7] [CD6C01D3]
06 99,3 [A06D30F9] [696071FD]
07 98,3 [E039A610] [019C1FF8]
08 99,9 [46C84B14] [83F48C63]
09 100,0 [D415D6B6] [AB72402C]
10 100,0 [1B05C8B4] [CDFE3806]
11 98,6 [FAE5DEBB] [9C3777A6]


David Bowie - The Rise and Fall of Ziggy Stardust and the Spiders From Mars (1972) [EMI TOCP-95044, Japan] Repost

All thanks go to mgubarenko

David Bowie or David Bowie in my Blog

Download David Bowie - The Rise and Fall of Ziggy Stardust and the Spiders From Mars (1972):