Tags
Language
Tags

David Bowie - Transmission Impossible: Legendary Radio Broadcasts From The 1970s - 1990s (2018) {3CD Box Set}

Posted By: popsakov
David Bowie - Transmission Impossible: Legendary Radio Broadcasts From The 1970s - 1990s (2018) {3CD Box Set}

David Bowie - Transmission Impossible: Legendary Radio Broadcasts From The 1970s - 1990s (2018) {3CD Box Set}
EAC Rip | FLAC (Tracks) + Cue + m3u + Log ~ 1,15 Gb | MP3 CBR320 ~ 583 Mb
Scans Included | RAR 5% Recovery
Art Rock / Glam Rock / Alternative Rock / Classic Rock
Eat To The Beat #ETTB091 | Unofficial Release

Classic late period Bowie television broadcasts. David Bowie's output from the late 1980's and 1990's has been reassessed in all the right quarters since the great man's tragic passing in 2016, and has rightfully now been awarded plaudits often denied the releases and concerts from this era at the time they took place. This triple disc set goes some way to contributing to this effort by bringing together broadcast recordings form 1990 and 1992. The first of these was recorded at Bowie's gig in Buenos Aires in August of 90, while the second is from Tin Machine's legendary tour of Japan in the early part of 92, with the show presented here being the group's performance at the Nippon Budokan in Tokyo on 17th February. The set is completed with a disc of television appearances recorded between 1975 and 1995, which features some of Bowie's best ever live TV spots.

***************

Track List CD1 - Buenos Aires, Argentina 1990:

01. David Bowie – Space Oddity (05:27)
02. David Bowie – Life On Mars? (03:39)
03. David Bowie – Rebel Rebel (03:14)
04. David Bowie – Ashes To Ashes (05:13)
05. David Bowie – Stay (06:41)
06. David Bowie – Pretty Pink Rose (04:46)
07. David Bowie – Blue Jean (03:07)
08. David Bowie – Let's Dance (04:34)
09. David Bowie – Sound And Vision (03:25)
10. David Bowie – Ziggy Stardust (03:42)
11. David Bowie – China Girl (05:36)
12. David Bowie – Suffragette City (02:55)
13. David Bowie – Fame (05:52)
14. David Bowie – "Heroes" (04:27)
15. David Bowie – Modern Love (04:52)

From a live FM broadcast recorded at the Derby Rock Festival, Estadio River Plate, Buenos Aires, Argentina, 29th September 1990.

Exact Audio Copy V1.3 from 2. September 2016

EAC extraction logfile from 12. January 2019, 9:32

David Bowie / Transmission Impossible

Used drive : SONY DVD RW AD-7280S Adapter: 1 ID: 1

Read mode : Secure
Utilize accurate stream : Yes
Defeat audio cache : Yes
Make use of C2 pointers : No

Read offset correction : 48
Overread into Lead-In and Lead-Out : No
Fill up missing offset samples with silence : Yes
Delete leading and trailing silent blocks : No
Null samples used in CRC calculations : Yes
Used interface : Native Win32 interface for Win NT & 2000
Gap handling : Appended to previous track

Used output format : User Defined Encoder
Selected bitrate : 768 kBit/s
Quality : High
Add ID3 tag : No
Command line compressor : C:\Program Files (x86)\Exact Audio Copy\FLAC\FLAC.EXE
Additional command line options : -8 -e -p -V -T "ARTIST=%artist%" -T "TITLE=%title%" -T "ALBUM=%albumtitle%" -T "DATE=%year%" -T "TRACKNUMBER=%tracknr%" -T "GENRE=%genre%" -T "PERFORMER=%albuminterpret%" -T "COMPOSER=%composer%" %haslyrics%–tag-from-file=LYRICS="%lyricsfile%"%haslyrics% -T "ALBUMARTIST=%albumartist%" -T "DISCNUMBER=%cdnumber%" -T "TOTALDISCS=%totalcds%" -T "TOTALTRACKS=%numtracks%" -T "COMMENT=%comment%" %source% -o %dest%


TOC of the extracted CD

Track | Start | Length | Start sector | End sector
––––––––––––––––––––––––––––-
1 | 0:00.00 | 5:27.63 | 0 | 24587
2 | 5:27.63 | 3:39.00 | 24588 | 41012
3 | 9:06.63 | 3:14.16 | 41013 | 55578
4 | 12:21.04 | 5:13.12 | 55579 | 79065
5 | 17:34.16 | 6:41.16 | 79066 | 109156
6 | 24:15.32 | 4:56.19 | 109157 | 131375
7 | 29:11.51 | 3:07.23 | 131376 | 145423
8 | 32:18.74 | 4:34.24 | 145424 | 165997
9 | 36:53.23 | 3:25.13 | 165998 | 181385
10 | 40:18.36 | 3:42.34 | 181386 | 198069
11 | 44:00.70 | 5:35.48 | 198070 | 223242
12 | 49:36.43 | 2:55.03 | 223243 | 236370
13 | 52:31.46 | 5:52.35 | 236371 | 262805
14 | 58:24.06 | 4:27.23 | 262806 | 282853
15 | 62:51.29 | 4:53.46 | 282854 | 304874


Track 1

Filename G:\__New\_EAC rips\David Bowie - Transmission Impossible [boot] (2018) 3cd flac\CD1 Buenos Aires, Argentina 1990\01 - Space Oddity.wav

Pre-gap length 0:00:02.00

Peak level 76.5 %
Extraction speed 2.5 X
Track quality 100.0 %
Test CRC 4C8AAF9E
Copy CRC 4C8AAF9E
Track not present in AccurateRip database
Copy OK

Track 2

Filename G:\__New\_EAC rips\David Bowie - Transmission Impossible [boot] (2018) 3cd flac\CD1 Buenos Aires, Argentina 1990\02 - Life On Mars.wav

Peak level 69.2 %
Extraction speed 2.6 X
Track quality 100.0 %
Test CRC C1EF9C02
Copy CRC C1EF9C02
Track not present in AccurateRip database
Copy OK

Track 3

Filename G:\__New\_EAC rips\David Bowie - Transmission Impossible [boot] (2018) 3cd flac\CD1 Buenos Aires, Argentina 1990\03 - Rebel Rebel.wav

Peak level 68.9 %
Extraction speed 2.4 X
Track quality 99.9 %
Test CRC 7AA3A547
Copy CRC 7AA3A547
Track not present in AccurateRip database
Copy OK

Track 4

Filename G:\__New\_EAC rips\David Bowie - Transmission Impossible [boot] (2018) 3cd flac\CD1 Buenos Aires, Argentina 1990\04 - Ashes To Ashes.wav

Peak level 73.5 %
Extraction speed 3.1 X
Track quality 100.0 %
Test CRC F8F8D166
Copy CRC F8F8D166
Track not present in AccurateRip database
Copy OK

Track 5

Filename G:\__New\_EAC rips\David Bowie - Transmission Impossible [boot] (2018) 3cd flac\CD1 Buenos Aires, Argentina 1990\05 - Stay.wav

Peak level 82.6 %
Extraction speed 3.5 X
Track quality 100.0 %
Test CRC B7E0E24F
Copy CRC B7E0E24F
Track not present in AccurateRip database
Copy OK

Track 6

Filename G:\__New\_EAC rips\David Bowie - Transmission Impossible [boot] (2018) 3cd flac\CD1 Buenos Aires, Argentina 1990\06 - Pretty Pink Rose.wav

Peak level 75.8 %
Extraction speed 3.7 X
Track quality 100.0 %
Test CRC 49D6FDF8
Copy CRC 49D6FDF8
Track not present in AccurateRip database
Copy OK

Track 7

Filename G:\__New\_EAC rips\David Bowie - Transmission Impossible [boot] (2018) 3cd flac\CD1 Buenos Aires, Argentina 1990\07 - Blue Jean.wav

Peak level 76.9 %
Extraction speed 3.6 X
Track quality 100.0 %
Test CRC FA5FD6E1
Copy CRC FA5FD6E1
Track not present in AccurateRip database
Copy OK

Track 8

Filename G:\__New\_EAC rips\David Bowie - Transmission Impossible [boot] (2018) 3cd flac\CD1 Buenos Aires, Argentina 1990\08 - Let's Dance.wav

Peak level 78.6 %
Extraction speed 4.0 X
Track quality 100.0 %
Test CRC 649FEC37
Copy CRC 649FEC37
Track not present in AccurateRip database
Copy OK

Track 9

Filename G:\__New\_EAC rips\David Bowie - Transmission Impossible [boot] (2018) 3cd flac\CD1 Buenos Aires, Argentina 1990\09 - Sound And Vision.wav

Peak level 90.8 %
Extraction speed 3.5 X
Track quality 99.9 %
Test CRC EAAA38D0
Copy CRC EAAA38D0
Track not present in AccurateRip database
Copy OK

Track 10

Filename G:\__New\_EAC rips\David Bowie - Transmission Impossible [boot] (2018) 3cd flac\CD1 Buenos Aires, Argentina 1990\10 - Ziggy Stardust.wav

Peak level 74.2 %
Extraction speed 3.6 X
Track quality 99.9 %
Test CRC E6691F0C
Copy CRC E6691F0C
Track not present in AccurateRip database
Copy OK

Track 11

Filename G:\__New\_EAC rips\David Bowie - Transmission Impossible [boot] (2018) 3cd flac\CD1 Buenos Aires, Argentina 1990\11 - China Girl.wav

Peak level 99.1 %
Extraction speed 4.1 X
Track quality 99.9 %
Test CRC 8957F32D
Copy CRC 8957F32D
Track not present in AccurateRip database
Copy OK

Track 12

Filename G:\__New\_EAC rips\David Bowie - Transmission Impossible [boot] (2018) 3cd flac\CD1 Buenos Aires, Argentina 1990\12 - Suffragette City.wav

Peak level 88.9 %
Extraction speed 4.2 X
Track quality 100.0 %
Test CRC 29281BFD
Copy CRC 29281BFD
Track not present in AccurateRip database
Copy OK

Track 13

Filename G:\__New\_EAC rips\David Bowie - Transmission Impossible [boot] (2018) 3cd flac\CD1 Buenos Aires, Argentina 1990\13 - Fame.wav

Peak level 79.6 %
Extraction speed 4.8 X
Track quality 100.0 %
Test CRC 93B44338
Copy CRC 93B44338
Track not present in AccurateRip database
Copy OK

Track 14

Filename G:\__New\_EAC rips\David Bowie - Transmission Impossible [boot] (2018) 3cd flac\CD1 Buenos Aires, Argentina 1990\14 - Heroes.wav

Peak level 100.0 %
Extraction speed 4.8 X
Track quality 100.0 %
Test CRC C88599F1
Copy CRC C88599F1
Track not present in AccurateRip database
Copy OK

Track 15

Filename G:\__New\_EAC rips\David Bowie - Transmission Impossible [boot] (2018) 3cd flac\CD1 Buenos Aires, Argentina 1990\15 - Modern Love.wav

Peak level 75.6 %
Extraction speed 5.0 X
Track quality 100.0 %
Test CRC 8C4F1E31
Copy CRC 8C4F1E31
Track not present in AccurateRip database
Copy OK


None of the tracks are present in the AccurateRip database

No errors occurred

End of status report

–– CUETools DB Plugin V2.1.6

[CTDB TOCID: EGwaOfPIEuliKPXYZFrBDoNbFHM-] found
Submit result: EGwaOfPIEuliKPXYZFrBDoNbFHM- has been confirmed
Track | CTDB Status
1 | (9/9) Accurately ripped
2 | (9/9) Accurately ripped
3 | (9/9) Accurately ripped
4 | (9/9) Accurately ripped
5 | (9/9) Accurately ripped
6 | (9/9) Accurately ripped
7 | (9/9) Accurately ripped
8 | (9/9) Accurately ripped
9 | (9/9) Accurately ripped
10 | (9/9) Accurately ripped
11 | (9/9) Accurately ripped
12 | (9/9) Accurately ripped
13 | (9/9) Accurately ripped
14 | (9/9) Accurately ripped
15 | (9/9) Accurately ripped


==== Log checksum CF28DF67C554618CBA3A4084B6EB0A1795737CBFB94D88FFC1E7646DBEA048E1 ====

Track List CD2 - Various TV Shows 1975-95:

01. David Bowie & Cher – Young Americans Medley (06:32)
02. David Bowie – Fame (03:26)
03. David Bowie & Cher – Can You Hear Me (04:13)
04. David Bowie – Stay (05:02)
05. David Bowie – Five Years (04:55)
06. David Bowie – "Heroes" (03:25)
07. David Bowie & Iggy Pop – Funtime (03:00)
08. David Bowie & Iggy Pop – Sister Midnight (04:03)
09. David Bowie – Beauty And The Beast (04:48)
10. David Bowie – The Jean Genie (06:19)
11. David Bowie – Alabama Song (04:01)
12. David Bowie, Klaus Nomi & Joey Arias – The Man Who Sold The World (03:02)
13. David Bowie, Klaus Nomi & Joey Arias – Boys Keep Swinging (02:18)
14. David Bowie, Klaus Nomi & Joey Arias – TVC 15 (03:16)
15. David Bowie – Life On Mars? (04:04)
16. David Bowie – Ashes To Ashes (03:39)
17. David Bowie – Nite Flights (04:16)
18. David Bowie – Black Tie White Noise (04:48)
19. David Bowie – Strangers When We Meet (03:38)
20. David Bowie – The Heart's Filthy Lesson (03:44)

Tracks 1-3: The Cher Show, 1975. Tracks 4-5: The Dinah Shore Show, 1976. Track 6: TopPop, Netherlands, 1977. Tracks 7-8: The Dinah Shore Show, 1977. Tracks 9-11: Musikladen, Germany, 1978. Tracks 12-14: Saturday Night Live, 1979. Tracks 15-16: The Tonight Show, 1980. Tracks 17-18: The Tonight Show, 1993. Track 19: The Tonight Show, 1995. Track 20: Letterman, 1995.

Exact Audio Copy V1.3 from 2. September 2016

EAC extraction logfile from 12. January 2019, 10:39

David Bowie / Transmission Impossible

Used drive : SONY DVD RW AD-7280S Adapter: 1 ID: 1

Read mode : Secure
Utilize accurate stream : Yes
Defeat audio cache : Yes
Make use of C2 pointers : No

Read offset correction : 48
Overread into Lead-In and Lead-Out : No
Fill up missing offset samples with silence : Yes
Delete leading and trailing silent blocks : No
Null samples used in CRC calculations : Yes
Used interface : Native Win32 interface for Win NT & 2000
Gap handling : Appended to previous track

Used output format : User Defined Encoder
Selected bitrate : 768 kBit/s
Quality : High
Add ID3 tag : No
Command line compressor : C:\Program Files (x86)\Exact Audio Copy\FLAC\FLAC.EXE
Additional command line options : -8 -e -p -V -T "ARTIST=%artist%" -T "TITLE=%title%" -T "ALBUM=%albumtitle%" -T "DATE=%year%" -T "TRACKNUMBER=%tracknr%" -T "GENRE=%genre%" -T "PERFORMER=%albuminterpret%" -T "COMPOSER=%composer%" %haslyrics%–tag-from-file=LYRICS="%lyricsfile%"%haslyrics% -T "ALBUMARTIST=%albumartist%" -T "DISCNUMBER=%cdnumber%" -T "TOTALDISCS=%totalcds%" -T "TOTALTRACKS=%numtracks%" -T "COMMENT=%comment%" %source% -o %dest%


TOC of the extracted CD

Track | Start | Length | Start sector | End sector
––––––––––––––––––––––––––––-
1 | 0:00.00 | 6:32.47 | 0 | 29446
2 | 6:32.47 | 3:26.19 | 29447 | 44915
3 | 9:58.66 | 4:13.36 | 44916 | 63926
4 | 14:12.27 | 5:01.73 | 63927 | 86574
5 | 19:14.25 | 4:54.41 | 86575 | 108665
6 | 24:08.66 | 3:25.33 | 108666 | 124073
7 | 27:34.24 | 3:00.15 | 124074 | 137588
8 | 30:34.39 | 4:02.69 | 137589 | 155807
9 | 34:37.33 | 4:47.56 | 155808 | 177388
10 | 39:25.14 | 6:18.51 | 177389 | 205789
11 | 45:43.65 | 4:01.23 | 205790 | 223887
12 | 49:45.13 | 3:02.15 | 223888 | 237552
13 | 52:47.28 | 2:17.74 | 237553 | 247901
14 | 55:05.27 | 3:15.60 | 247902 | 262586
15 | 58:21.12 | 4:03.73 | 262587 | 280884
16 | 62:25.10 | 3:39.00 | 280885 | 297309
17 | 66:04.10 | 4:15.52 | 297310 | 316486
18 | 70:19.62 | 4:48.08 | 316487 | 338094
19 | 75:07.70 | 3:38.18 | 338095 | 354462
20 | 78:46.13 | 3:45.62 | 354463 | 371399


Track 1

Filename G:\__New\_EAC rips\David Bowie - Transmission Impossible [boot] (2018) 3cd flac\CD2 Various TV Shows 1975-95\01 - Young American Medley (With Cher).wav

Pre-gap length 0:00:02.00

Peak level 98.8 %
Extraction speed 2.8 X
Track quality 100.0 %
Test CRC 904B4282
Copy CRC 904B4282
Accurately ripped (confidence 5) [DC04E108] (AR v2)
Copy OK

Track 2

Filename G:\__New\_EAC rips\David Bowie - Transmission Impossible [boot] (2018) 3cd flac\CD2 Various TV Shows 1975-95\02 - Fame.wav

Peak level 98.8 %
Extraction speed 2.9 X
Track quality 100.0 %
Test CRC C9579683
Copy CRC C9579683
Accurately ripped (confidence 5) [BDD6F956] (AR v2)
Copy OK

Track 3

Filename G:\__New\_EAC rips\David Bowie - Transmission Impossible [boot] (2018) 3cd flac\CD2 Various TV Shows 1975-95\03 - Can You Hear Me (With Cher).wav

Peak level 98.8 %
Extraction speed 3.2 X
Track quality 100.0 %
Test CRC C164EB11
Copy CRC C164EB11
Accurately ripped (confidence 5) [087D8B45] (AR v2)
Copy OK

Track 4

Filename G:\__New\_EAC rips\David Bowie - Transmission Impossible [boot] (2018) 3cd flac\CD2 Various TV Shows 1975-95\04 - Stay.wav

Peak level 98.8 %
Extraction speed 3.5 X
Track quality 100.0 %
Test CRC 9F7A366E
Copy CRC 9F7A366E
Accurately ripped (confidence 5) [9A3C28EA] (AR v2)
Copy OK

Track 5

Filename G:\__New\_EAC rips\David Bowie - Transmission Impossible [boot] (2018) 3cd flac\CD2 Various TV Shows 1975-95\05 - Five Years.wav

Peak level 98.8 %
Extraction speed 3.7 X
Track quality 100.0 %
Test CRC 183C4667
Copy CRC 183C4667
Accurately ripped (confidence 5) [E6DF276C] (AR v2)
Copy OK

Track 6

Filename G:\__New\_EAC rips\David Bowie - Transmission Impossible [boot] (2018) 3cd flac\CD2 Various TV Shows 1975-95\06 - Heroes.wav

Peak level 98.8 %
Extraction speed 3.7 X
Track quality 100.0 %
Test CRC 62D0AE31
Copy CRC 62D0AE31
Accurately ripped (confidence 5) [30B45A3C] (AR v2)
Copy OK

Track 7

Filename G:\__New\_EAC rips\David Bowie - Transmission Impossible [boot] (2018) 3cd flac\CD2 Various TV Shows 1975-95\07 - Funtime (With Iggy Pop).wav

Peak level 98.8 %
Extraction speed 3.7 X
Track quality 100.0 %
Test CRC 742283A1
Copy CRC 742283A1
Accurately ripped (confidence 5) [DCA9E395] (AR v2)
Copy OK

Track 8

Filename G:\__New\_EAC rips\David Bowie - Transmission Impossible [boot] (2018) 3cd flac\CD2 Various TV Shows 1975-95\08 - Sister Midnight (With Iggy Pop).wav

Peak level 98.8 %
Extraction speed 4.0 X
Track quality 100.0 %
Test CRC 7EC091C4
Copy CRC 7EC091C4
Accurately ripped (confidence 5) [30AA49BD] (AR v2)
Copy OK

Track 9

Filename G:\__New\_EAC rips\David Bowie - Transmission Impossible [boot] (2018) 3cd flac\CD2 Various TV Shows 1975-95\09 - Beauty And The Beast.wav

Peak level 99.5 %
Extraction speed 4.3 X
Track quality 100.0 %
Test CRC 2206065A
Copy CRC 2206065A
Accurately ripped (confidence 5) [8D3FBFFD] (AR v2)
Copy OK

Track 10

Filename G:\__New\_EAC rips\David Bowie - Transmission Impossible [boot] (2018) 3cd flac\CD2 Various TV Shows 1975-95\10 - The Jean Genie.wav

Peak level 100.0 %
Extraction speed 4.6 X
Track quality 100.0 %
Test CRC CC50EAFA
Copy CRC CC50EAFA
Accurately ripped (confidence 5) [63A5D31C] (AR v2)
Copy OK

Track 11

Filename G:\__New\_EAC rips\David Bowie - Transmission Impossible [boot] (2018) 3cd flac\CD2 Various TV Shows 1975-95\11 - Alabama Song.wav

Peak level 100.0 %
Extraction speed 4.5 X
Track quality 100.0 %
Test CRC 6D17FEE3
Copy CRC 6D17FEE3
Accurately ripped (confidence 5) [A549EDA8] (AR v2)
Copy OK

Track 12

Filename G:\__New\_EAC rips\David Bowie - Transmission Impossible [boot] (2018) 3cd flac\CD2 Various TV Shows 1975-95\12 - The Man Who Sold The World.wav

Peak level 98.8 %
Extraction speed 4.5 X
Track quality 100.0 %
Test CRC 5F8BD6D0
Copy CRC 5F8BD6D0
Accurately ripped (confidence 5) [B138C296] (AR v2)
Copy OK

Track 13

Filename G:\__New\_EAC rips\David Bowie - Transmission Impossible [boot] (2018) 3cd flac\CD2 Various TV Shows 1975-95\13 - Boys Keep Swinging.wav

Peak level 84.8 %
Extraction speed 4.4 X
Track quality 100.0 %
Test CRC 7A851A40
Copy CRC 7A851A40
Accurately ripped (confidence 5) [2DB34CB7] (AR v2)
Copy OK

Track 14

Filename G:\__New\_EAC rips\David Bowie - Transmission Impossible [boot] (2018) 3cd flac\CD2 Various TV Shows 1975-95\14 - TVC 15.wav

Peak level 96.5 %
Extraction speed 4.7 X
Track quality 100.0 %
Test CRC C059ACE9
Copy CRC C059ACE9
Accurately ripped (confidence 5) [E118EAD7] (AR v2)
Copy OK

Track 15

Filename G:\__New\_EAC rips\David Bowie - Transmission Impossible [boot] (2018) 3cd flac\CD2 Various TV Shows 1975-95\15 - Life On Mars.wav

Peak level 98.8 %
Extraction speed 5.0 X
Track quality 100.0 %
Test CRC FC7F1E82
Copy CRC FC7F1E82
Accurately ripped (confidence 5) [1715B4DB] (AR v2)
Copy OK

Track 16

Filename G:\__New\_EAC rips\David Bowie - Transmission Impossible [boot] (2018) 3cd flac\CD2 Various TV Shows 1975-95\16 - Ashes To Ashes.wav

Peak level 98.8 %
Extraction speed 5.1 X
Track quality 100.0 %
Test CRC D48B7CDF
Copy CRC D48B7CDF
Accurately ripped (confidence 5) [79E1184F] (AR v2)
Copy OK

Track 17

Filename G:\__New\_EAC rips\David Bowie - Transmission Impossible [boot] (2018) 3cd flac\CD2 Various TV Shows 1975-95\17 - Nite Flights.wav

Peak level 98.8 %
Extraction speed 5.3 X
Track quality 100.0 %
Test CRC 2B461B77
Copy CRC 2B461B77
Accurately ripped (confidence 5) [5F2967B5] (AR v2)
Copy OK

Track 18

Filename G:\__New\_EAC rips\David Bowie - Transmission Impossible [boot] (2018) 3cd flac\CD2 Various TV Shows 1975-95\18 - Black Tie White Noise.wav

Peak level 98.8 %
Extraction speed 5.5 X
Track quality 100.0 %
Test CRC 449B2D39
Copy CRC 449B2D39
Accurately ripped (confidence 5) [33253E8D] (AR v2)
Copy OK

Track 19

Filename G:\__New\_EAC rips\David Bowie - Transmission Impossible [boot] (2018) 3cd flac\CD2 Various TV Shows 1975-95\19 - Strangers When We Meet.wav

Peak level 93.0 %
Extraction speed 5.5 X
Track quality 100.0 %
Test CRC 75EBFC2B
Copy CRC 75EBFC2B
Accurately ripped (confidence 5) [7C341929] (AR v2)
Copy OK

Track 20

Filename G:\__New\_EAC rips\David Bowie - Transmission Impossible [boot] (2018) 3cd flac\CD2 Various TV Shows 1975-95\20 - The Heart’s Filthy Lesson.wav

Peak level 98.8 %
Extraction speed 5.6 X
Track quality 100.0 %
Test CRC 4348396A
Copy CRC 4348396A
Accurately ripped (confidence 5) [329E001F] (AR v2)
Copy OK


All tracks accurately ripped

No errors occurred

End of status report

–– CUETools DB Plugin V2.1.6

[CTDB TOCID: DfdZVO._gU7liwuYoSZWb5k5s_4-] found
Submit result: DfdZVO._gU7liwuYoSZWb5k5s_4- has been confirmed
Track | CTDB Status
1 | (9/9) Accurately ripped
2 | (9/9) Accurately ripped
3 | (9/9) Accurately ripped
4 | (9/9) Accurately ripped
5 | (9/9) Accurately ripped
6 | (9/9) Accurately ripped
7 | (9/9) Accurately ripped
8 | (9/9) Accurately ripped
9 | (9/9) Accurately ripped
10 | (9/9) Accurately ripped
11 | (9/9) Accurately ripped
12 | (9/9) Accurately ripped
13 | (9/9) Accurately ripped
14 | (9/9) Accurately ripped
15 | (9/9) Accurately ripped
16 | (9/9) Accurately ripped
17 | (9/9) Accurately ripped
18 | (8/9) Accurately ripped
19 | (8/9) Accurately ripped
20 | (9/9) Accurately ripped


==== Log checksum 8A0F8D0F7CA7D962343E42FC3F3ABED5BBBFE67C40F9E828A9AE6E5FFE6E5BFA ====

Track List CD3 - Tokyo, Japan 1992:

01. Tin Machine – Sorry (05:56)
02. Tin Machine – Goodbye Mr. Ed (03:30)
03. Tin Machine – If There Is Something (04:16)
04. Tin Machine – Baby Universal (03:14)
05. Tin Machine – Crack City (04:51)
06. Tin Machine – I Can't Read (07:11)
07. Tin Machine – You Can't Talk (05:40)
08. Tin Machine – Stateside (09:09)
09. Tin Machine – Go Now (06:11)
10. Tin Machine – Bus Stop (03:21)
11. Tin Machine – You Belong In Rock And Roll (05:45)
12. Tin Machine – Debaser (02:09)
13. Tin Machine – Heaven's In Here (15:14)
14. Tin Machine – Shopping For Girls (03:38)
15. Tin Machine – Sacrifice Yourself (02:44)

From a live FM broadcast recorded at the Nippon Budokan, Tokyo, Japan, 17th February 1992.

Exact Audio Copy V1.3 from 2. September 2016

EAC extraction logfile from 12. January 2019, 11:42

David Bowie / Transmission Impossible

Used drive : SONY DVD RW AD-7280S Adapter: 1 ID: 1

Read mode : Secure
Utilize accurate stream : Yes
Defeat audio cache : Yes
Make use of C2 pointers : No

Read offset correction : 48
Overread into Lead-In and Lead-Out : No
Fill up missing offset samples with silence : Yes
Delete leading and trailing silent blocks : No
Null samples used in CRC calculations : Yes
Used interface : Native Win32 interface for Win NT & 2000
Gap handling : Appended to previous track

Used output format : User Defined Encoder
Selected bitrate : 768 kBit/s
Quality : High
Add ID3 tag : No
Command line compressor : C:\Program Files (x86)\Exact Audio Copy\FLAC\FLAC.EXE
Additional command line options : -8 -e -p -V -T "ARTIST=%artist%" -T "TITLE=%title%" -T "ALBUM=%albumtitle%" -T "DATE=%year%" -T "TRACKNUMBER=%tracknr%" -T "GENRE=%genre%" -T "PERFORMER=%albuminterpret%" -T "COMPOSER=%composer%" %haslyrics%–tag-from-file=LYRICS="%lyricsfile%"%haslyrics% -T "ALBUMARTIST=%albumartist%" -T "DISCNUMBER=%cdnumber%" -T "TOTALDISCS=%totalcds%" -T "TOTALTRACKS=%numtracks%" -T "COMMENT=%comment%" %source% -o %dest%


TOC of the extracted CD

Track | Start | Length | Start sector | End sector
––––––––––––––––––––––––––––-
1 | 0:00.00 | 5:56.33 | 0 | 26732
2 | 5:56.33 | 3:29.56 | 26733 | 42463
3 | 9:26.14 | 4:16.23 | 42464 | 61686
4 | 13:42.37 | 3:14.25 | 61687 | 76261
5 | 16:56.62 | 4:50.60 | 76262 | 98071
6 | 21:47.47 | 7:10.72 | 98072 | 130393
7 | 28:58.44 | 5:39.46 | 130394 | 155864
8 | 34:38.15 | 9:08.50 | 155865 | 197014
9 | 43:46.65 | 6:11.22 | 197015 | 224861
10 | 49:58.12 | 3:20.44 | 224862 | 239905
11 | 53:18.56 | 5:44.32 | 239906 | 265737
12 | 59:03.13 | 2:08.69 | 265738 | 275406
13 | 61:12.07 | 15:14.14 | 275407 | 343970
14 | 76:26.21 | 3:37.33 | 343971 | 360278
15 | 80:03.54 | 2:44.55 | 360279 | 372633


Track 1

Filename G:\__New\_EAC rips\David Bowie - Transmission Impossible [boot] (2018) 3cd flac\CD3 Tokyo, Japan 1992\01 - Sorry.wav

Pre-gap length 0:00:02.00

Peak level 41.6 %
Extraction speed 2.8 X
Track quality 100.0 %
Test CRC 88141AAA
Copy CRC 88141AAA
Accurately ripped (confidence 5) [7F9F0BCE] (AR v2)
Copy OK

Track 2

Filename G:\__New\_EAC rips\David Bowie - Transmission Impossible [boot] (2018) 3cd flac\CD3 Tokyo, Japan 1992\02 - Goodbye Mr. Ed.wav

Peak level 85.7 %
Extraction speed 2.8 X
Track quality 100.0 %
Test CRC 08E25F48
Copy CRC 08E25F48
Accurately ripped (confidence 5) [03E2D286] (AR v2)
Copy OK

Track 3

Filename G:\__New\_EAC rips\David Bowie - Transmission Impossible [boot] (2018) 3cd flac\CD3 Tokyo, Japan 1992\03 - If There Is Something.wav

Peak level 89.3 %
Extraction speed 2.8 X
Track quality 99.9 %
Test CRC 0A8E2E7C
Copy CRC 0A8E2E7C
Accurately ripped (confidence 5) [F1D61889] (AR v2)
Copy OK

Track 4

Filename G:\__New\_EAC rips\David Bowie - Transmission Impossible [boot] (2018) 3cd flac\CD3 Tokyo, Japan 1992\04 - Baby Universal.wav

Peak level 73.5 %
Extraction speed 3.2 X
Track quality 100.0 %
Test CRC DAB80AAC
Copy CRC DAB80AAC
Accurately ripped (confidence 5) [1C1455AD] (AR v2)
Copy OK

Track 5

Filename G:\__New\_EAC rips\David Bowie - Transmission Impossible [boot] (2018) 3cd flac\CD3 Tokyo, Japan 1992\05 - Crack City.wav

Peak level 90.2 %
Extraction speed 3.2 X
Track quality 99.9 %
Test CRC CE11A8A6
Copy CRC CE11A8A6
Accurately ripped (confidence 5) [B93BFE00] (AR v2)
Copy OK

Track 6

Filename G:\__New\_EAC rips\David Bowie - Transmission Impossible [boot] (2018) 3cd flac\CD3 Tokyo, Japan 1992\06 - I Can’t Read.wav

Peak level 90.3 %
Extraction speed 3.7 X
Track quality 99.9 %
Test CRC 2C4D285E
Copy CRC 2C4D285E
Accurately ripped (confidence 5) [AA56E65A] (AR v2)
Copy OK

Track 7

Filename G:\__New\_EAC rips\David Bowie - Transmission Impossible [boot] (2018) 3cd flac\CD3 Tokyo, Japan 1992\07 - You Can’t Talk.wav

Peak level 92.8 %
Extraction speed 3.8 X
Track quality 99.9 %
Test CRC A9AAB6B3
Copy CRC A9AAB6B3
Accurately ripped (confidence 5) [9105CCF0] (AR v2)
Copy OK

Track 8

Filename G:\__New\_EAC rips\David Bowie - Transmission Impossible [boot] (2018) 3cd flac\CD3 Tokyo, Japan 1992\08 - Stateside.wav

Peak level 91.9 %
Extraction speed 4.7 X
Track quality 100.0 %
Test CRC 8E8AACBB
Copy CRC 8E8AACBB
Accurately ripped (confidence 5) [BB04211B] (AR v2)
Copy OK

Track 9

Filename G:\__New\_EAC rips\David Bowie - Transmission Impossible [boot] (2018) 3cd flac\CD3 Tokyo, Japan 1992\09 - Go Now.wav

Peak level 88.2 %
Extraction speed 4.8 X
Track quality 100.0 %
Test CRC BC997A52
Copy CRC BC997A52
Accurately ripped (confidence 5) [BEA7C5EA] (AR v2)
Copy OK

Track 10

Filename G:\__New\_EAC rips\David Bowie - Transmission Impossible [boot] (2018) 3cd flac\CD3 Tokyo, Japan 1992\10 - Bus Stop.wav

Peak level 87.3 %
Extraction speed 4.6 X
Track quality 100.0 %
Test CRC 436CD8EB
Copy CRC 436CD8EB
Accurately ripped (confidence 5) [F22370C2] (AR v2)
Copy OK

Track 11

Filename G:\__New\_EAC rips\David Bowie - Transmission Impossible [boot] (2018) 3cd flac\CD3 Tokyo, Japan 1992\11 - You Belong In Rock And Roll.wav

Peak level 93.6 %
Extraction speed 5.1 X
Track quality 100.0 %
Test CRC 16CF6D6A
Copy CRC 16CF6D6A
Accurately ripped (confidence 5) [DAD0110D] (AR v2)
Copy OK

Track 12

Filename G:\__New\_EAC rips\David Bowie - Transmission Impossible [boot] (2018) 3cd flac\CD3 Tokyo, Japan 1992\12 - Debaser.wav

Peak level 69.4 %
Extraction speed 4.5 X
Track quality 100.0 %
Test CRC AC4A939C
Copy CRC AC4A939C
Accurately ripped (confidence 5) [60786E1D] (AR v2)
Copy OK

Track 13

Filename G:\__New\_EAC rips\David Bowie - Transmission Impossible [boot] (2018) 3cd flac\CD3 Tokyo, Japan 1992\13 - Heaven’s In Here.wav

Peak level 85.8 %
Extraction speed 5.8 X
Track quality 100.0 %
Test CRC E58D8225
Copy CRC E58D8225
Accurately ripped (confidence 5) [04440EAE] (AR v2)
Copy OK

Track 14

Filename G:\__New\_EAC rips\David Bowie - Transmission Impossible [boot] (2018) 3cd flac\CD3 Tokyo, Japan 1992\14 - Shopping For Girls.wav

Peak level 71.7 %
Extraction speed 4.8 X
Track quality 99.9 %
Test CRC 7B78E6F5
Copy CRC 7B78E6F5
Accurately ripped (confidence 5) [EE691429] (AR v2)
Copy OK

Track 15

Filename G:\__New\_EAC rips\David Bowie - Transmission Impossible [boot] (2018) 3cd flac\CD3 Tokyo, Japan 1992\15 - Sacrifice Yourself.wav

Peak level 79.4 %
Extraction speed 5.2 X
Track quality 100.0 %
Test CRC B07592C9
Copy CRC B07592C9
Accurately ripped (confidence 5) [6EDF4FC5] (AR v2)
Copy OK


All tracks accurately ripped

No errors occurred

End of status report

–– CUETools DB Plugin V2.1.6

[CTDB TOCID: BJnft2Bb9TXJ8NocuATCBv_sszE-] found
Submit result: BJnft2Bb9TXJ8NocuATCBv_sszE- has been confirmed
Track | CTDB Status
1 | (9/9) Accurately ripped
2 | (9/9) Accurately ripped
3 | (9/9) Accurately ripped
4 | (9/9) Accurately ripped
5 | (9/9) Accurately ripped
6 | (9/9) Accurately ripped
7 | (9/9) Accurately ripped
8 | (9/9) Accurately ripped
9 | (9/9) Accurately ripped
10 | (9/9) Accurately ripped
11 | (9/9) Accurately ripped
12 | (9/9) Accurately ripped
13 | (9/9) Accurately ripped
14 | (9/9) Accurately ripped
15 | (9/9) Accurately ripped


==== Log checksum 700EE03E4455CBE15F8C3F94EE73E139DD95137269F008677F4E1661EBC17873 ====

David Bowie - Transmission Impossible: Legendary Radio Broadcasts From The 1970s - 1990s (2018) {3CD Box Set}

All thanks go to the original ripper(s) …

>>> My Blog <<<

Download from icerbox.com: