Subcategories
Please register here if you want to download anything!

If domain in your address bar is different from the list below
PLEASE LEAVE THAT SITE IMMEDIATELY
❗IT'S A DANGEROUS FAKE❗



Spicy Magazines for Men! ;-)

David Bowie - Who Can I Be Now? 1974-1976 (2016) [12CD Box Set] Re-up

Posted By: v3122
David Bowie - Who Can I Be Now? 1974-1976 (2016) [12CD Box Set] Re-up

David Bowie - Who Can I Be Now? 1974-1976 (2016)
EAC | Flac(Image) + Cue + Log
Parlophone Records, DBX2 | ~ 3295 Mb | Scans(png) -> 998 Mb
Classic Rock / Pop Rock / Glam

A sequel to the 2015 box Five Years 1969-1973, 2016's Who Can I Be Now? (1974-1976) covers just three years but this stretch in the mid-'70s happens to be the peak of David Bowie's superstardom. That much can be gleaned from the number of albums within the set: three studio albums – Diamond Dogs, Young Americans, Station to Station, each released in a subsequent year – along with the double live album David Live from 1974. Four albums in three years is plenty but to that core canon Who Can I Be Now? adds five additional alternate albums, each with varying degrees of rarities. There are full latter-day remixes of David Live and Station to Station – the former from 2005, the latter from 2010 – the concert album Live Nassau Coliseum '76, which was added to the super deluxe 2010 reissue of Station to Station, a bonus disc of single edits and stray songs entitled Re:Call, plus an early version of Young Americans called The Gouster. The latter seems to bend the rules of this extensive Bowie catalog reissue project, which is to preserve the officially released canon and keep unreleased tracks – whether they surfaced on the '90s Rykodisc reissues or remain unheard – locked up in the vaults. The Gouster contains "Who Can I Be Now?" and "It's Gonna Be Me," both originally released on the 1990 Ryko edition of Young Americans, along with alternate versions of "Can You Hear Me?" and "Right," plus the disco version of "John, I'm Only Dancing," but otherwise it plays like Young Americans, only not quite as good. Furthermore, its presence calls into question why the unreleased outtake "Shilling the Rubes" is left behind alongside the "Dodo" that showed up on the Ryko CD of Diamond Dogs: if the door is opened for some outtakes, it's hard not to miss those that are absent. Still, this is quibbling. The Who Can I Be Now? box set remains as beautifully produced as Five Years, and a deep dive into its contents produces many rewards. Perhaps the alternate album mixes are only slightly different, but it's hard not to be impressed by the rapid development of Bowie's music during these three years. The distance between Diamond Dogs and Station to Station is vast, and the addition of the live albums accentuates how deeply he cared for strong, deeply etched funk to offset his art. Listening to all this music in a concentrated blast, such progression is a wonder to behold.

David Bowie - Who Can I Be Now? 1974-1976 (2016) [12CD Box Set] Re-up

by Stephen Thomas Erlewine, AMG
David Bowie - Who Can I Be Now? 1974-1976 (2016) [12CD Box Set] Re-up


David Bowie - Who Can I Be Now? 1974-1976 (2016):

David Bowie - Who Can I Be Now? 1974-1976 (2016) [12CD Box Set] Re-up

Tracklist CD1 - 1974 David Live CD1:

01 1984
02 Rebel Rebel
03 Moonage Daydream
04 Sweet Thing / Candidate / Sweet Thing (Reprise)
05 Changes
06 Suffragette City
07 Aladdin Sane
08 All The Young Dudes
09 Cracked Actor

Exact Audio Copy V1.1 from 23. June 2015

EAC extraction logfile from 8. October 2016, 9:08

David Bowie / David Live CD1

Used drive : PLEXTOR BD-R PX-B950SA Adapter: 1 ID: 1

Read mode : Secure
Utilize accurate stream : Yes
Defeat audio cache : Yes
Make use of C2 pointers : No

Read offset correction : 6
Overread into Lead-In and Lead-Out : No
Fill up missing offset samples with silence : Yes
Delete leading and trailing silent blocks : No
Null samples used in CRC calculations : Yes
Used interface : Native Win32 interface for Win NT & 2000

Used output format : Internal WAV Routines
Sample format : 44.100 Hz; 16 Bit; Stereo


TOC of the extracted CD

Track | Start | Length | Start sector | End sector
––––––––––––––––––––––––––––-
1 | 0:00.00 | 3:21.57 | 0 | 15131
2 | 3:21.57 | 2:40.17 | 15132 | 27148
3 | 6:01.74 | 5:07.72 | 27149 | 50245
4 | 11:09.71 | 8:33.41 | 50246 | 88761
5 | 19:43.37 | 3:34.21 | 88762 | 104832
6 | 23:17.58 | 3:41.24 | 104833 | 121431
7 | 26:59.07 | 5:00.58 | 121432 | 143989
8 | 31:59.65 | 4:18.02 | 143990 | 163341
9 | 36:17.67 | 3:25.41 | 163342 | 178757


Range status and errors

Selected range

Filename C:\Users\Meijin\Desktop\ALLexxess\David Bowie\2016 Who Can I Be Now 1974-1976 (12CD Box Set Parlophone Records)\1974 David Live 2CD\CD1\David Bowie - David Live CD1.wav

Peak level 99.9 %
Extraction speed 6.6 X
Range quality 99.9 %
Test CRC F46E49F8
Copy CRC F46E49F8
Copy OK

No errors occurred


AccurateRip summary

Track 1 accurately ripped (confidence 3) [2FFCB37A] (AR v2)
Track 2 accurately ripped (confidence 3) [89066465] (AR v2)
Track 3 accurately ripped (confidence 3) [5B86CEE6] (AR v2)
Track 4 accurately ripped (confidence 3) [CFB4A0E8] (AR v2)
Track 5 accurately ripped (confidence 3) [6CD6553B] (AR v2)
Track 6 accurately ripped (confidence 3) [B4AA4C9F] (AR v2)
Track 7 accurately ripped (confidence 3) [5DC56946] (AR v2)
Track 8 accurately ripped (confidence 3) [34A8F891] (AR v2)
Track 9 accurately ripped (confidence 3) [AFDE0468] (AR v2)

All tracks accurately ripped

End of status report

–– CUETools DB Plugin V2.1.6

[CTDB TOCID: 4F_zLSfpKCj8t43qrpfUcs1qDUc-] found
Submit result: 4F_zLSfpKCj8t43qrpfUcs1qDUc- has been confirmed
Track | CTDB Status
1 | (33/33) Accurately ripped
2 | (33/33) Accurately ripped
3 | (33/33) Accurately ripped
4 | (33/33) Accurately ripped
5 | (33/33) Accurately ripped
6 | (33/33) Accurately ripped
7 | (33/33) Accurately ripped
8 | (33/33) Accurately ripped
9 | (33/33) Accurately ripped


==== Log checksum A76BCA15C7CA714042F23D2671566DFA8CBB1A894C7E7719445B0382ED79D551 ====


foobar2000 1.2.9 / Dynamic Range Meter 1.1.1
log date: 2016-10-13 17:44:38

––––––––––––––––––––––––––––––––––––––––
Analyzed: David Bowie / David Live CD1
––––––––––––––––––––––––––––––––––––––––

DR Peak RMS Duration Track
––––––––––––––––––––––––––––––––––––––––
DR12 -0.48 dB -14.68 dB 3:22 01-1984
DR11 -0.01 dB -12.72 dB 2:40 02-Rebel Rebel
DR10 -0.01 dB -11.94 dB 5:08 03-Moonage Daydream
DR11 -0.01 dB -13.64 dB 8:34 04-Sweet Thing / Candidate / Sweet Thing (Reprise)
DR12 -0.01 dB -14.47 dB 3:34 05-Changes
DR11 -0.01 dB -12.02 dB 3:41 06-Suffragette City
DR13 -0.01 dB -14.90 dB 5:01 07-Aladdin Sane
DR11 -0.01 dB -13.68 dB 4:18 08-All The Young Dudes
DR11 -0.03 dB -12.94 dB 3:26 09-Cracked Actor
––––––––––––––––––––––––––––––––––––––––

Number of tracks: 9
Official DR value: DR11

Samplerate: 44100 Hz
Channels: 2
Bits per sample: 16
Bitrate: 798 kbps
Codec: FLAC
================================================================================



[CUETools log; Date: 13.10.2016 17:44:31; Version: 2.1.4]
[CTDB TOCID: 4F_zLSfpKCj8t43qrpfUcs1qDUc-] found.
Track | CTDB Status
1 | (37/37) Accurately ripped
2 | (37/37) Accurately ripped
3 | (37/37) Accurately ripped
4 | (37/37) Accurately ripped
5 | (37/37) Accurately ripped
6 | (37/37) Accurately ripped
7 | (37/37) Accurately ripped
8 | (37/37) Accurately ripped
9 | (37/37) Accurately ripped
[AccurateRip ID: 000da2cc-00656572-70094f09] found.
Track [ CRC | V2 ] Status
01 [d925fa85|2ffcb37a] (0+3/3) Accurately ripped
02 [64bd739a|89066465] (0+3/3) Accurately ripped
03 [97c310cc|5b86cee6] (0+3/3) Accurately ripped
04 [f9ec461a|cfb4a0e8] (0+3/3) Accurately ripped
05 [dcf04012|6cd6553b] (0+3/3) Accurately ripped
06 [62d840c2|b4aa4c9f] (0+3/3) Accurately ripped
07 [7cbc28d5|5dc56946] (0+3/3) Accurately ripped
08 [32605681|34a8f891] (0+3/3) Accurately ripped
09 [5ff34e79|afde0468] (0+3/3) Accurately ripped

Track Peak [ CRC32 ] [W/O NULL] [ LOG ]
– 99,9 [F46E49F8] [417D2FFF] CRC32
01 94,6 [C2742DBA] [3583A2CE]
02 99,8 [FC3E4304] [4EBC52FE]
03 99,8 [32470DA3] [B9E79637]
04 99,8 [66040E36] [84E652BD]
05 99,8 [9E33AA4C] [6F013CE1]
06 99,9 [0FC075D4] [B9EE941D]
07 99,8 [6ED99C6B] [C4A7F670]
08 99,8 [7EB2A03C] [4DDA0D64]
09 99,7 [E385196E] [AD330C30]


Tracklist CD2 - 1974 David Live CD2:

01 Rock 'N' Roll With Me
02 Watch That Man
03 Knock On Wood
04 Diamond Dogs
05 Big Brother
06 The Width Of A Circle
07 The Jean Genie
08 Rock 'N' Roll Suicide

Exact Audio Copy V1.1 from 23. June 2015

EAC extraction logfile from 8. October 2016, 8:39

David Bowie / David Live CD2

Used drive : PLEXTOR BD-R PX-B950SA Adapter: 1 ID: 1

Read mode : Secure
Utilize accurate stream : Yes
Defeat audio cache : Yes
Make use of C2 pointers : No

Read offset correction : 6
Overread into Lead-In and Lead-Out : No
Fill up missing offset samples with silence : Yes
Delete leading and trailing silent blocks : No
Null samples used in CRC calculations : Yes
Used interface : Native Win32 interface for Win NT & 2000

Used output format : Internal WAV Routines
Sample format : 44.100 Hz; 16 Bit; Stereo


TOC of the extracted CD

Track | Start | Length | Start sector | End sector
––––––––––––––––––––––––––––-
1 | 0:00.00 | 4:16.73 | 0 | 19272
2 | 4:16.73 | 5:04.47 | 19273 | 42119
3 | 9:21.45 | 3:20.07 | 42120 | 57126
4 | 12:41.52 | 6:29.55 | 57127 | 86356
5 | 19:11.32 | 4:07.46 | 86357 | 104927
6 | 23:19.03 | 8:11.69 | 104928 | 141821
7 | 31:30.72 | 5:17.03 | 141822 | 165599
8 | 36:48.00 | 4:47.49 | 165600 | 187173


Range status and errors

Selected range

Filename C:\Users\Meijin\Desktop\ALLexxess\David Bowie\2016 Who Can I Be Now 1974-1976 (12CD Box Set Parlophone Records)\1974 David Live 2CD\CD2\David Bowie - David Live CD2.wav

Peak level 98.8 %
Extraction speed 6.6 X
Range quality 99.9 %
Test CRC E9B0FAE7
Copy CRC E9B0FAE7
Copy OK

No errors occurred


AccurateRip summary

Track 1 accurately ripped (confidence 3) [4149B2C1] (AR v2)
Track 2 accurately ripped (confidence 3) [3F61BF0B] (AR v2)
Track 3 accurately ripped (confidence 3) [5A0D1CA6] (AR v2)
Track 4 accurately ripped (confidence 3) [C14EFF76] (AR v2)
Track 5 accurately ripped (confidence 3) [F9581722] (AR v2)
Track 6 accurately ripped (confidence 3) [56739BB8] (AR v2)
Track 7 accurately ripped (confidence 3) [C95297F8] (AR v2)
Track 8 accurately ripped (confidence 3) [3002AFED] (AR v2)

All tracks accurately ripped

End of status report

–– CUETools DB Plugin V2.1.6

[CTDB TOCID: tBF9ElUUZDdm64Wj3J7jkqrBeAE-] found
Submit result: tBF9ElUUZDdm64Wj3J7jkqrBeAE- has been confirmed
Track | CTDB Status
1 | (32/32) Accurately ripped
2 | (32/32) Accurately ripped
3 | (32/32) Accurately ripped
4 | (32/32) Accurately ripped
5 | (32/32) Accurately ripped
6 | (32/32) Accurately ripped
7 | (32/32) Accurately ripped
8 | (32/32) Accurately ripped


==== Log checksum 2BD95770C1F4EBD53A927618A59F4B3C1BE9F77C069B71465D51D72699873A41 ====


foobar2000 1.2.9 / Dynamic Range Meter 1.1.1
log date: 2016-10-13 17:44:54

––––––––––––––––––––––––––––––––––––––––
Analyzed: David Bowie / David Live CD2
––––––––––––––––––––––––––––––––––––––––

DR Peak RMS Duration Track
––––––––––––––––––––––––––––––––––––––––
DR11 -0.10 dB -13.50 dB 4:17 01-Rock 'N' Roll With Me
DR11 -0.10 dB -11.94 dB 5:05 02-Watch That Man
DR11 -0.11 dB -13.09 dB 3:20 03-Knock On Wood
DR12 -0.10 dB -12.69 dB 6:30 04-Diamond Dogs
DR12 -0.11 dB -14.23 dB 4:08 05-Big Brother
DR11 -0.11 dB -13.41 dB 8:12 06-The Width Of A Circle
DR11 -0.11 dB -13.39 dB 5:17 07-The Jean Genie
DR12 -0.11 dB -14.69 dB 4:48 08-Rock 'N' Roll Suicide
––––––––––––––––––––––––––––––––––––––––

Number of tracks: 8
Official DR value: DR11

Samplerate: 44100 Hz
Channels: 2
Bits per sample: 16
Bitrate: 842 kbps
Codec: FLAC
================================================================================



[CUETools log; Date: 13.10.2016 17:44:45; Version: 2.1.4]
[CTDB TOCID: tBF9ElUUZDdm64Wj3J7jkqrBeAE-] found.
Track | CTDB Status
1 | (36/36) Accurately ripped
2 | (36/36) Accurately ripped
3 | (36/36) Accurately ripped
4 | (36/36) Accurately ripped
5 | (36/36) Accurately ripped
6 | (36/36) Accurately ripped
7 | (36/36) Accurately ripped
8 | (36/36) Accurately ripped
[AccurateRip ID: 000c4631-005343f8-5809bf08] found.
Track [ CRC | V2 ] Status
01 [e4225407|4149b2c1] (0+3/3) Accurately ripped
02 [52e2eb54|3f61bf0b] (0+3/3) Accurately ripped
03 [07c8ee71|5a0d1ca6] (0+3/3) Accurately ripped
04 [fa5eba35|c14eff76] (0+3/3) Accurately ripped
05 [313b9cd3|f9581722] (0+3/3) Accurately ripped
06 [2c5de2f4|56739bb8] (0+3/3) Accurately ripped
07 [250bd6f5|c95297f8] (0+3/3) Accurately ripped
08 [740bcc58|3002afed] (0+3/3) Accurately ripped

Track Peak [ CRC32 ] [W/O NULL] [ LOG ]
– 98,8 [E9B0FAE7] [98AE0118] CRC32
01 98,8 [D6DCCE29] [AFD170DF]
02 98,8 [25AA5A53] [DE234BC7]
03 98,7 [802AB18C] [C1253B0C]
04 98,8 [0E21975A] [9FD1CFC4]
05 98,7 [CFC8435B] [DB49BAFC]
06 98,7 [93045FFE] [AA151A6E]
07 98,7 [35A58B10] [F297964D]
08 98,7 [A12497BF] [B3B3AB91]


David Bowie - Who Can I Be Now? 1974-1976 (2016) [12CD Box Set] Re-up

Tracklist CD3 - 1974 David Live (2005 Mix) CD1:

01 1984
02 Rebel Rebel
03 Moonage Daydream
04 Sweet Thing / Candidate / Sweet Thing (Reprise)
05 Changes
06 Suffragette City
07 Aladdin Sane
08 All The Young Dudes
09 Cracked Actor
10 Rock 'N' Roll With Me
11 Watch That Man

Exact Audio Copy V1.1 from 23. June 2015

EAC extraction logfile from 7. October 2016, 21:13

David Bowie / David Live (2005 Mix) CD1

Used drive : PLEXTOR BD-R PX-B950SA Adapter: 1 ID: 1

Read mode : Secure
Utilize accurate stream : Yes
Defeat audio cache : Yes
Make use of C2 pointers : No

Read offset correction : 6
Overread into Lead-In and Lead-Out : No
Fill up missing offset samples with silence : Yes
Delete leading and trailing silent blocks : No
Null samples used in CRC calculations : Yes
Used interface : Native Win32 interface for Win NT & 2000

Used output format : Internal WAV Routines
Sample format : 44.100 Hz; 16 Bit; Stereo


TOC of the extracted CD

Track | Start | Length | Start sector | End sector
––––––––––––––––––––––––––––-
1 | 0:00.00 | 3:22.19 | 0 | 15168
2 | 3:22.19 | 2:41.14 | 15169 | 27257
3 | 6:03.33 | 5:08.27 | 27258 | 50384
4 | 11:11.60 | 8:35.54 | 50385 | 89063
5 | 19:47.39 | 3:35.53 | 89064 | 105241
6 | 23:23.17 | 3:42.39 | 105242 | 121930
7 | 27:05.56 | 5:02.11 | 121931 | 144591
8 | 32:07.67 | 4:14.52 | 144592 | 163693
9 | 36:22.44 | 3:26.15 | 163694 | 179158
10 | 39:48.59 | 4:16.34 | 179159 | 198392
11 | 44:05.18 | 5:05.70 | 198393 | 221337


Range status and errors

Selected range

Filename C:\Users\Meijin\Desktop\ALLexxess\David Bowie\2016 Who Can I Be Now 1974-1976 (12CD Box Set Parlophone Records)\1974 David Live (2005 Mix) 2CD\CD1\David Bowie - David Live (2005 Mix) CD1.wav

Peak level 94.9 %
Extraction speed 7.0 X
Range quality 99.9 %
Test CRC 224C4FC9
Copy CRC 224C4FC9
Copy OK

No errors occurred


AccurateRip summary

Track 1 accurately ripped (confidence 3) [58BF4FEA] (AR v2)
Track 2 accurately ripped (confidence 3) [7CECD05E] (AR v2)
Track 3 accurately ripped (confidence 3) [B674622F] (AR v2)
Track 4 accurately ripped (confidence 3) [B9FF1C7F] (AR v2)
Track 5 accurately ripped (confidence 3) [3D1C15B8] (AR v2)
Track 6 accurately ripped (confidence 3) [A3E0CB4E] (AR v2)
Track 7 accurately ripped (confidence 3) [55FAFBD2] (AR v2)
Track 8 accurately ripped (confidence 3) [4CC5AC31] (AR v2)
Track 9 accurately ripped (confidence 3) [65AF65D8] (AR v2)
Track 10 accurately ripped (confidence 3) [2DE00FBF] (AR v2)
Track 11 accurately ripped (confidence 3) [D38BD1E7] (AR v2)

All tracks accurately ripped

End of status report

–– CUETools DB Plugin V2.1.6

[CTDB TOCID: zg2kmb2wIvZ1yEij17b3mYeGXag-] found
Submit result: zg2kmb2wIvZ1yEij17b3mYeGXag- has been confirmed
Track | CTDB Status
1 | (31/31) Accurately ripped
2 | (31/31) Accurately ripped
3 | (31/31) Accurately ripped
4 | (31/31) Accurately ripped
5 | (31/31) Accurately ripped
6 | (31/31) Accurately ripped
7 | (31/31) Accurately ripped
8 | (31/31) Accurately ripped
9 | (31/31) Accurately ripped
10 | (31/31) Accurately ripped
11 | (31/31) Accurately ripped


==== Log checksum C339FC8C02206A7E9E08957EA99997A1632CBBEC97FD3F79CFDA543E9C8270F2 ====


foobar2000 1.2.9 / Dynamic Range Meter 1.1.1
log date: 2016-10-13 17:45:12

––––––––––––––––––––––––––––––––––––––––
Analyzed: David Bowie / David Live (2005 Mix) CD1
––––––––––––––––––––––––––––––––––––––––

DR Peak RMS Duration Track
––––––––––––––––––––––––––––––––––––––––
DR12 -0.78 dB -15.58 dB 3:22 01-1984
DR13 -0.45 dB -15.11 dB 2:41 02-Rebel Rebel
DR12 -2.50 dB -17.96 dB 5:08 03-Moonage Daydream
DR13 -2.62 dB -17.89 dB 8:36 04-Sweet Thing/Candidate / Sweet Thing (Reprise)
DR12 -3.12 dB -18.28 dB 3:36 05-Changes
DR11 -3.03 dB -15.76 dB 3:43 06-Suffragette City
DR11 -2.27 dB -16.60 dB 5:02 07-Aladdin Sane
DR12 -2.46 dB -16.75 dB 4:15 08-All The Young Dudes
DR12 -2.55 dB -17.20 dB 3:26 09-Cracked Actor
DR12 -0.89 dB -15.24 dB 4:16 10-Rock And Roll With Me
DR12 -1.05 dB -14.19 dB 5:06 11-Watch That Man
––––––––––––––––––––––––––––––––––––––––

Number of tracks: 11
Official DR value: DR12

Samplerate: 44100 Hz
Channels: 2
Bits per sample: 16
Bitrate: 847 kbps
Codec: FLAC
================================================================================



[CUETools log; Date: 13.10.2016 17:45:02; Version: 2.1.4]
[CTDB TOCID: zg2kmb2wIvZ1yEij17b3mYeGXag-] found.
Track | CTDB Status
1 | (35/35) Accurately ripped
2 | (35/35) Accurately ripped
3 | (35/35) Accurately ripped
4 | (35/35) Accurately ripped
5 | (35/35) Accurately ripped
6 | (35/35) Accurately ripped
7 | (35/35) Accurately ripped
8 | (35/35) Accurately ripped
9 | (35/35) Accurately ripped
10 | (35/35) Accurately ripped
11 | (35/35) Accurately ripped
[AccurateRip ID: 00141581-00af8915-980b870b] found.
Track [ CRC | V2 ] Status
01 [011e5c46|58bf4fea] (0+3/3) Accurately ripped
02 [59d4aa24|7cecd05e] (0+3/3) Accurately ripped
03 [917cdcc5|b674622f] (0+3/3) Accurately ripped
04 [d00eee67|b9ff1c7f] (0+3/3) Accurately ripped
05 [eba52ac0|3d1c15b8] (0+3/3) Accurately ripped
06 [3cffd474|a3e0cb4e] (0+3/3) Accurately ripped
07 [60b3b13e|55fafbd2] (0+3/3) Accurately ripped
08 [493fdaac|4cc5ac31] (0+3/3) Accurately ripped
09 [9f42f32a|65af65d8] (0+3/3) Accurately ripped
10 [397d9bbf|2de00fbf] (0+3/3) Accurately ripped
11 [3db4c3e4|d38bd1e7] (0+3/3) Accurately ripped

Track Peak [ CRC32 ] [W/O NULL] [ LOG ]
– 94,9 [224C4FC9] [6F975E26] CRC32
01 91,3 [D9ACAE9C] [DC5B5D3F]
02 94,9 [1606C0E4] [EE3B6586]
03 74,9 [C68BC7B4] [9E1BB021]
04 73,9 [C6D789F3] [741AEAC4]
05 69,8 [67B4AEBC] [28FB4504]
06 70,5 [DA3A41D8] [6A29D255]
07 77,0 [54C96A66] [EA7B0BB4]
08 75,3 [349F40BE] [D6FC9C68]
09 74,5 [EF1C0E80] [AF4E6B7D]
10 90,2 [0BFE4CD9] [2F1BDFAE]
11 88,5 [B2D7EF1A] [AC676EAA]


Tracklist CD4 - 1974 David Live (2005 Mix) CD2:

01 Knock On Wood
02 Here Today, Gone Tomorrow
03 Space Oddity
04 Diamond Dogs
05 Panic In Detroit
06 Big Brother
07 Time
08 The Width Of A Circle
09 The Jean Genie
10 Rock 'N' Roll Suicide

Exact Audio Copy V1.1 from 23. June 2015

EAC extraction logfile from 7. October 2016, 20:45

David Bowie / David Live (2005 Mix) CD2

Used drive : PLEXTOR BD-R PX-B950SA Adapter: 1 ID: 1

Read mode : Secure
Utilize accurate stream : Yes
Defeat audio cache : Yes
Make use of C2 pointers : No

Read offset correction : 6
Overread into Lead-In and Lead-Out : No
Fill up missing offset samples with silence : Yes
Delete leading and trailing silent blocks : No
Null samples used in CRC calculations : Yes
Used interface : Native Win32 interface for Win NT & 2000

Used output format : Internal WAV Routines
Sample format : 44.100 Hz; 16 Bit; Stereo


TOC of the extracted CD

Track | Start | Length | Start sector | End sector
––––––––––––––––––––––––––––-
1 | 0:00.00 | 3:24.69 | 0 | 15368
2 | 3:24.69 | 3:48.00 | 15369 | 32468
3 | 7:12.69 | 6:26.36 | 32469 | 61454
4 | 13:39.30 | 6:26.55 | 61455 | 90459
5 | 20:06.10 | 5:39.43 | 90460 | 115927
6 | 25:45.53 | 4:14.02 | 115928 | 134979
7 | 29:59.55 | 5:23.21 | 134980 | 159225
8 | 35:23.01 | 8:10.59 | 159226 | 196034
9 | 43:33.60 | 5:19.21 | 196035 | 219980
10 | 48:53.06 | 4:46.51 | 219981 | 241481


Range status and errors

Selected range

Filename C:\Users\Meijin\Desktop\ALLexxess\David Bowie\2016 Who Can I Be Now 1974-1976 (12CD Box Set Parlophone Records)\1974 David Live (2005 Mix) 2CD\CD2\David Bowie - David Live (2005 Mix) CD2.wav

Peak level 100.0 %
Extraction speed 7.1 X
Range quality 99.9 %
Test CRC E4D59C9A
Copy CRC E4D59C9A
Copy OK

No errors occurred


AccurateRip summary

Track 1 accurately ripped (confidence 3) [B80AA452] (AR v2)
Track 2 accurately ripped (confidence 3) [3254AAE8] (AR v2)
Track 3 accurately ripped (confidence 3) [78D78B53] (AR v2)
Track 4 accurately ripped (confidence 3) [E6CE3BA4] (AR v2)
Track 5 accurately ripped (confidence 3) [17296022] (AR v2)
Track 6 accurately ripped (confidence 3) [35C57325] (AR v2)
Track 7 accurately ripped (confidence 3) [94946E76] (AR v2)
Track 8 accurately ripped (confidence 3) [673707FC] (AR v2)
Track 9 accurately ripped (confidence 3) [27443EF1] (AR v2)
Track 10 accurately ripped (confidence 3) [13AAF057] (AR v2)

All tracks accurately ripped

End of status report

–– CUETools DB Plugin V2.1.6

[CTDB TOCID: A5CVLOf4a4kqAGs9i1QGyIw7ptE-] found
Submit result: A5CVLOf4a4kqAGs9i1QGyIw7ptE- has been confirmed
Track | CTDB Status
1 | (31/31) Accurately ripped
2 | (31/31) Accurately ripped
3 | (31/31) Accurately ripped
4 | (31/31) Accurately ripped
5 | (31/31) Accurately ripped
6 | (31/31) Accurately ripped
7 | (31/31) Accurately ripped
8 | (31/31) Accurately ripped
9 | (31/31) Accurately ripped
10 | (30/31) Accurately ripped


==== Log checksum 3732368D850B334ABD824E413C3DF3C9341D37CEDB28B58D0FAA5225EB43E0B6 ====


foobar2000 1.2.9 / Dynamic Range Meter 1.1.1
log date: 2016-10-13 17:45:28

––––––––––––––––––––––––––––––––––––––––
Analyzed: David Bowie / David Live (2005 Mix) CD2
––––––––––––––––––––––––––––––––––––––––

DR Peak RMS Duration Track
––––––––––––––––––––––––––––––––––––––––
DR12 -2.61 dB -16.82 dB 3:25 01-Knock On Wood
DR14 0.00 dB -15.86 dB 3:48 02-Here Today, Gone Tomorrow
DR13 -1.99 dB -17.70 dB 6:26 03-Space Oddity
DR13 -1.75 dB -16.45 dB 6:27 04-Diamond Dogs
DR12 -2.09 dB -15.72 dB 5:40 05-Panic In Detroit
DR13 -1.77 dB -18.74 dB 4:14 06-Big Brother
DR12 -2.31 dB -17.58 dB 5:23 07-Time
DR13 -1.93 dB -17.20 dB 8:11 08-The Width Of A Circle
DR12 -1.78 dB -16.52 dB 5:19 09-The Jean Genie
DR12 -1.94 dB -16.72 dB 4:47 10-Rock 'N' Roll Suicide
––––––––––––––––––––––––––––––––––––––––

Number of tracks: 10
Official DR value: DR12

Samplerate: 44100 Hz
Channels: 2
Bits per sample: 16
Bitrate: 828 kbps
Codec: FLAC
================================================================================



[CUETools log; Date: 13.10.2016 17:45:18; Version: 2.1.4]
[CTDB TOCID: A5CVLOf4a4kqAGs9i1QGyIw7ptE-] found.
Track | CTDB Status
1 | (35/35) Accurately ripped
2 | (35/35) Accurately ripped
3 | (35/35) Accurately ripped
4 | (35/35) Accurately ripped
5 | (35/35) Accurately ripped
6 | (35/35) Accurately ripped
7 | (35/35) Accurately ripped
8 | (35/35) Accurately ripped
9 | (35/35) Accurately ripped
10 | (34/35) Accurately ripped
[AccurateRip ID: 001356b9-009e1861-710c930a] found.
Track [ CRC | V2 ] Status
01 [ead4094b|b80aa452] (0+3/3) Accurately ripped
02 [170ebe9e|3254aae8] (0+3/3) Accurately ripped
03 [effcf132|78d78b53] (0+3/3) Accurately ripped
04 [f9242a21|e6ce3ba4] (0+3/3) Accurately ripped
05 [9b4cc469|17296022] (0+3/3) Accurately ripped
06 [7f725327|35c57325] (0+3/3) Accurately ripped
07 [c496d655|94946e76] (0+3/3) Accurately ripped
08 [aefdecc9|673707fc] (0+3/3) Accurately ripped
09 [e59cf503|27443ef1] (0+3/3) Accurately ripped
10 [eaae11f0|13aaf057] (0+3/3) Accurately ripped

Track Peak [ CRC32 ] [W/O NULL] [ LOG ]
– 100,0 [E4D59C9A] [1DB45868] CRC32
01 74,0 [5E039BF7] [D1D059D3]
02 100,0 [55A5CB8D] [69DBC1F1]
03 79,5 [E0344113] [AE474EF7]
04 81,7 [0419BB13] [FDADCD2A]
05 78,6 [133D002D] [942DC665]
06 81,5 [336528AA] [B2A39102]
07 76,6 [0DA6768C] [769CBA3E]
08 80,0 [5FA0F343] [261A9D1A]
09 81,5 [DFAD64E8] [232DA19A]
10 80,0 [634510F6] [F77DFC60]


David Bowie - Who Can I Be Now? 1974-1976 (2016) [12CD Box Set] Re-up

Tracklist CD5 - 1974 Diamond Dogs:

01 Future Legend
02 Diamond Dogs
03 Sweet Thing
04 Candidate
05 Sweet Thing (Reprise)
06 Rebel Rebel
07 Rock 'N' Roll With Me
08 We Are The Dead
09 1984
10 Big Brother
11 Chant Of The Ever Circling Skeletal Family

Exact Audio Copy V1.1 from 23. June 2015

EAC extraction logfile from 8. October 2016, 9:29

David Bowie / Diamond Dogs

Used drive : PLEXTOR BD-R PX-B950SA Adapter: 1 ID: 1

Read mode : Secure
Utilize accurate stream : Yes
Defeat audio cache : Yes
Make use of C2 pointers : No

Read offset correction : 6
Overread into Lead-In and Lead-Out : No
Fill up missing offset samples with silence : Yes
Delete leading and trailing silent blocks : No
Null samples used in CRC calculations : Yes
Used interface : Native Win32 interface for Win NT & 2000

Used output format : Internal WAV Routines
Sample format : 44.100 Hz; 16 Bit; Stereo


TOC of the extracted CD

Track | Start | Length | Start sector | End sector
––––––––––––––––––––––––––––-
1 | 0:00.00 | 1:00.34 | 0 | 4533
2 | 1:00.34 | 6:04.18 | 4534 | 31851
3 | 7:04.52 | 3:39.09 | 31852 | 48285
4 | 10:43.61 | 2:40.66 | 48286 | 60351
5 | 13:24.52 | 2:32.48 | 60352 | 71799
6 | 15:57.25 | 4:34.56 | 71800 | 92405
7 | 20:32.06 | 4:02.68 | 92406 | 110623
8 | 24:34.74 | 5:01.58 | 110624 | 133256
9 | 29:36.57 | 3:27.30 | 133257 | 148811
10 | 33:04.12 | 3:23.06 | 148812 | 164042
11 | 36:27.18 | 2:06.05 | 164043 | 173497


Range status and errors

Selected range

Filename C:\Users\Meijin\Desktop\ALLexxess\David Bowie\2016 Who Can I Be Now 1974-1976 (12CD Box Set Parlophone Records)\1974 Diamond Dogs\David Bowie - Diamond Dogs.wav

Peak level 88.8 %
Extraction speed 6.7 X
Range quality 100.0 %
Test CRC F15AECF2
Copy CRC F15AECF2
Copy OK

No errors occurred


AccurateRip summary

Track 1 accurately ripped (confidence 3) [7FA50AD9] (AR v2)
Track 2 accurately ripped (confidence 3) [A8B9AADA] (AR v2)
Track 3 accurately ripped (confidence 3) [8E5F14EA] (AR v2)
Track 4 accurately ripped (confidence 3) [4DDE49C1] (AR v2)
Track 5 accurately ripped (confidence 3) [7D15EC94] (AR v2)
Track 6 accurately ripped (confidence 3) [FB1D5756] (AR v2)
Track 7 accurately ripped (confidence 3) [00D5BFBD] (AR v2)
Track 8 accurately ripped (confidence 3) [25E4D3B9] (AR v2)
Track 9 accurately ripped (confidence 3) [BF8324E2] (AR v2)
Track 10 accurately ripped (confidence 3) [AC723298] (AR v2)
Track 11 accurately ripped (confidence 3) [6121AF0B] (AR v2)

All tracks accurately ripped

End of status report

–– CUETools DB Plugin V2.1.6

[CTDB TOCID: La5MfjKmUx.4YDifXL6tVghAKMM-] found
Submit result: La5MfjKmUx.4YDifXL6tVghAKMM- has been confirmed
Track | CTDB Status
1 | (37/37) Accurately ripped
2 | (37/37) Accurately ripped
3 | (36/37) Accurately ripped
4 | (37/37) Accurately ripped
5 | (37/37) Accurately ripped
6 | (37/37) Accurately ripped
7 | (37/37) Accurately ripped
8 | (37/37) Accurately ripped
9 | (37/37) Accurately ripped
10 | (37/37) Accurately ripped
11 | (36/37) Accurately ripped


==== Log checksum 64794CBED804220BD91F0C4751A5F4886DC406A8C08D6B8391BE8C6004666C4B ====


foobar2000 1.2.9 / Dynamic Range Meter 1.1.1
log date: 2016-10-13 17:45:39

––––––––––––––––––––––––––––––––––––––––
Analyzed: David Bowie / Diamond Dogs
––––––––––––––––––––––––––––––––––––––––

DR Peak RMS Duration Track
––––––––––––––––––––––––––––––––––––––––
DR12 -2.72 dB -19.39 dB 1:00 01-Future Legend
DR13 -1.25 dB -16.51 dB 6:04 02-Diamond Dogs
DR11 -1.33 dB -15.90 dB 3:39 03-Sweet Thing
DR12 -1.44 dB -14.97 dB 2:41 04-Candidate
DR10 -1.90 dB -15.22 dB 2:33 05-Sweet Thing
DR13 -1.22 dB -16.21 dB 4:35 06-Rebel Rebel
DR12 -1.03 dB -15.49 dB 4:03 07-Rock 'N' Roll With Me
DR12 -1.49 dB -17.23 dB 5:02 08-We Are The Dead
DR11 -1.43 dB -15.25 dB 3:27 09-1984
DR12 -1.04 dB -15.99 dB 3:23 10-Big Brother
DR12 -1.43 dB -16.54 dB 2:06 11-Chant Of The Ever Circling Skeletal Family
––––––––––––––––––––––––––––––––––––––––

Number of tracks: 11
Official DR value: DR12

Samplerate: 44100 Hz
Channels: 2
Bits per sample: 16
Bitrate: 853 kbps
Codec: FLAC
================================================================================



[CUETools log; Date: 13.10.2016 17:45:32; Version: 2.1.4]
[CTDB TOCID: La5MfjKmUx.4YDifXL6tVghAKMM-] found.
Track | CTDB Status
1 | (40/40) Accurately ripped
2 | (40/40) Accurately ripped
3 | (39/40) Accurately ripped
4 | (40/40) Accurately ripped
5 | (40/40) Accurately ripped
6 | (40/40) Accurately ripped
7 | (40/40) Accurately ripped
8 | (40/40) Accurately ripped
9 | (40/40) Accurately ripped
10 | (40/40) Accurately ripped
11 | (39/40) Accurately ripped
[AccurateRip ID: 000fdc68-008b67ad-a909090b] found.
Track [ CRC | V2 ] Status
01 [a9c005b9|7fa50ad9] (0+3/3) Accurately ripped
02 [ee60e6f9|a8b9aada] (0+3/3) Accurately ripped
03 [b2fbd716|8e5f14ea] (0+3/3) Accurately ripped
04 [676ec1f5|4dde49c1] (0+3/3) Accurately ripped
05 [2da19a53|7d15ec94] (0+3/3) Accurately ripped
06 [4da462a2|fb1d5756] (0+3/3) Accurately ripped
07 [d599531a|00d5bfbd] (0+3/3) Accurately ripped
08 [ad01da7c|25e4d3b9] (0+3/3) Accurately ripped
09 [f0105a31|bf8324e2] (0+3/3) Accurately ripped
10 [740b8dca|ac723298] (0+3/3) Accurately ripped
11 [ec3fc7c6|6121af0b] (0+3/3) Accurately ripped

Track Peak [ CRC32 ] [W/O NULL] [ LOG ]
– 88,8 [F15AECF2] [1507A5E7] CRC32
01 73,0 [5ACD120B] [564A41BE]
02 86,5 [0402BABE] [B4AC7EDC]
03 85,7 [51AD8851] [5B952B5E]
04 84,7 [554462D9] [349EAD5D]
05 80,3 [BA1F4B2B] [93B7CC33]
06 86,9 [3F0DCDBF] [EE7043ED]
07 88,8 [BA68017D] [7B01366E]
08 84,2 [42E9C797] [6A58957F]
09 84,8 [B9E4AE7F] [10B1072A]
10 88,7 [6AAEF569] [D2295145]
11 84,8 [E5BFF56D] [83843680]


David Bowie - Who Can I Be Now? 1974-1976 (2016) [12CD Box Set] Re-up

Tracklist CD6 - 1974 The Gouster:

01 John, I'm Only Dancing (Again)
02 Somebody Up There Likes Me (Alternative Early Mix)
03 It's Gonna Be Me (Without Strings)
04 Who Can I Be Now?
05 Can You Hear Me (Alternative Early Version)
06 Young Americans
07 Right (Alternative Early Version)

Exact Audio Copy V1.1 from 23. June 2015

EAC extraction logfile from 7. October 2016, 20:18

David Bowie / The Gouster

Used drive : PLEXTOR BD-R PX-B950SA Adapter: 1 ID: 1

Read mode : Secure
Utilize accurate stream : Yes
Defeat audio cache : Yes
Make use of C2 pointers : No

Read offset correction : 6
Overread into Lead-In and Lead-Out : No
Fill up missing offset samples with silence : Yes
Delete leading and trailing silent blocks : No
Null samples used in CRC calculations : Yes
Used interface : Native Win32 interface for Win NT & 2000

Used output format : Internal WAV Routines
Sample format : 44.100 Hz; 16 Bit; Stereo


TOC of the extracted CD

Track | Start | Length | Start sector | End sector
––––––––––––––––––––––––––––-
1 | 0:00.00 | 7:01.42 | 0 | 31616
2 | 7:01.42 | 6:32.55 | 31617 | 61071
3 | 13:34.22 | 6:30.18 | 61072 | 90339
4 | 20:04.40 | 4:42.09 | 90340 | 111498
5 | 24:46.49 | 5:24.35 | 111499 | 135833
6 | 30:11.09 | 5:17.07 | 135834 | 159615
7 | 35:28.16 | 4:40.14 | 159616 | 180629


Range status and errors

Selected range

Filename C:\Users\Meijin\Desktop\ALLexxess\David Bowie\2016 Who Can I Be Now 1974-1976 (12CD Box Set Parlophone Records)\1974 The Gouster\David Bowie - The Gouster.wav

Peak level 88.1 %
Extraction speed 6.7 X
Range quality 100.0 %
Test CRC FDBAFA10
Copy CRC FDBAFA10
Copy OK

No errors occurred


AccurateRip summary

Track 1 accurately ripped (confidence 3) [D6B94436] (AR v2)
Track 2 accurately ripped (confidence 3) [AFD50D7C] (AR v2)
Track 3 accurately ripped (confidence 3) [F7CCA90C] (AR v2)
Track 4 accurately ripped (confidence 3) [01E5A558] (AR v2)
Track 5 accurately ripped (confidence 3) [F3CD90C8] (AR v2)
Track 6 accurately ripped (confidence 3) [B10F5953] (AR v2)
Track 7 accurately ripped (confidence 3) [CF210443] (AR v2)

All tracks accurately ripped

End of status report

–– CUETools DB Plugin V2.1.6

[CTDB TOCID: K2j3YKh8UBZqHLAaZ6iQ5NmWGcQ-] found
Submit result: K2j3YKh8UBZqHLAaZ6iQ5NmWGcQ- has been confirmed
Track | CTDB Status
1 | (37/37) Accurately ripped
2 | (36/37) Accurately ripped
3 | (37/37) Accurately ripped
4 | (37/37) Accurately ripped
5 | (37/37) Accurately ripped
6 | (37/37) Accurately ripped
7 | (37/37) Accurately ripped


==== Log checksum 1080739F0D70051FA59719104672BA33862BF99A543048B55A15D0D4D1D39601 ====


foobar2000 1.2.9 / Dynamic Range Meter 1.1.1
log date: 2016-10-13 17:45:52

––––––––––––––––––––––––––––––––––––––––
Analyzed: David Bowie / The Gouster
––––––––––––––––––––––––––––––––––––––––

DR Peak RMS Duration Track
––––––––––––––––––––––––––––––––––––––––
DR11 -1.10 dB -14.01 dB 7:02 01-John, I'm Only Dancing (Again)
DR10 -1.11 dB -12.78 dB 6:33 02-Somebody Up There Likes Me (Alternative Early Mix)
DR13 -1.12 dB -16.67 dB 6:30 03-It's Gonna Be Me
DR10 -1.10 dB -13.18 dB 4:42 04-Who Can I Be Now?
DR11 -1.12 dB -14.12 dB 5:24 05-Can You Hear Me (Alternative Early Version)
DR11 -1.09 dB -14.20 dB 5:17 06-Young Americans
DR11 -1.10 dB -13.64 dB 4:40 07-Right (Alternative Early Version)
––––––––––––––––––––––––––––––––––––––––

Number of tracks: 7
Official DR value: DR11

Samplerate: 44100 Hz
Channels: 2
Bits per sample: 16
Bitrate: 852 kbps
Codec: FLAC
================================================================================



[CUETools log; Date: 13.10.2016 17:45:45; Version: 2.1.4]
[CTDB TOCID: K2j3YKh8UBZqHLAaZ6iQ5NmWGcQ-] found.
Track | CTDB Status
1 | (41/41) Accurately ripped
2 | (40/41) Accurately ripped
3 | (41/41) Accurately ripped
4 | (41/41) Accurately ripped
5 | (41/41) Accurately ripped
6 | (41/41) Accurately ripped
7 | (41/41) Accurately ripped
[AccurateRip ID: 000bc230-004550c6-4b096807] found.
Track [ CRC | V2 ] Status
01 [636212fa|d6b94436] (0+3/3) Accurately ripped
02 [e422962c|afd50d7c] (0+3/3) Accurately ripped
03 [0929580a|f7cca90c] (0+3/3) Accurately ripped
04 [effa992b|01e5a558] (0+3/3) Accurately ripped
05 [2cf8cf29|f3cd90c8] (0+3/3) Accurately ripped
06 [90f1fa5c|b10f5953] (0+3/3) Accurately ripped
07 [5bb34a64|cf210443] (0+3/3) Accurately ripped

Track Peak [ CRC32 ] [W/O NULL] [ LOG ]
– 88,1 [FDBAFA10] [9EA6229A] CRC32
01 88,0 [4699089B] [C2598F03]
02 88,0 [2EF62C55] [ED4B9B03]
03 87,8 [C0DB69EF] [5837A6B8]
04 88,0 [F5C76652] [12DCAF09]
05 87,8 [730E2C88] [01276490]
06 88,1 [4233AC06] [01A80AB3]
07 88,0 [B40D123A] [7466BCE9]


David Bowie - Who Can I Be Now? 1974-1976 (2016) [12CD Box Set] Re-up

Tracklist CD7 - 1975 Young Americans:

01 Young Americans
02 Win
03 Fascination
04 Right
05 Somebody Up There Likes Me
06 Across The Universe
07 Can You Hear Me
08 Fame

Exact Audio Copy V1.1 from 23. June 2015

EAC extraction logfile from 7. October 2016, 19:55

David Bowie / Young Americans

Used drive : PLEXTOR BD-R PX-B950SA Adapter: 1 ID: 1

Read mode : Secure
Utilize accurate stream : Yes
Defeat audio cache : Yes
Make use of C2 pointers : No

Read offset correction : 6
Overread into Lead-In and Lead-Out : No
Fill up missing offset samples with silence : Yes
Delete leading and trailing silent blocks : No
Null samples used in CRC calculations : Yes
Used interface : Native Win32 interface for Win NT & 2000

Used output format : Internal WAV Routines
Sample format : 44.100 Hz; 16 Bit; Stereo


TOC of the extracted CD

Track | Start | Length | Start sector | End sector
––––––––––––––––––––––––––––-
1 | 0:00.00 | 5:13.53 | 0 | 23527
2 | 5:13.53 | 4:47.43 | 23528 | 45095
3 | 10:01.21 | 5:48.26 | 45096 | 71221
4 | 15:49.47 | 4:22.67 | 71222 | 90938
5 | 20:12.39 | 6:36.34 | 90939 | 120672
6 | 26:48.73 | 4:33.52 | 120673 | 141199
7 | 31:22.50 | 5:08.55 | 141200 | 164354
8 | 36:31.30 | 4:21.28 | 164355 | 183957


Range status and errors

Selected range

Filename C:\Users\Meijin\Desktop\ALLexxess\David Bowie\2016 Who Can I Be Now 1974-1976 (12CD Box Set Parlophone Records)\1975 Young Americans\David Bowie - Young Americans.wav

Peak level 96.8 %
Extraction speed 6.8 X
Range quality 100.0 %
Test CRC 716E4A17
Copy CRC 716E4A17
Copy OK

No errors occurred


AccurateRip summary

Track 1 accurately ripped (confidence 3) [3FAB111A] (AR v2)
Track 2 accurately ripped (confidence 3) [B253D256] (AR v2)
Track 3 accurately ripped (confidence 3) [3B85EC25] (AR v2)
Track 4 accurately ripped (confidence 3) [EC97EA5D] (AR v2)
Track 5 accurately ripped (confidence 3) [F907BB08] (AR v2)
Track 6 accurately ripped (confidence 3) [ED10993F] (AR v2)
Track 7 accurately ripped (confidence 3) [A6038687] (AR v2)
Track 8 accurately ripped (confidence 3) [0E02AD56] (AR v2)

All tracks accurately ripped

End of status report

–– CUETools DB Plugin V2.1.6

[CTDB TOCID: vG1ZEIQH7q71KiJLcILCXxa7pI4-] found
Submit result: vG1ZEIQH7q71KiJLcILCXxa7pI4- has been confirmed
Track | CTDB Status
1 | (32/32) Accurately ripped
2 | (31/32) Accurately ripped
3 | (32/32) Accurately ripped
4 | (32/32) Accurately ripped
5 | (32/32) Accurately ripped
6 | (32/32) Accurately ripped
7 | (32/32) Accurately ripped
8 | (32/32) Accurately ripped


==== Log checksum 6D65A282C135B465BF81CF6F00D034F1CA792A9F96CF33D3B6028D00C5C5D4B7 ====


foobar2000 1.2.9 / Dynamic Range Meter 1.1.1
log date: 2016-10-13 17:46:04

––––––––––––––––––––––––––––––––––––––––
Analyzed: David Bowie / Young Americans
––––––––––––––––––––––––––––––––––––––––

DR Peak RMS Duration Track
––––––––––––––––––––––––––––––––––––––––
DR10 -0.27 dB -11.91 dB 5:14 01-Young Americans
DR11 -0.31 dB -13.89 dB 4:48 02-Win
DR11 -0.30 dB -12.82 dB 5:48 03-Fascination
DR11 -0.29 dB -13.53 dB 4:23 04-Right
DR9 -0.28 dB -11.33 dB 6:36 05-Somebody Up There Likes Me
DR9 -0.56 dB -11.73 dB 4:34 06-Across The Universe
DR10 -0.29 dB -12.72 dB 5:09 07-Can You Hear Me
DR12 -0.28 dB -13.94 dB 4:21 08-Fame
––––––––––––––––––––––––––––––––––––––––

Number of tracks: 8
Official DR value: DR10

Samplerate: 44100 Hz
Channels: 2
Bits per sample: 16
Bitrate: 861 kbps
Codec: FLAC
================================================================================



[CUETools log; Date: 13.10.2016 17:45:57; Version: 2.1.4]
[CTDB TOCID: vG1ZEIQH7q71KiJLcILCXxa7pI4-] found.
Track | CTDB Status
1 | (36/36) Accurately ripped
2 | (35/36) Accurately ripped
3 | (36/36) Accurately ripped
4 | (36/36) Accurately ripped
5 | (36/36) Accurately ripped
6 | (36/36) Accurately ripped
7 | (36/36) Accurately ripped
8 | (36/36) Accurately ripped
[AccurateRip ID: 000cd50b-005585dc-57099408] found.
Track [ CRC | V2 ] Status
01 [67b92249|3fab111a] (0+3/3) Accurately ripped
02 [6d46b2c3|b253d256] (0+3/3) Accurately ripped
03 [241cd0c3|3b85ec25] (0+3/3) Accurately ripped
04 [cee2cce5|ec97ea5d] (0+3/3) Accurately ripped
05 [09890e3d|f907bb08] (0+3/3) Accurately ripped
06 [2aeb86b6|ed10993f] (0+3/3) Accurately ripped
07 [80990348|a6038687] (0+3/3) Accurately ripped
08 [faa1dfbc|0e02ad56] (0+3/3) Accurately ripped

Track Peak [ CRC32 ] [W/O NULL] [ LOG ]
– 96,8 [716E4A17] [8710DAAD] CRC32
01 96,8 [F6BA83B2] [6EADE4E4]
02 96,4 [CAFE158A] [43C49FBB]
03 96,6 [830BC9CE] [26476F8F]
04 96,6 [237DE860] [51D4740C]
05 96,7 [0BA02120] [19C9AD80]
06 93,8 [0E416D6F] [B9D9B8F7]
07 96,6 [3AC06FB4] [57BC5A93]
08 96,8 [0787370C] [1E678890]


David Bowie - Who Can I Be Now? 1974-1976 (2016) [12CD Box Set] Re-up

Tracklist CD8 - 1976 Station To Station:

01 Station To Station
02 Golden Years
03 Word On A Wing
04 TVC15
05 Stay
06 Wild Is The Wind

Exact Audio Copy V1.1 from 23. June 2015

EAC extraction logfile from 7. October 2016, 19:28

David Bowie / Station To Station

Used drive : PLEXTOR BD-R PX-B950SA Adapter: 1 ID: 1

Read mode : Secure
Utilize accurate stream : Yes
Defeat audio cache : Yes
Make use of C2 pointers : No

Read offset correction : 6
Overread into Lead-In and Lead-Out : No
Fill up missing offset samples with silence : Yes
Delete leading and trailing silent blocks : No
Null samples used in CRC calculations : Yes
Used interface : Native Win32 interface for Win NT & 2000

Used output format : Internal WAV Routines
Sample format : 44.100 Hz; 16 Bit; Stereo


TOC of the extracted CD

Track | Start | Length | Start sector | End sector
––––––––––––––––––––––––––––-
1 | 0:00.00 | 10:17.54 | 0 | 46328
2 | 10:17.54 | 4:03.21 | 46329 | 64574
3 | 14:21.00 | 6:04.71 | 64575 | 91945
4 | 20:25.71 | 5:35.26 | 91946 | 117096
5 | 26:01.22 | 6:16.68 | 117097 | 145364
6 | 32:18.15 | 6:06.27 | 145365 | 172841


Range status and errors

Selected range

Filename C:\Users\Meijin\Desktop\ALLexxess\David Bowie\2016 Who Can I Be Now 1974-1976 (12CD Box Set Parlophone Records)\1976 Station To Station\David Bowie - Station To Station.wav

Peak level 85.6 %
Extraction speed 6.6 X
Range quality 100.0 %
Test CRC 4B63BE5D
Copy CRC 4B63BE5D
Copy OK

No errors occurred


AccurateRip summary

Track 1 accurately ripped (confidence 3) [72123A6F] (AR v2)
Track 2 accurately ripped (confidence 3) [8215626A] (AR v2)
Track 3 accurately ripped (confidence 3) [02328F6A] (AR v2)
Track 4 accurately ripped (confidence 3) [BC80A941] (AR v2)
Track 5 accurately ripped (confidence 3) [1E040DB6] (AR v2)
Track 6 accurately ripped (confidence 3) [76D731A5] (AR v2)

All tracks accurately ripped

End of status report

–– CUETools DB Plugin V2.1.6

[CTDB TOCID: 9cPRIoYt.IPFLHwt.ZJwR61m8R0-] found
Submit result: 9cPRIoYt.IPFLHwt.ZJwR61m8R0- has been confirmed
Track | CTDB Status
1 | (30/30) Accurately ripped
2 | (30/30) Accurately ripped
3 | (30/30) Accurately ripped
4 | (30/30) Accurately ripped
5 | (30/30) Accurately ripped
6 | (30/30) Accurately ripped


==== Log checksum 5AC3FF9764F5A015EBCDE6FB6F97B70866153DD9FCF09AA5CB8A0089D2081BCA ====


foobar2000 1.2.9 / Dynamic Range Meter 1.1.1
log date: 2016-10-13 17:46:17

––––––––––––––––––––––––––––––––––––––––
Analyzed: David Bowie / Station To Station
––––––––––––––––––––––––––––––––––––––––

DR Peak RMS Duration Track
––––––––––––––––––––––––––––––––––––––––
DR11 -1.35 dB -15.42 dB 10:18 01-Station To Station
DR11 -1.39 dB -13.88 dB 4:03 02-Golden Years
DR11 -1.37 dB -14.23 dB 6:05 03-Word On A Wing
DR10 -1.39 dB -14.43 dB 5:35 04-TVC15
DR10 -1.37 dB -13.44 dB 6:17 05-Stay
DR11 -1.40 dB -15.07 dB 6:06 06-Wild Is The Wind
––––––––––––––––––––––––––––––––––––––––

Number of tracks: 6
Official DR value: DR11

Samplerate: 44100 Hz
Channels: 2
Bits per sample: 16
Bitrate: 849 kbps
Codec: FLAC
================================================================================



[CUETools log; Date: 13.10.2016 17:46:09; Version: 2.1.4]
[CTDB TOCID: 9cPRIoYt.IPFLHwt.ZJwR61m8R0-] found.
Track | CTDB Status
1 | (35/35) Accurately ripped
2 | (35/35) Accurately ripped
3 | (35/35) Accurately ripped
4 | (35/35) Accurately ripped
5 | (35/35) Accurately ripped
6 | (34/35) Accurately ripped
[AccurateRip ID: 0009bcca-0032af89-4c090006] found.
Track [ CRC | V2 ] Status
01 [c6192df4|72123a6f] (0+3/3) Accurately ripped
02 [bba3e554|8215626a] (0+3/3) Accurately ripped
03 [5458a183|02328f6a] (0+3/3) Accurately ripped
04 [e1bf7a03|bc80a941] (0+3/3) Accurately ripped
05 [dc1a75cc|1e040db6] (0+3/3) Accurately ripped
06 [bbf5e7ce|76d731a5] (0+3/3) Accurately ripped

Track Peak [ CRC32 ] [W/O NULL] [ LOG ]
– 85,6 [4B63BE5D] [C1CF89B6] CRC32
01 85,6 [68E883AF] [FDD81B51]
02 85,1 [53B6D2BF] [567FA0E4]
03 85,3 [88FEDC2C] [D3B3EFCD]
04 85,1 [68687DF0] [314111E2]
05 85,3 [849837C4] [A5A72BFF]
06 85,1 [54E2B9F2] [3146DBE7]


David Bowie - Who Can I Be Now? 1974-1976 (2016) [12CD Box Set] Re-up

Tracklist CD9 - 1976 Station To Station (Harry Maslin 2010 Mix):

01 Station To Station
02 Golden Years
03 Word On A Wing
04 TVC15
05 Stay
06 Wild Is The Wind

Exact Audio Copy V1.1 from 23. June 2015

EAC extraction logfile from 7. October 2016, 16:38

David Bowie / Station To Station (Harry Maslin 2010 Mix)

Used drive : PLEXTOR BD-R PX-B950SA Adapter: 1 ID: 1

Read mode : Secure
Utilize accurate stream : Yes
Defeat audio cache : Yes
Make use of C2 pointers : No

Read offset correction : 6
Overread into Lead-In and Lead-Out : No
Fill up missing offset samples with silence : Yes
Delete leading and trailing silent blocks : No
Null samples used in CRC calculations : Yes
Used interface : Native Win32 interface for Win NT & 2000

Used output format : Internal WAV Routines
Sample format : 44.100 Hz; 16 Bit; Stereo


TOC of the extracted CD

Track | Start | Length | Start sector | End sector
––––––––––––––––––––––––––––-
1 | 0:00.00 | 10:18.39 | 0 | 46388
2 | 10:18.39 | 4:03.35 | 46389 | 64648
3 | 14:21.74 | 5:55.51 | 64649 | 91324
4 | 20:17.50 | 5:33.01 | 91325 | 116300
5 | 25:50.51 | 6:15.31 | 116301 | 144456
6 | 32:06.07 | 6:07.20 | 144457 | 172001


Range status and errors

Selected range

Filename C:\Users\Meijin\Desktop\ALLexxess\David Bowie\2016 Who Can I Be Now 1974-1976 (12CD Box Set Parlophone Records)\1976 Station To Station (Harry Maslin 2010 Mix)\David Bowie - Station To Station (Harry Maslin 2010 Mix).wav

Peak level 84.1 %
Extraction speed 6.6 X
Range quality 100.0 %
Test CRC 658D4DFD
Copy CRC 658D4DFD
Copy OK

No errors occurred


AccurateRip summary

Track 1 accurately ripped (confidence 3) [74142138] (AR v2)
Track 2 accurately ripped (confidence 3) [7B0E34DC] (AR v2)
Track 3 accurately ripped (confidence 3) [71DF22B5] (AR v2)
Track 4 accurately ripped (confidence 3) [AD0C18A8] (AR v2)
Track 5 accurately ripped (confidence 3) [26E9B571] (AR v2)
Track 6 accurately ripped (confidence 3) [47FAD5E6] (AR v2)

All tracks accurately ripped

End of status report

–– CUETools DB Plugin V2.1.6

[CTDB TOCID: JVU7vl6O8Xao0pR7kJbUgoJ0iHQ-] found
Submit result: JVU7vl6O8Xao0pR7kJbUgoJ0iHQ- has been confirmed
Track | CTDB Status
1 | (31/32) Accurately ripped
2 | (32/32) Accurately ripped
3 | (32/32) Accurately ripped
4 | (32/32) Accurately ripped
5 | (32/32) Accurately ripped
6 | (32/32) Accurately ripped


==== Log checksum F8AE93EEEB488B8E59824215D88D062EF2B5350C07F44B8A0390334584ECA865 ====


foobar2000 1.2.9 / Dynamic Range Meter 1.1.1
log date: 2016-10-13 17:46:30

––––––––––––––––––––––––––––––––––––––––
Analyzed: David Bowie / Station To Station (Harry Maslin 2010 Mix)
––––––––––––––––––––––––––––––––––––––––

DR Peak RMS Duration Track
––––––––––––––––––––––––––––––––––––––––
DR8 -1.88 dB -12.87 dB 10:19 01-Station To Station
DR9 -1.50 dB -12.40 dB 4:03 02-Golden Years
DR7 -2.04 dB -11.51 dB 5:56 03-Word On A Wing
DR7 -2.51 dB -11.17 dB 5:33 04-TVC15
DR8 -2.54 dB -11.81 dB 6:15 05-Stay
DR7 -2.74 dB -12.15 dB 6:07 06-Wild Is The Wind
––––––––––––––––––––––––––––––––––––––––

Number of tracks: 6
Official DR value: DR8

Samplerate: 44100 Hz
Channels: 2
Bits per sample: 16
Bitrate: 970 kbps
Codec: FLAC
================================================================================



[CUETools log; Date: 13.10.2016 17:46:22; Version: 2.1.4]
[CTDB TOCID: JVU7vl6O8Xao0pR7kJbUgoJ0iHQ-] found.
Track | CTDB Status
1 | (36/37) Accurately ripped
2 | (37/37) Accurately ripped
3 | (37/37) Accurately ripped
4 | (37/37) Accurately ripped
5 | (37/37) Accurately ripped
6 | (37/37) Accurately ripped
[AccurateRip ID: 0009b0f3-00326b5f-4908f506] found.
Track [ CRC | V2 ] Status
01 [59ac428c|74142138] (0+3/3) Accurately ripped
02 [c7ebdf54|7b0e34dc] (0+3/3) Accurately ripped
03 [7f6a00e7|71df22b5] (0+3/3) Accurately ripped
04 [97943b0f|ad0c18a8] (0+3/3) Accurately ripped
05 [2b7a75b1|26e9b571] (0+3/3) Accurately ripped
06 [eaa50a0b|47fad5e6] (0+3/3) Accurately ripped

Track Peak [ CRC32 ] [W/O NULL] [ LOG ]
– 84,1 [658D4DFD] [DE2C9883] CRC32
01 80,5 [02A65BDA] [788B7FBE]
02 84,1 [996B6C34] [812A7E89]
03 79,0 [40BE5819] [17D7DB98]
04 74,9 [1B9CB04B] [82C1510A]
05 74,6 [153FD9AF] [71E9B60E]
06 72,9 [3672DC06] [31A8CE98]


David Bowie - Who Can I Be Now? 1974-1976 (2016) [12CD Box Set] Re-up

Tracklist CD10 - 1983 Live Nassau Coliseum ’76 CD1:

01 Station To Station
02 Suffragette City
03 Fame
04 Word On A Wing
05 Stay
06 Waiting For The Man
07 Queen Bitch

Exact Audio Copy V1.1 from 23. June 2015

EAC extraction logfile from 6. October 2016, 20:40

David Bowie / Live Nassau Coliseum '76 CD1

Used drive : PLEXTOR BD-R PX-B950SA Adapter: 1 ID: 1

Read mode : Secure
Utilize accurate stream : Yes
Defeat audio cache : Yes
Make use of C2 pointers : No

Read offset correction : 6
Overread into Lead-In and Lead-Out : No
Fill up missing offset samples with silence : Yes
Delete leading and trailing silent blocks : No
Null samples used in CRC calculations : Yes
Used interface : Native Win32 interface for Win NT & 2000

Used output format : Internal WAV Routines
Sample format : 44.100 Hz; 16 Bit; Stereo


TOC of the extracted CD

Track | Start | Length | Start sector | End sector
––––––––––––––––––––––––––––-
1 | 0:00.00 | 11:52.59 | 0 | 53458
2 | 11:52.59 | 3:30.56 | 53459 | 69264
3 | 15:23.40 | 3:58.64 | 69265 | 87178
4 | 19:22.29 | 6:04.68 | 87179 | 114546
5 | 25:27.22 | 7:24.71 | 114547 | 147917
6 | 32:52.18 | 6:19.58 | 147918 | 176400
7 | 39:12.01 | 3:11.30 | 176401 | 190755


Range status and errors

Selected range

Filename C:\Users\Meijin\Desktop\ALLexxess\David Bowie\2016 Who Can I Be Now 1974-1976 (12CD Box Set Parlophone Records)\1983 Live Nassau Coliseum '76 2CD\CD1\David Bowie - Live Nassau Coliseum '76 CD1.wav

Peak level 99.6 %
Extraction speed 7.0 X
Range quality 100.0 %
Test CRC 468B6661
Copy CRC 468B6661
Copy OK

No errors occurred


AccurateRip summary

Track 1 accurately ripped (confidence 14) [BA643203] (AR v2)
Track 2 accurately ripped (confidence 14) [74813CAA] (AR v2)
Track 3 accurately ripped (confidence 14) [1F8C48A9] (AR v2)
Track 4 accurately ripped (confidence 14) [A53B3907] (AR v2)
Track 5 accurately ripped (confidence 14) [62904F27] (AR v2)
Track 6 accurately ripped (confidence 14) [A984E849] (AR v2)
Track 7 accurately ripped (confidence 14) [E3A73C99] (AR v2)

All tracks accurately ripped

End of status report

–– CUETools DB Plugin V2.1.6

[CTDB TOCID: u3llupjbgKTJq5oIMhvLFfWnpJM-] found
Submit result: u3llupjbgKTJq5oIMhvLFfWnpJM- has been confirmed
Track | CTDB Status
1 | (147/150) Accurately ripped
2 | (148/150) Accurately ripped
3 | (148/150) Accurately ripped
4 | (148/150) Accurately ripped
5 | (148/150) Accurately ripped
6 | (148/150) Accurately ripped
7 | (148/150) Accurately ripped


==== Log checksum A4AFFCFB22EA01D9175F44DC54ADCA62A38B668F1B15AAB99C9404725F9EF211 ====


foobar2000 1.2.9 / Dynamic Range Meter 1.1.1
log date: 2016-10-13 17:46:44

––––––––––––––––––––––––––––––––––––––––
Analyzed: David Bowie / Live Nassau Coliseum '76 CD1
––––––––––––––––––––––––––––––––––––––––

DR Peak RMS Duration Track
––––––––––––––––––––––––––––––––––––––––
DR6 -0.10 dB -8.04 dB 11:53 01-Station To Station
DR5 -0.10 dB -6.54 dB 3:31 02-Suffragette City
DR7 -0.03 dB -8.45 dB 3:59 03-Fame
DR7 -0.10 dB -8.55 dB 6:05 04-Word On A Wing
DR6 -0.10 dB -6.91 dB 7:25 05-Stay
DR6 -0.10 dB -7.26 dB 6:20 06-Waiting For The Man
DR6 -0.10 dB -7.47 dB 3:11 07-Queen Bitch
––––––––––––––––––––––––––––––––––––––––

Number of tracks: 7
Official DR value: DR6

Samplerate: 44100 Hz
Channels: 2
Bits per sample: 16
Bitrate: 1023 kbps
Codec: FLAC
================================================================================



[CUETools log; Date: 13.10.2016 17:46:36; Version: 2.1.4]
[CTDB TOCID: u3llupjbgKTJq5oIMhvLFfWnpJM-] found.
Track | CTDB Status
1 | (150/153) Accurately ripped
2 | (151/153) Accurately ripped
3 | (151/153) Accurately ripped
4 | (151/153) Accurately ripped
5 | (151/153) Accurately ripped
6 | (151/153) Accurately ripped
7 | (151/153) Accurately ripped
[AccurateRip ID: 000ccf65-004a8830-5e09ef07] found.
Track [ CRC | V2 ] Status
01 [9dfe4e05|ba643203] (010+018/202) Accurately ripped
02 [b73ca915|74813caa] (011+018/203) Accurately ripped
03 [3565f305|1f8c48a9] (010+018/202) Accurately ripped
04 [dcef4a70|a53b3907] (010+018/202) Accurately ripped
05 [9dc4e19b|62904f27] (010+018/201) Accurately ripped
06 [55183bb3|a984e849] (010+018/202) Accurately ripped
07 [dc0d1a6b|e3a73c99] (010+018/202) Accurately ripped
Offsetted by 12:
01 [1f92c8e9] (051/202) Accurately ripped
02 [c7a20bca] (051/203) Accurately ripped
03 [d97fc41c] (051/202) Accurately ripped
04 [65ed7402] (051/202) Accurately ripped
05 [6e83718f] (051/201) Accurately ripped
06 [dd605cca] (051/202) Accurately ripped
07 [34dcf95e] (051/202) Accurately ripped

Track Peak [ CRC32 ] [W/O NULL] [ LOG ]
– 99,6 [468B6661] [09A16B01] CRC32
01 98,8 [E9090F79] [6B000C5D]
02 98,8 [619D6911] [004F0353]
03 99,6 [E936FFC0] [0A6EA803]
04 98,8 [0E6E4306] [5AED6FC5]
05 98,8 [A7A005DE] [16E3E32B]
06 98,8 [58A7B1A4] [72346DDA]
07 98,8 [76F772BD] [2F95B499]


Tracklist CD11 - 1983 Live Nassau Coliseum ’76 CD2:

01 Life On Mars?
02 Five Years
03 Panic In Detroit
04 Changes
05 TVC15
06 Diamond Dogs
07 Rebel Rebel
08 The Jean Genie

Exact Audio Copy V1.1 from 23. June 2015

EAC extraction logfile from 6. October 2016, 20:02

David Bowie / Live Nassau Coliseum '76 CD2

Used drive : PLEXTOR BD-R PX-B950SA Adapter: 1 ID: 1

Read mode : Secure
Utilize accurate stream : Yes
Defeat audio cache : Yes
Make use of C2 pointers : No

Read offset correction : 6
Overread into Lead-In and Lead-Out : No
Fill up missing offset samples with silence : Yes
Delete leading and trailing silent blocks : No
Null samples used in CRC calculations : Yes
Used interface : Native Win32 interface for Win NT & 2000

Used output format : Internal WAV Routines
Sample format : 44.100 Hz; 16 Bit; Stereo


TOC of the extracted CD

Track | Start | Length | Start sector | End sector
––––––––––––––––––––––––––––-
1 | 0:00.00 | 2:13.01 | 0 | 9975
2 | 2:13.01 | 5:04.21 | 9976 | 32796
3 | 7:17.22 | 6:02.30 | 32797 | 59976
4 | 13:19.52 | 4:10.71 | 59977 | 78797
5 | 17:30.48 | 4:57.55 | 78798 | 101127
6 | 22:28.28 | 6:38.36 | 101128 | 131013
7 | 29:06.64 | 4:06.26 | 131014 | 149489
8 | 33:13.15 | 7:25.53 | 149490 | 182917


Range status and errors

Selected range

Filename C:\Users\Meijin\Desktop\ALLexxess\David Bowie\2016 Who Can I Be Now 1974-1976 (12CD Box Set Parlophone Records)\1983 Live Nassau Coliseum ’76 2CD\CD2\David Bowie - Live Nassau Coliseum '76 CD2.wav

Peak level 98.8 %
Extraction speed 6.7 X
Range quality 100.0 %
Test CRC 7F1E3AD1
Copy CRC 7F1E3AD1
Copy OK

No errors occurred


AccurateRip summary

Track 1 cannot be verified as accurate (confidence 120) [4BCE286A], AccurateRip returned [4DA0FBBA] (AR v2)
Track 2 cannot be verified as accurate (confidence 111) [2348B3A5], AccurateRip returned [588A8BC1] (AR v2)
Track 3 cannot be verified as accurate (confidence 117) [6A5BBF1B], AccurateRip returned [FB5CCD5C] (AR v2)
Track 4 cannot be verified as accurate (confidence 120) [84A5391A], AccurateRip returned [FCE60810] (AR v2)
Track 5 cannot be verified as accurate (confidence 112) [CAB6FE42], AccurateRip returned [43BD48FC] (AR v2)
Track 6 cannot be verified as accurate (confidence 110) [0ACC3742], AccurateRip returned [79779F6B] (AR v2)
Track 7 cannot be verified as accurate (confidence 112) [E149F675], AccurateRip returned [054C17AF] (AR v2)
Track 8 cannot be verified as accurate (confidence 111) [2185FE12], AccurateRip returned [524B4F6E] (AR v2)

No tracks could be verified as accurate
You may have a different pressing from the one(s) in the database

End of status report

–– CUETools DB Plugin V2.1.6

[CTDB TOCID: hBovCXDJ3crWQY2Q0FUnbuOeUSg-] found
Submit result: hBovCXDJ3crWQY2Q0FUnbuOeUSg- has been confirmed
Track | CTDB Status
1 | (144/147) Accurately ripped
2 | (142/147) Accurately ripped
3 | (145/147) Accurately ripped
4 | (145/147) Accurately ripped
5 | (142/147) Accurately ripped
6 | (142/147) Accurately ripped
7 | (142/147) Accurately ripped
8 | (142/147) Accurately ripped


==== Log checksum 516E69E7A748C0C8071A9BF35544FCE2775F8A1C1350CD6743B2CB42B40F4A39 ====


foobar2000 1.2.9 / Dynamic Range Meter 1.1.1
log date: 2016-10-13 17:46:57

––––––––––––––––––––––––––––––––––––––––
Analyzed: David Bowie / Live Nassau Coliseum '76 CD2
––––––––––––––––––––––––––––––––––––––––

DR Peak RMS Duration Track
––––––––––––––––––––––––––––––––––––––––
DR8 -0.10 dB -11.12 dB 2:13 01-Life On Mars?
DR7 -0.10 dB -9.08 dB 5:04 02-Five Years
DR9 -0.10 dB -10.65 dB 6:02 03-Panic In Detroit
DR7 -0.10 dB -10.52 dB 4:11 04-Changes
DR7 -0.10 dB -8.71 dB 4:58 05-TVC15
DR6 -0.10 dB -7.88 dB 6:38 06-Diamond Dogs
DR6 -0.10 dB -6.60 dB 4:06 07-Rebel Rebel
DR6 -0.10 dB -7.81 dB 7:26 08-The Jean Genie
––––––––––––––––––––––––––––––––––––––––

Number of tracks: 8
Official DR value: DR7

Samplerate: 44100 Hz
Channels: 2
Bits per sample: 16
Bitrate: 939 kbps
Codec: FLAC
================================================================================



[CUETools log; Date: 13.10.2016 17:46:49; Version: 2.1.4]
[CTDB TOCID: hBovCXDJ3crWQY2Q0FUnbuOeUSg-] found.
Track | CTDB Status
1 | (147/150) Accurately ripped
2 | (145/150) Accurately ripped
3 | (148/150) Accurately ripped
4 | (148/150) Accurately ripped
5 | (145/150) Accurately ripped
6 | (145/150) Accurately ripped
7 | (145/150) Accurately ripped
8 | (145/150) Accurately ripped
[AccurateRip ID: 000b6272-004e1952-61098608] found.
Track [ CRC | V2 ] Status
01 [d8d0ea51|4bce286a] (000+003/199) Accurately ripped
02 [c82db494|2348b3a5] (000+003/190) Accurately ripped
03 [974094fb|6a5bbf1b] (000+003/198) Accurately ripped
04 [8ede4ce2|84a5391a] (000+003/199) Accurately ripped
05 [28adbb12|cab6fe42] (000+003/191) Accurately ripped
06 [1741cd62|0acc3742] (000+003/188) Accurately ripped
07 [5e069db2|e149f675] (000+003/188) Accurately ripped
08 [26717c3d|2185fe12] (000+003/189) Accurately ripped
Offsetted by -6:
01 [3a952852] (010/199) Accurately ripped
02 [2a9ec047] (010/190) Accurately ripped
03 [606e108c] (010/198) Accurately ripped
04 [d5aefb8d] (010/199) Accurately ripped
05 [704ab854] (010/191) Accurately ripped
06 [cd01c441] (010/188) Accurately ripped
07 [d5f69078] (010/188) Accurately ripped
08 [e5a77c88] (011/189) Accurately ripped
Offsetted by 6:
01 [d9a26922] (050/199) Accurately ripped
02 [ff92d543] (050/190) Accurately ripped
03 [25981a9b] (050/198) Accurately ripped
04 [0712090f] (050/199) Accurately ripped
05 [a276b92c] (050/191) Accurately ripped
06 [88c8a7fd] (049/188) Accurately ripped
07 [83798994] (047/188) Accurately ripped
08 [5aac9087] (048/189) Accurately ripped

Track Peak [ CRC32 ] [W/O NULL] [ LOG ]
– 98,8 [7F1E3AD1] [B5D1217A] CRC32
01 98,8 [CDEF3B57] [36A06FA8]
02 98,8 [AC1A7412] [1A2B7DA8]
03 98,8 [F9158CF3] [77B4522B]
04 98,8 [2E4A54A2] [72C33CEB]
05 98,8 [AB44BD73] [DD5DEEAC]
06 98,8 [385B7CAC] [F8F75E27]
07 98,8 [6EFA6ACE] [D059FBCB]
08 98,8 [E6D746F9] [23A02BA4]


David Bowie - Who Can I Be Now? 1974-1976 (2016) [12CD Box Set] Re-up

Tracklist CD12 - 2016 Re:Call 2:

01 Rebel Rebel (Original Single Mix)
02 Diamond Dogs (Australian Single Edit)
03 Rebel Rebel (US Single Version)
04 Rock 'N' Roll With Me (Live / Promotional Single Edit)
05 Panic In Detroit (Live)
06 Young Americans (Original Single Edit)
07 Fame (Single Edit)
08 Golden Years (Single Edit)
09 Station To Station (Single Edit)
10 TVC15 (Single Edit)
11 Stay (Single Edit)
12 Word On A Wing (Single Edit)
13 John, I'm Only Dancing (Again) (1975) (Single Version)

Exact Audio Copy V1.1 from 23. June 2015

EAC extraction logfile from 6. October 2016, 19:22

David Bowie / Re:Call 2

Used drive : PLEXTOR BD-R PX-B950SA Adapter: 1 ID: 1

Read mode : Secure
Utilize accurate stream : Yes
Defeat audio cache : Yes
Make use of C2 pointers : No

Read offset correction : 6
Overread into Lead-In and Lead-Out : No
Fill up missing offset samples with silence : Yes
Delete leading and trailing silent blocks : No
Null samples used in CRC calculations : Yes
Used interface : Native Win32 interface for Win NT & 2000

Used output format : Internal WAV Routines
Sample format : 44.100 Hz; 16 Bit; Stereo


TOC of the extracted CD

Track | Start | Length | Start sector | End sector
––––––––––––––––––––––––––––-
1 | 0:00.00 | 4:23.32 | 0 | 19756
2 | 4:23.32 | 3:00.65 | 19757 | 33321
3 | 7:24.22 | 3:00.56 | 33322 | 46877
4 | 10:25.03 | 3:29.69 | 46878 | 62621
5 | 13:54.72 | 5:49.01 | 62622 | 88797
6 | 19:43.73 | 3:17.21 | 88798 | 103593
7 | 23:01.19 | 3:34.35 | 103594 | 119678
8 | 26:35.54 | 3:29.05 | 119679 | 135358
9 | 30:04.59 | 3:41.24 | 135359 | 151957
10 | 33:46.08 | 3:36.15 | 151958 | 168172
11 | 37:22.23 | 3:22.45 | 168173 | 183367
12 | 40:44.68 | 3:14.23 | 183368 | 197940
13 | 43:59.16 | 3:26.55 | 197941 | 213445


Range status and errors

Selected range

Filename C:\Users\Meijin\Desktop\ALLexxess\David Bowie\2016 Who Can I Be Now 1974-1976 (12CD Box Set Parlophone Records)\2016 Re-Call 2\David Bowie - Re-Call 2.wav

Peak level 80.0 %
Extraction speed 7.0 X
Range quality 100.0 %
Test CRC 4C905417
Copy CRC 4C905417
Copy OK

No errors occurred


AccurateRip summary

Track 1 not present in database
Track 2 not present in database
Track 3 not present in database
Track 4 not present in database
Track 5 not present in database
Track 6 not present in database
Track 7 not present in database
Track 8 not present in database
Track 9 not present in database
Track 10 not present in database
Track 11 not present in database
Track 12 not present in database
Track 13 not present in database

None of the tracks are present in the AccurateRip database

End of status report

–– CUETools DB Plugin V2.1.6

[CTDB TOCID: CeLO0440CC9sqq0Y1hSCK7fEpdI-] found
Submit result: CeLO0440CC9sqq0Y1hSCK7fEpdI- has been confirmed
Track | CTDB Status
1 | (33/33) Accurately ripped
2 | (33/33) Accurately ripped
3 | (33/33) Accurately ripped
4 | (33/33) Accurately ripped
5 | (33/33) Accurately ripped
6 | (33/33) Accurately ripped
7 | (33/33) Accurately ripped
8 | (33/33) Accurately ripped
9 | (33/33) Accurately ripped
10 | (33/33) Accurately ripped
11 | (33/33) Accurately ripped
12 | (33/33) Accurately ripped
13 | (32/33) Accurately ripped


==== Log checksum 87F1157844051B5F3FF11E85588087C229EBE5BDEC13B251F3BD4604C1606C7E ====


foobar2000 1.2.9 / Dynamic Range Meter 1.1.1
log date: 2016-10-13 17:47:16

––––––––––––––––––––––––––––––––––––––––
Analyzed: David Bowie / Re:Call 2
––––––––––––––––––––––––––––––––––––––––

DR Peak RMS Duration Track
––––––––––––––––––––––––––––––––––––––––
DR13 -3.53 dB -18.31 dB 4:23 01-Rebel Rebel (Original Single Mix)
DR13 -2.07 dB -17.68 dB 3:01 02-Diamond Dogs (Australian Single Edit)
DR12 -4.13 dB -17.78 dB 3:01 03-Rebel Rebel (U.S. Single Version)
DR12 -3.35 dB -18.52 dB 3:30 04-Rock 'N' Roll With Me (Live / Promotional Single Edit)
DR13 -2.54 dB -17.16 dB 5:49 05-Panic In Detroit (Live)
DR13 -2.40 dB -18.23 dB 3:17 06-Young Americans (Original Single Edit)
DR12 -4.06 dB -18.57 dB 3:34 07-Fame (Original Single Edit)
DR15 -1.98 dB -18.90 dB 3:29 08-Golden Years (Single Version)
DR12 -3.60 dB -16.79 dB 3:41 09-Station To Station (Original Single Version)
DR13 -2.23 dB -18.77 dB 3:36 10-TVC 15 (Original Single Version)
DR12 -2.69 dB -17.07 dB 3:23 11-Stay (Original Single Version)
DR12 -3.80 dB -18.71 dB 3:14 12-Word On A Wing (Original Single Version)
DR13 -1.94 dB -17.87 dB 3:27 13-John, I'm Only Dancing (Again) (1975) (Single Version)
––––––––––––––––––––––––––––––––––––––––

Number of tracks: 13
Official DR value: DR13

Samplerate: 44100 Hz
Channels: 2
Bits per sample: 16
Bitrate: 820 kbps
Codec: FLAC
================================================================================



[CUETools log; Date: 13.10.2016 17:47:06; Version: 2.1.4]
[CTDB TOCID: CeLO0440CC9sqq0Y1hSCK7fEpdI-] found.
Track | CTDB Status
1 | (38/38) Accurately ripped
2 | (38/38) Accurately ripped
3 | (38/38) Accurately ripped
4 | (38/38) Accurately ripped
5 | (38/38) Accurately ripped
6 | (38/38) Accurately ripped
7 | (38/38) Accurately ripped
8 | (38/38) Accurately ripped
9 | (38/38) Accurately ripped
10 | (38/38) Accurately ripped
11 | (38/38) Accurately ripped
12 | (38/38) Accurately ripped
13 | (37/38) Accurately ripped
[AccurateRip ID: 0017449f-00e802e0-b50b1d0d] found.
Track [ CRC | V2 ] Status
01 [439d4fd8|0300c1a3] (0+3/3) Accurately ripped
02 [2b49f122|fab148c5] (0+3/3) Accurately ripped
03 [93c5f18a|d5cec503] (0+3/3) Accurately ripped
04 [6cdf6d53|268d1595] (0+3/3) Accurately ripped
05 [63b0eef3|0f39c4bd] (0+3/3) Accurately ripped
06 [de437244|d6ce8551] (0+3/3) Accurately ripped
07 [5a040f01|df529826] (0+3/3) Accurately ripped
08 [f0a49104|b20c0ae1] (0+3/3) Accurately ripped
09 [cdc59355|9c47bf12] (0+3/3) Accurately ripped
10 [ea38f94d|fe26dfab] (0+3/3) Accurately ripped
11 [d3e2f0cb|96af423d] (0+3/3) Accurately ripped
12 [fe11db9c|6626eeda] (0+3/3) Accurately ripped
13 [84ec5033|7f6200c3] (0+3/3) Accurately ripped

Track Peak [ CRC32 ] [W/O NULL] [ LOG ]
– 80,0 [4C905417] [05FA8C96] CRC32
01 66,6 [0CAA7BAE] [46482FEA]
02 78,8 [E26776FB] [AA22046D]
03 62,1 [2369E9D1] [CDC4AFFC]
04 68,0 [C51C2113] [883BFCD4]
05 74,6 [8ADD283E] [EBE451A0]
06 75,8 [22DC54B7] [DD295B25]
07 62,6 [8843551C] [6AC9784A]
08 79,5 [55989967] [C0CFCC72]
09 66,0 [C8B21E54] [C54F748E]
10 77,3 [03DA25DF] [3F78B525]
11 73,3 [867572A2] [D6AE4CC9]
12 64,5 [DEBA08F3] [F8884EFD]
13 80,0 [11DCE40D] [0C7F52C6]


David Bowie - Who Can I Be Now? 1974-1976 (2016) [12CD Box Set] Re-up

All thanks go to ALLexxess

David Bowie in my Blog

Download David Bowie - Who Can I Be Now? 1974-1976 (2016):