Tags
Language
Tags

David Coverdale - Ballads (1995) Re-up

Posted By: v3122
David Coverdale - Ballads (1995) Re-up

David Coverdale - Ballads (1995)
EAC | Flac(Image) + Cue + Log & MP3 CBR 320Kbps
Bootleg | ADD-047-2 | ~ 526 or 189 Mb | Covers Included
Hard Rock

English rock vocalist and songwriter, most famous for his work with hard rock band Deep Purple, and his later band Whitesnake. He has also worked with former Led Zeppelin guitarist Jimmy Page on the 'Coverdale Page' project.

Born 22nd September 1951, in Saltburn-by-the-Sea, North Yorkshire, England. Father of Jasper Coverdale.

~ discogs
David Coverdale - Ballads (1995):

David Coverdale - Ballads (1995) Re-up

Tracklist:

01. Mistreated [7:27]
02. Soldier Of Fortune [3:13]
03. You Keep On Moving [4:27]
04. Gypsy [4:03]
05. Help Me Thro' The Day [4:36]
06. Blindman [5:06]
07. Love Man [5:03]
08. Crying In The Rain [6:00]
09. Is This Love [4:44]
10. Looking For Love [6:33]
11. Sailing Ships [6:02]
12. Take Me For A Little While [6:17]
13. Don't Leave Me This Way [7:49]
14. We Wish You Well [1:34]
15. Too Many Tears [5:59]

Exact Audio Copy V0.99 prebeta 4 from 23. January 2008

EAC extraction logfile from 21. September 2009, 16:20

David Coverdale / Ballads

Used drive : ASUS DRW-24B3ST Adapter: 0 ID: 0

Read mode : Secure
Utilize accurate stream : Yes
Defeat audio cache : Yes
Make use of C2 pointers : No

Read offset correction : 6
Overread into Lead-In and Lead-Out : No
Fill up missing offset samples with silence : Yes
Delete leading and trailing silent blocks : No
Null samples used in CRC calculations : Yes
Used interface : Native Win32 interface for Win NT & 2000

Used output format : Internal WAV Routines
Sample format : 44.100 Hz; 16 Bit; Stereo


TOC of the extracted CD

Track | Start | Length | Start sector | End sector
––––––––––––––––––––––––––––-
1 | 0:00.00 | 7:27.31 | 0 | 33555
2 | 7:27.31 | 3:13.36 | 33556 | 48066
3 | 10:40.67 | 4:26.50 | 48067 | 68066
4 | 15:07.42 | 4:02.46 | 68067 | 86262
5 | 19:10.13 | 4:35.64 | 86263 | 106951
6 | 23:46.02 | 5:05.44 | 106952 | 129870
7 | 28:51.46 | 5:02.60 | 129871 | 152580
8 | 33:54.31 | 6:00.01 | 152581 | 179581
9 | 39:54.32 | 4:44.30 | 179582 | 200911
10 | 44:38.62 | 6:33.19 | 200912 | 230405
11 | 51:12.06 | 6:02.11 | 230406 | 257566
12 | 57:14.17 | 6:16.48 | 257567 | 285814
13 | 63:30.65 | 7:49.04 | 285815 | 320993
14 | 71:19.69 | 1:34.14 | 320994 | 328057
15 | 72:54.08 | 5:59.30 | 328058 | 355012


Range status and errors

Selected range

Filename E:\WHITESNAKE\David Coverdale - Ballads (EU 1995 ADD-071-2)\David Coverdale - Ballads.wav

Peak level 100.0 %
Range quality 100.0 %
Test CRC D3148856
Copy CRC D3148856
Copy OK

No errors occurred

End of status report

foobar2000 1.2.9 / Dynamic Range Meter 1.1.1
log date: 2017-06-05 11:16:42

––––––––––––––––––––––––––––––––––––––––
Analyzed: David Coverdale / Ballads
––––––––––––––––––––––––––––––––––––––––

DR Peak RMS Duration Track
––––––––––––––––––––––––––––––––––––––––
DR11 0.00 dB -13.53 dB 7:27 01-Mistreated
DR12 0.00 dB -13.97 dB 3:13 02-Soldier Of Fortune
DR12 -0.03 dB -14.81 dB 4:27 03-You Keep On Moving
DR12 -1.26 dB -14.97 dB 4:03 04-Gypsy
DR13 0.00 dB -14.79 dB 4:36 05-Help Me Thro' The Day
DR12 0.00 dB -15.09 dB 5:06 06-Blindman
DR13 0.00 dB -15.04 dB 5:03 07-Love Man
DR13 -0.28 dB -16.56 dB 6:00 08-Crying In The Rain
DR10 0.00 dB -11.90 dB 4:44 09-Is This Love
DR10 -0.52 dB -12.70 dB 6:33 10-Looking For Love
DR13 -0.61 dB -18.49 dB 6:02 11-Sailing Ships
DR10 -0.95 dB -13.53 dB 6:17 12-Take Me For A Little While
DR9 -1.08 dB -13.03 dB 7:49 13-Don't Leave Me This Way
DR12 -4.70 dB -22.80 dB 1:34 14-We Wish You Well
DR8 0.00 dB -9.81 dB 5:59 15-Too Many Tears
––––––––––––––––––––––––––––––––––––––––

Number of tracks: 15
Official DR value: DR11

Samplerate: 44100 Hz
Channels: 2
Bits per sample: 16
Bitrate: 900 kbps
Codec: FLAC

[CUETools log; Date: 05.06.2017 11:16:28; Version: 2.1.4]
[CTDB TOCID: rG7mBWmtVkxGazdmlIUZc6a7JY4-] found.
Track | CTDB Status
1 | (1/1) Accurately ripped
2 | (1/1) Accurately ripped
3 | (1/1) Accurately ripped
4 | (1/1) Accurately ripped
5 | (1/1) Accurately ripped
6 | (1/1) Accurately ripped
7 | (1/1) Accurately ripped
8 | (1/1) Accurately ripped
9 | (1/1) Accurately ripped
10 | (1/1) Accurately ripped
11 | (1/1) Accurately ripped
12 | (1/1) Accurately ripped
13 | (1/1) Accurately ripped
14 | (1/1) Accurately ripped
15 | (1/1) Accurately ripped
[AccurateRip ID: 002a79d8-01e46df3-d5127d0f] disk not present in database.

Track Peak [ CRC32 ] [W/O NULL] [ LOG ]
– 100,0 [D3148856] [A71EABB1] CRC32
01 100,0 [01FF8BA1] [4D3C35D7]
02 100,0 [07E12D0C] [A2D366C3]
03 99,6 [32A9A80B] [357905D4]
04 86,4 [0E089096] [BC412772]
05 100,0 [8C07118F] [04BE086C]
06 100,0 [CBE3D328] [25DAC8CE]
07 100,0 [6AE6F638] [6E221464]
08 96,8 [707C9599] [77B09F16]
09 100,0 [57D33CA4] [14F279AA]
10 94,1 [68A1C56E] [12A76A70]
11 93,1 [0B8DE607] [8D3028A1]
12 89,6 [9387E6B5] [452267D9]
13 88,3 [C8AD8DDF] [3C7B7DBD]
14 58,2 [D28BA47F] [FAAB0577]
15 99,9 [8F0CCE93] [583B2A2A]

David Coverdale - Ballads (1995) Re-up

All thanks go to the original releaser

Whitesnake in my Blog

Download David Coverdale - Ballads (1995):