Subcategories

David Gilmour - About Face (1984) {Non-Remastered} Repost

Posted By: popsakov
David Gilmour - About Face (1984) {Non-Remastered} Repost

David Gilmour - About Face (1984) {Non-Remastered}
EAC Rip | FLAC (Img) + Cue + Log ~ 304 Mb | MP3 CBR320 ~ 131 Mb
Full Scans (JPG, 600 dpi) | RAR 5% Recovery
Art Rock, Progressive Rock | Columbia Records #CK 39296 / DIDP-020086

David Gilmour released his second solo venture in 1984, following the apparent dissolution of Pink Floyd. He had released a record on his own in 1978, but About Face is much more accessible. Gilmour has a stellar band backing him, including Jeff Porcaro (drums), Pino Palladino (bass), and Anne Dudley (synthesizer). The songs on About Face show a pop sensibility that Pink Floyd rarely was concerned with achieving. Although the album didn't attract the attention of a Floyd release, several cuts did manage to get airplay. "Until We Sleep" is rife with shimmering synthesizers and cavernous drums, and "Blue Light" was a minor pop hit, with Gilmour's trademark delay-drenched guitar giving way to a driving, horn-laced rocker. Pete Townshend wrote two of the tracks: "Love on the Air" and the propulsive "All Lovers Are Deranged." Of course, there's more than enough of Gilmour's fluid guitar playing to satisfy, including the gorgeous "Murder," a gentle acoustic track that explodes with some fiery organ by Steve Winwood and concludes with a fierce coda. About Face is well-honed rock album that is riveting from beginning to end.
~ Tom Demalon, All Music

***************

David Gilmour - About Face (1984) {Non-Remastered} Repost

David Gilmour - About Face (1984) {Non-Remastered} Repost

Track List:

01. Until We Sleep [5:16]
02. Murder [4:59]
03. Love On The Air [4:19]
04. Blue Light [4:36]
05. Out Of The Blue [3:36]
06. All Lovers Are Deranged [3:15]
07. You Know I'm Right [5:06]
08. Cruise [4:40]
09. Let's Get Metaphysical [4:10]
10. Near The End [5:36]

Personnel:
David Gilmour – lead vocals; guitar; bass guitar
Jeff Porcaro – drums; percussion
Pino Palladino – bass guitar
Ian Kewley – Hammond organ; piano (not present during "Blue Light" sessions[14])

Additional musicians:
Steve Winwood – Hammond organ on "Blue Light"; piano on "Love on the Air"
Anne Dudley – synthesisers
Jon Lord – synthesiser
Bob Ezrin – keyboards; orchestral arrangement
Steve Rance – Fairlight CMI programming
The Kick Horns – brass
Luís Jardim – percussion
Ray Cooper – percussion
Roy Harper – backing vocals
Sam Brown – backing vocals
Vicki Brown – backing vocals
Mickey Feat – backing vocals
The National Philharmonic Orchestra
Michael Kamen – orchestral arrangement

Exact Audio Copy V1.0 beta 1 from 15. November 2010

EAC extraction logfile from 6. September 2014, 20:11

David Gilmour / About Face

Used drive : MATSHITADVD-RAM UJ8A0AS Adapter: 0 ID: 1

Read mode : Secure
Utilize accurate stream : Yes
Defeat audio cache : Yes
Make use of C2 pointers : No

Read offset correction : 102
Overread into Lead-In and Lead-Out : No
Fill up missing offset samples with silence : Yes
Delete leading and trailing silent blocks : No
Null samples used in CRC calculations : Yes
Used interface : Native Win32 interface for Win NT & 2000

Used output format : Internal WAV Routines
Sample format : 44.100 Hz; 16 Bit; Stereo


TOC of the extracted CD

Track | Start | Length | Start sector | End sector
––––––––––––––––––––––––––––-
1 | 0:00.00 | 5:15.72 | 0 | 23696
2 | 5:15.72 | 4:59.03 | 23697 | 46124
3 | 10:15.00 | 4:19.12 | 46125 | 65561
4 | 14:34.12 | 4:35.63 | 65562 | 86249
5 | 19:10.00 | 3:35.55 | 86250 | 102429
6 | 22:45.55 | 3:14.70 | 102430 | 117049
7 | 26:00.50 | 5:06.22 | 117050 | 140021
8 | 31:06.72 | 4:40.08 | 140022 | 161029
9 | 35:47.05 | 4:09.67 | 161030 | 179771
10 | 39:56.72 | 5:36.08 | 179772 | 204979


Range status and errors

Selected range

Filename C:\Users\Alex\Music\David Gilmour - About Face.wav

Peak level 98.6 %
Extraction speed 0.1 X
Range quality 100.0 %
Test CRC E90F401D
Copy CRC E90F401D
Copy OK

No errors occurred


AccurateRip summary

Track 1 accurately ripped (confidence 4) [EAE30414]
Track 2 accurately ripped (confidence 4) [B4B5C996]
Track 3 accurately ripped (confidence 4) [B222A85A]
Track 4 accurately ripped (confidence 4) [67ECE6DC]
Track 5 accurately ripped (confidence 4) [B8D58633]
Track 6 accurately ripped (confidence 4) [00D9F5B6]
Track 7 accurately ripped (confidence 4) [62460995]
Track 8 accurately ripped (confidence 4) [CF2097EB]
Track 9 accurately ripped (confidence 4) [8BDAF40C]
Track 10 accurately ripped (confidence 4) [E483BD6C]

All tracks accurately ripped

End of status report

==== Log checksum 47CBD1DCC8EB3A895E004B2DCF6BE1B52BA16BE37B282F6484CA35DF3ADC9C54 ====

foobar2000 1.3.16 / Dynamic Range Meter 1.1.1
log date: 2017-12-09 14:26:43

––––––––––––––––––––––––––––––––––––––––
Analyzed: David Gilmour / About Face
––––––––––––––––––––––––––––––––––––––––

DR Peak RMS Duration Track
––––––––––––––––––––––––––––––––––––––––
DR12 -0.12 dB -13.94 dB 5:16 01-Until We Sleep
DR10 -0.14 dB -13.68 dB 4:59 02-Murder
DR11 -0.51 dB -14.29 dB 4:19 03-Love On The Air
DR12 -0.60 dB -14.93 dB 4:36 04-Blue Light
DR11 -1.70 dB -17.92 dB 3:36 05-Out Of The Blue
DR10 -0.28 dB -12.90 dB 3:15 06-All Lovers Are Deranged
DR11 -1.91 dB -15.61 dB 5:06 07-You Know I'm Right
DR13 -0.72 dB -16.75 dB 4:40 08-Cruise
DR12 -0.20 dB -17.53 dB 4:10 09-Let's Get Metaphysical
DR11 -0.74 dB -15.49 dB 5:36 10-Near The End
––––––––––––––––––––––––––––––––––––––––

Number of tracks: 10
Official DR value: DR11

Samplerate: 44100 Hz
Channels: 2
Bits per sample: 16
Bitrate: 826 kbps
Codec: FLAC
================================================================================

[CUETools log; Date: 09.12.2017 14:26:02; Version: 2.1.5]
[CTDB TOCID: wOOFVISkQRLXCEPHSyBD.Pat_IA-] found.
Track | CTDB Status
1 | (87/91) Accurately ripped
2 | (88/91) Accurately ripped
3 | (87/91) Accurately ripped
4 | (88/91) Accurately ripped
5 | (88/91) Accurately ripped
6 | (88/91) Accurately ripped
7 | (88/91) Accurately ripped
8 | (88/91) Accurately ripped
9 | (87/91) Accurately ripped
10 | (87/91) Accurately ripped
[AccurateRip ID: 00113206-008856e8-950aad0a] found.
Track [ CRC | V2 ] Status
01 [eae30414|9a5a7ed9] (009+008/120) Accurately ripped
02 [b4b5c996|63e789b8] (008+007/120) Accurately ripped
03 [b222a85a|e32a5bfb] (008+007/118) Accurately ripped
04 [67ece6dc|c13179b0] (008+008/119) Accurately ripped
05 [b8d58633|9c19ab64] (008+008/119) Accurately ripped
06 [00d9f5b6|b884a394] (008+008/120) Accurately ripped
07 [62460995|d25ae70e] (008+008/119) Accurately ripped
08 [cf2097eb|7c816d59] (008+008/120) Accurately ripped
09 [8bdaf40c|4ae2d02a] (007+008/119) Accurately ripped
10 [e483bd6c|066873a0] (008+008/120) Accurately ripped
Offsetted by 946:
01 [009e37b4] (015/120) Accurately ripped
02 [a047c395] (015/120) Accurately ripped
03 [176e6e5b] (015/118) Accurately ripped
04 [47aa2714] (015/119) Accurately ripped
05 [9cf24e31] (015/119) Accurately ripped
06 [5a9a709a] (015/120) Accurately ripped
07 [c636375d] (015/119) Accurately ripped
08 [8b680b35] (015/120) Accurately ripped
09 [9ea7926e] (015/119) Accurately ripped
10 [d4d335e6] (015/120) Accurately ripped
Offsetted by 982:
01 [3cfadaf4] (030/120) Accurately ripped
02 [f8a2a9ac] (032/120) Accurately ripped
03 [d81aff24] (032/118) Accurately ripped
04 [e24f6484] (032/119) Accurately ripped
05 [f86f576d] (032/119) Accurately ripped
06 [a2c127e2] (032/120) Accurately ripped
07 [e0bf15ed] (031/119) Accurately ripped
08 [efa98b89] (032/120) Accurately ripped
09 [051ed9f2] (032/119) Accurately ripped
10 [87ea429a] (032/120) Accurately ripped
Offsetted by 1292:
01 [d2fc1fd4] (014/120) Accurately ripped
02 [e37ca9cd] (014/120) Accurately ripped
03 [0b7d67c3] (014/118) Accurately ripped
04 [15fabcac] (014/119) Accurately ripped
05 [8c407c47] (014/119) Accurately ripped
06 [572afcce] (014/120) Accurately ripped
07 [6fe7e7c5] (014/119) Accurately ripped
08 [16167907] (013/120) Accurately ripped
09 [b05ade38] (014/119) Accurately ripped
10 [c6f7daa8] (014/120) Accurately ripped
Offsetted by 880:
01 [e749b714] (000/120) No match (V2 was not tested)
02 [9f21d5cd] (000/120) No match (V2 was not tested)
03 [90b68413] (000/118) No match (V2 was not tested)
04 [2c25e11c] (000/119) No match (V2 was not tested)
05 [7537bd43] (000/119) No match (V2 was not tested)
06 [00fe2096] (000/120) No match (V2 was not tested)
07 [95909f55] (000/119) No match (V2 was not tested)
08 [7e454a9b] (000/120) No match (V2 was not tested)
09 [382239fc] (000/119) No match (V2 was not tested)
10 [e1d39e9c] (000/120) No match (V2 was not tested)
Offsetted by 889:
01 [7660dfe4] (000/120) No match (V2 was not tested)
02 [b099c82b] (003/120) Accurately ripped
03 [00486a75] (003/118) Accurately ripped
04 [52cf3078] (003/119) Accurately ripped
05 [4c16ff92] (003/119) Accurately ripped
06 [d307ce68] (003/120) Accurately ripped
07 [1c32d6f9] (003/119) Accurately ripped
08 [9755aab0] (003/120) Accurately ripped
09 [51c00bdd] (002/119) Accurately ripped
10 [8e9961c9] (003/120) Accurately ripped

Track Peak [ CRC32 ] [W/O NULL] [ LOG ]
– 98,6 [E90F401D] [61835044] CRC32
01 98,6 [1092C77F] [254BB4A9]
02 98,4 [64A0A7FD] [6FBE7C2C]
03 94,3 [6569B626] [120C03A0]
04 93,3 [7D7E1F19] [79395A97]
05 82,2 [D7BF58B0] [73010804]
06 96,8 [062C7F2E] [CBF35F8D]
07 80,2 [C9CC59E4] [6FF25B93]
08 92,0 [5B8B4FE0] [7055D193]
09 97,7 [58062899] [247822D6]
10 91,7 [66452D77] [407EF0EA]

David Gilmour - About Face (1984) {Non-Remastered} Repost

All thanks go to Alex

>>> David Gilmour in my Blog <<<

Download from icerbox.com: