Subcategories

David Gilmour - Rattle That Lock (2015) [Vinyl Rip 16/44 & mp3-320]

Posted By: v3122
David Gilmour - Rattle That Lock (2015) [Vinyl Rip 16/44 & mp3-320]

David Gilmour - Rattle That Lock (2015)
Vinyl Rip 16/44 | Flac(Image + Cue) > 294 Mb
MP3 CBR 320Kbps > 118 Mb | Artwork(jpg) > 457 Mb
David Gilmour Music Ltd. / Columbia Records, 88875123291
Progressive Rock

Former Pink Floyd guitarist David Gilmour is not prolific. Rattle That Lock is only his fourth solo studio album (though it follows his late band's final album, The Endless River, by only ten months). Gilmour recorded some 35 songs for this set, some dating back 18 years. Trimming them to ten couldn't have been easy. Titled for John Milton's second book in Paradise Lost, Rattle That Lock is structured as an informal song cycle to reflect the sometimes random, sometimes weightier thought processes of a typical person in a single day. It begins, appropriately, with the instrumental "5 A.M.." Orchestrated by Zbigniew Preisner, Gilmour's signature slow, bluesy, Stratocaster sting enters just 30 seconds in, followed by fingerpicked acoustic guitars, gentle synths, and electric piano amid chamber strings to announce the title-track single. It's the first of five songs co-written with novelist Polly Samson, Gilmour's wife. His meaty guitar lines mirror the spirit of the lyrics, which reflect dissent and the redemption that lies in the freedom to choose. Co-producer Phil Manzanera's Hammond organ, two funky basslines, and soaring chorus vocals from Mica Paris, Louise Marshall, and the Liberty Choir provide a smooth AOR feel. "Faces of Stone" is a waltz done as a tango, colored by Floyd-esque atmospherics and an extended wailing guitar break. The ageless harmonies of Graham Nash and David Crosby grace "A Boat Lies Waiting," a moving, understated tribute to Pink Floyd keyboardist Richard Wright. Gilmour's slide hovers above Roger Eno's elegant piano, chamber strings, and the cry of gulls. Samson's lyrics are economical but mighty, capturing bittersweet nostalgia, pain, and loss in their poignancy. "In Any Tongue" chillingly examines the toll of a global war run by men with deadly joysticks (to drones) in their hands: "God help my son/What has he done?/…I hear 'Mama' sounds the same in any tongue…." In "Beauty," Eno and Gilmour trade contrasting minimal piano and blues-rock guitar lines as strings and reverb bridge them. Second single "Today" commences as a hymn, but erupts into wonky funk driven by Guy Pratt's bass. Here the silken, rockist disco of Wall-era Floyd clashes with Speaking in Tongues-era Talking Heads, and it all works – dramatic orchestral accompaniment notwithstanding. Instrumental closer "And Then…" features Gilmour's expressive Strat and acoustic guitars. Andy Newmark's drums and Danny Cummings' percussion frame them amid a backdrop of strings. This tune is so lyrical that Gilmour's guitar playing literally sings, making it one of his finest instrumentals. As a whole, Rattle That Lock reveals more confident and developed songwriting from Gilmour and Samson; they'll be a near-symbiotic team in the future. It is a snapshot of where Gilmour is as a musician in 2015, and not by any means a grand portrait or statement to sum up his career.

by Thom Jurek, allmusic
David Gilmour - Rattle That Lock (2015) [Vinyl Rip 16/44 & mp3-320]


David Gilmour - Rattle That Lock (2015):

David Gilmour - Rattle That Lock (2015) [Vinyl Rip 16/44 & mp3-320]

Tracklist:

01. A1. 5 A.M. [03:04]
02. A2. Rattle That Lock [04:55]
03. A3. Faces Of Stones [05:32]
04. A4. A Boat Lies Waiting [04:34]
05. A5. Dancing Right in Front Of Me [06:08]
06. B1. In Any Tongue [06:19]
07. B2. Beauty [04:10]
08. B3. The Girl In The Yellow Dress [05:04]
09. B4. Today [05:38]
10. B5. And Then… [04:24]

foobar2000 1.2.9 / Dynamic Range Meter 1.1.1
log date: 2017-02-21 16:36:49

––––––––––––––––––––––––––––––––––––––––
Analyzed: DAVID GILMOUR / Rattle That Lock
––––––––––––––––––––––––––––––––––––––––

DR Peak RMS Duration Track
––––––––––––––––––––––––––––––––––––––––
DR11 -3.03 dB -18.39 dB 3:05 01-A1. 5 A.M.
DR13 -0.31 dB -16.16 dB 4:56 02-A2. Rattle That Lock
DR12 -1.25 dB -16.87 dB 5:32 03-A3. Faces Of Stones
DR11 -3.13 dB -19.22 dB 4:35 04-A4. A Boat Lies Waiting
DR13 -0.75 dB -16.89 dB 6:09 05-A5. Dancing Right in Front Of Me
DR12 -2.57 dB -16.88 dB 6:19 06-B1. In Any Tongue
DR13 -2.24 dB -19.59 dB 4:10 07-B2. Beauty
DR12 -4.43 dB -18.36 dB 5:04 08-B3. The Girl In The Yellow Dress
DR12 -0.61 dB -15.63 dB 5:39 09-B4. Today
DR12 -2.88 dB -18.06 dB 4:25 10-B5. And Then…
––––––––––––––––––––––––––––––––––––––––

Number of tracks: 10
Official DR value: DR12

Samplerate: 44100 Hz
Channels: 2
Bits per sample: 16
Bitrate: 801 kbps
Codec: FLAC

David Gilmour - Rattle That Lock (2015) [Vinyl Rip 16/44 & mp3-320]

All thanks go to bruk67 & KoGGaN



David Gilmour in my Blog

Download David Gilmour - Rattle That Lock (2015):