Subcategories

David Murray Trio - 3D Family (1978)

Posted By: v3122
David Murray Trio - 3D Family (1978)

David Murray Trio - 3D Family (1978)
EAC | Flac(Image) + Cue + Log & MP3 CBR 320Kbps
Hat Hut Records, hatOLOGY 608 | ~ 407 or 167 Mb | Artwork(jpg) -> 11 Mb
Free Improvisation / Avant-Garde Jazz

A major early release by tenorist Murray, 3D Family appeared originally on Hat Hut records as a double LP before eventually being re-released on disc by hat ART. Murray performs here in a live context with one of his very strongest rhythm sections: the intensely musical South African bassist Johnny Dyani and veteran master drummer Andrew Cyrille. The program consists of all Murray compositions, weaving between burners, funky dances, and soulful ballads. "Patricia" is an especially lovely example of the latter, with Murray displaying his well-known penchant for Ben Webster-like growls, which almost inevitably mutate into upper-register cries. The title track is a wonderfully surging piece, full of drama. Dyani's propulsive playing here is astonishing; of all the bassists to accompany Murray, perhaps only the late Fred Hopkins was his peer. His often-played "P-O in Cairo" suffers a bit pared down to a trio, its sinuous line sounding a bit lost as though seeking support, but still the playing manages to salvage something. If anything, the length of the pieces allows Murray to drift on a bit longer than necessary at times. As often as not, though, he manages to wring out some extra juice, making it easy for the listener to grant him significant slack. Still in his mid-twenties, this recording captures him moving toward the crest of his powers (evidenced in his octets) and is one of the better trio dates in his discography. Recommended, as much for the marvelous "sidemen" as for Murray himself.

by Brian Olewnick, allmusic
David Murray Trio - 3D Family (1978):

David Murray Trio - 3D Family (1978)

Tracklist:

1. 3D Family (19:11)
2. Patricia (17:51)
3. In Memory Of Yomo Kenyatta (09:37)
4. Shout Song (23:55)

All compositions by David Murray

David Murray - tenor saxophone
Johnny Mbizo Dyani - double bass
Andrew Cyrille - percussion


Exact Audio Copy V1.0 beta 3 from 29. August 2011

EAC extraction logfile from 27. October 2012, 17:38

David Murray Trio / 3D Family

Used drive : Optiarc DVD RW AD-7260S Adapter: 3 ID: 0

Read mode : Secure
Utilize accurate stream : Yes
Defeat audio cache : Yes
Make use of C2 pointers : No

Read offset correction : 48
Overread into Lead-In and Lead-Out : No
Fill up missing offset samples with silence : Yes
Delete leading and trailing silent blocks : No
Null samples used in CRC calculations : Yes
Used interface : Native Win32 interface for Win NT & 2000
Gap handling : Appended to previous track

Used output format : User Defined Encoder
Selected bitrate : 128 kBit/s
Quality : High
Add ID3 tag : No
Command line compressor : C:\Program Files\Exact Audio Copy\Flac\flac.exe
Additional command line options : -V -8 -T "Genre=%genre%" -T "Artist=%artist%" -T "Title=%title%" -T "Album=%albumtitle%" -T "Date=%year%" -T "Tracknumber=%tracknr%" -T "Comment=%comment%" %source%


TOC of the extracted CD

Track | Start | Length | Start sector | End sector
––––––––––––––––––––––––––––-
1 | 0:00.00 | 19:11.23 | 0 | 86347
2 | 19:11.23 | 17:51.14 | 86348 | 166686
3 | 37:02.37 | 9:37.55 | 166687 | 210016
4 | 46:40.17 | 23:55.48 | 210017 | 317689


Track 1

Filename E:\rip by readab\David Murray Trio - 3D Family (2006)\01 - 3D Family.wav

Pre-gap length 0:00:02.00

Peak level 98.9 %
Extraction speed 3.1 X
Track quality 100.0 %
Test CRC 898B7A3A
Copy CRC 898B7A3A
Accurately ripped (confidence 2) [5AF53DE3] (AR v1)
Copy OK

Track 2

Filename E:\rip by readab\David Murray Trio - 3D Family (2006)\02 - Patricia.wav

Peak level 95.0 %
Extraction speed 4.1 X
Track quality 100.0 %
Test CRC 40DD915C
Copy CRC 40DD915C
Accurately ripped (confidence 2) [4E47A8C3] (AR v1)
Copy OK

Track 3

Filename E:\rip by readab\David Murray Trio - 3D Family (2006)\03 - In Memory Of Yomo Kenyatta.wav

Peak level 98.9 %
Extraction speed 4.6 X
Track quality 100.0 %
Test CRC 8328E78B
Copy CRC 8328E78B
Accurately ripped (confidence 2) [E8DBAAFA] (AR v1)
Copy OK

Track 4

Filename E:\rip by readab\David Murray Trio - 3D Family (2006)\04 - Shout Song.wav

Peak level 98.9 %
Extraction speed 4.4 X
Track quality 100.0 %
Test CRC 0D551593
Copy CRC 0D551593
Accurately ripped (confidence 2) [9488F677] (AR v1)
Copy OK


All tracks accurately ripped

No errors occurred

End of status report

==== Log checksum 5BB4FCE7F1002C38A9CF65383CFD3ACD290ABA23EB16320F52FE4523ADC4FD9F ====


[CUETools log; Date: 14.01.2020 16:56:14; Version: 2.1.6]
[CTDB TOCID: lKU7qsQVZ2rYcRuA0sjq5TrcbDc-] found.
Track | CTDB Status
1 | (9/9) Accurately ripped
2 | (9/9) Accurately ripped
3 | (9/9) Accurately ripped
4 | (9/9) Accurately ripped
[AccurateRip ID: 000be9c6-002f525c-22108b04] found.
Track [ CRC | V2 ] Status
01 [5af53de3|af8a3083] (2+6/8) Accurately ripped
02 [4e47a8c3|883f35f9] (2+5/7) Accurately ripped
03 [e8dbaafa|f3114d9b] (2+6/8) Accurately ripped
04 [9488f677|ffdbe924] (2+5/7) Accurately ripped

Track Peak [ CRC32 ] [W/O NULL] [ LOG ]
– 98,9 [3EBFF42E] [5499C453]
01 98,9 [898B7A3A] [8D783A1E] CRC32
02 95,0 [40DD915C] [DEAEE81C] CRC32
03 98,9 [8328E78B] [EBAE722D] CRC32
04 98,9 [0D551593] [BC243246] CRC32


David Murray Trio - 3D Family (1978)

All thanks go to readab

David Murray in my Blog

Download David Murray Trio - 3D Family (1978):